Скачать номер 44 через торрент в хорошем качестве


Номер 44 / Child 44 скачать фильм торрент 2014 -

Коротко о фильме "Номер 44" - СССР, начало 50-ых годов. Офицер МГБ Лев Демидов решает расследовать серию убийств детей, но проблема в том, что это идёт вразрез с утверждением «у нас убийств нет» самого тов. Сталина…

Добавлено BDRip, HDRip, звук iTunes.

Номер 44

Оригинальное название Child 44
Фильм выпущен: 2014
Страна (кинокомпания): США, Великобритания, Чехия, Румыния
Режиссер: Даниэль Эспиноса
Сценарий фильма: Ричард Прайс, Том Роб Смит
Продюсер фильма: Майкл Шефер, Ридли Скотт, Грег Шапиро
Оператор: Оливер Вуд
Композитор: Йон Экстранд
Художники: Ян Рулфс, Эрик Польсвартек, Мартин Вакар
Монтаж: Пьетро Скалия, Дилан Тиченор
Жанр фильма: триллер, детектив, криминал, драма
Премьера (мир): 15 апреля 2015
премьера (Pоссия):
продолжительность131 мин
В главных ролях:
Марк Льюис Джонс
Ксавьер Аткинс
Венсан Кассель
Джейсон Кларк
Пэдди Консидайн
Юэль Киннаман
Нуми Рапас
Гари Олдман
Том Харди
и другие ...

Трейлер фильма:

 

Фильм Номер 44 / Child 44 скачать торрент - новинка кино 2014

Скачать файлы .torrent Номер 44 (фильм)

на сайте Вы можете получить ссылку на торрент файлы или скачать сами торрент файлы, в которых находится информация о местонахождении фильмов, сериалов у пользователей.

В фильме "Номер 44" - разжалованный сотрудник военной полиции исследует ряд отвратительных детских убийств в течение сталинской эпохи в Советском Союзе



Параметры: 28.07.2015 HDRip от Scarabey | iTunes, 1,42 Гб

Формат: HDRip, AVI, XviD, AC3, размер файла: 1,42 ГбВидео: 720x304, XviD - build 73 ~1279 Кбит/сАудио: AC3, 2 канала, 192 Кбит/сПеревод (озвучивание): Профессиональный (полное дублирование) [iTunes]

Параметры: 28.07.2015 BDRip 720p от Leonardo | iTunes, 4,36 Гб

Формат: BDRip 720p Исходник: Blu-ray, MKV, AVC, AC3, размер файла: 4,36 ГбВидео: 1280x534, AVC - AVC at 3917 Кбит/сАудио: Русский: AC3, 6 каналов, 640 Кбит/сПеревод (озвучивание): Профессиональный (полное дублирование)

Параметры: 27.07.2015 BDRip 1080p от ExKinoRay | US Transfer | iTunes Russia, 9,87 Гб

Формат: BDRip (1080p), MKV, AVC, размер файла: 9,87 ГбВидео: 1920x800, AVC - 7777 Кбит/сАудио: Русский / Английский: AC3, 6 каналов, 384 Кбит/сПеревод (озвучивание): Дублированный

Параметры: 27.07.2015 BDRip-AVC от ExKinoRay | US Transfer | iTunes, 2,44 Гб

Формат: WEB-DLRip (AVC), MKV, AVC, размер файла: 2,44 ГбВидео: 1024x426, AVC - 1720 Кбит/сАудио: Русский / Английский: AC3, 6 каналов, 384 Кбит/сПеревод (озвучивание): Дублированное [iTunes]

Параметры: 24.07.2015 HDRip | US Transfer | iTunes, 1,37 Гб

Формат: HDRip [Рип с BDRip 720p], AVI, XviD, AC3, размер файла: 1,37 ГбВидео: 720x304, XviD - 1033 Кбит/сАудио: AC3, 6 каналов, 384 Кбит/сПеревод (озвучивание): Дублированное [iTunes]

Параметры: 24.07.2015 HDRip, 1,37 Гб -

Формат: HDRip, XviD, AC3, размер файла: 1,37 ГбВидео: 720x304, XviD - 1033 Кбит/сАудио: AC3, 6 каналов, 384 Кбит/сПеревод (озвучивание): Дублированный [iTunes]

Параметры: 24.07.2015 HDRip, 2,18 Гб -

Формат: HDRip, XviD, AC3, размер файла: 2,18 ГбВидео: 720x304, XviD - 1833 Кбит/сАудио: AC3, 6 каналов, 384 Кбит/сПеревод (озвучивание): Дублированный [iTunes]

Параметры: 24.07.2015 10,2 Гб -

Формат: BDRip (1080p), MKV, AVC, размер файла: 10,2 ГбВидео: 1920x800, AVC - 8754 Кбит/сАудио: Русский / Английский: AC3, 6 каналов, 384 Кбит/сПеревод (озвучивание): Дублированный [iTunes]

Параметры: 24.07.2015 6,93 Гб -

Формат: BDRip (720p), MKV, AVC, размер файла: 6,93 ГбВидео: 1280x536, AVC - 5330 Кбит/сАудио: Русский / Английский: AC3, 6 каналов, 384 Кбит/сПеревод (озвучивание): Дублированный [iTunes]

Параметры: 15.07.2015 WEB-DLRip-AVC от Scarabey | iTunes, 2,17 Гб

Формат: WEB-DLRip-AVC, MKV, AVC, AC3, размер файла: 2,17 ГбВидео: 1024x576, AVC - ~1977 Кбит/сАудио: AC3, 6 каналов, 384 Кбит/сПеревод (озвучивание): Профессиональный (полное дублирование) [iTunes]

Параметры: 10.07.2015 WEB-DLRip-AVC от ExKinoRay | iTunes, 2,00 Гб

Формат: WEB-DLRip (AVC), MKV, AVC, AC3, размер файла: 2,00 ГбВидео: 1024x576, AVC - 1789 Кбит/сАудио: AC3, 6 каналов, 384 Кбит/сПеревод (озвучивание): Дублированное [iTunes]

Параметры: 10.07.2015 WEB-DL 1080p | iTunes, 5,23 Гб

Формат: WEB-DL 1080p, MKV, AC3, размер файла: 5,23 ГбВидео: 1920x1080, - 5200 Кбит/сАудио: AC3, 6 каналов, 384 Кбит/сПеревод (озвучивание): Дублированное [iTunes]

Параметры: 10.07.2015 WEB-DL 720p | iTunes, 4,09 Гб

Формат: WEB-DL 720p, MKV, AC3, размер файла: 4,09 ГбВидео: @960x720, - 3976 Кбит/сАудио: AC3, 6 каналов, 384 Кбит/сПеревод (озвучивание): Дублированное [iTunes]

Параметры: 09.07.2015 WEB-DLRip | iTunes, 1,46 Гб

Формат: WEB-DLRip, AVI, XviD, AC3, размер файла: 1,46 ГбВидео: 720x400, XviD - 1196 Кбит/сАудио: AC3, 6 каналов, 384 Кбит/сПеревод (озвучивание): Дублированное [iTunes]

Скачать Номер 44, Child 44, фильм бесплатно скачать торрент, триллер, детектив, криминал, драма, новинка кино

 

hokit.ru

Скачать фильм Номер 44 через торрент в хорошем качестве бесплатно HDRip

Размер: 2.18 GB | Добавлен: 2 года 3 мес. назад | Торрент скачан:649 раз
Реклама Дарим 3000 рублей за регистрацию, не упусти свой шанс получить шикарный бонус!!!

24-07-2015 09:14 Номер 44 Скачать торрент  

Номер 44 / Child 44 Год выпуска: 2015Страна: США, Великобритания, Чехия, РумынияЖанр: триллер, детектив, криминал, драма

Продолжительность: 02:17:11Перевод: Дубляж - [Лицензия / iTunes]

Режиссер: Даниэль ЭспиносаВ ролях: Том Харди (Leo Demidov), Гари Олдман (General Mikhail Nesterov), Нуми Рапас (Raisa Demidov), Юэль Киннаман (Vasili), Пэдди Консидайн (Vladimir Malevich), Джейсон Кларк (Anatoly Tarasovich Brodsky), Венсан Кассель (Major Kuzmin), Ксавьер Аткинс (Young Leo Demidov), Марк Льюис Джонс (Tortoise), Фарес Фарес (Alexei Andreyev), Карел Добрей (Photographer), Агнешка Гроховска (Nina Andreyeva) Описание: СССР, начало 50-ых годов. Офицер МГБ Лев Демидов решает расследовать серию убийств детей, но проблема в том, что это идёт вразрез с утверждением «у нас убийств нет» самого тов. Сталина...Рейтинг: MPAA: R - Лицам до 17 лет обязательно присутствие взрослого Качество: HDRipФормат: AVIВидео кодек: XviDАудио кодек: AC3Видео: XviD, 720x304 (2.35:1), 1877 kbps, 23,976 fps, 0,358 bppАудио: AC3 / 5.1 / 48 kHz / 384 kbps / 16 bit

Код:

GeneralComplete name                            : E:\Films\Child.44.2015.HDRip.2.18.aviFormat                                   : AVIFormat/Info                              : Audio Video InterleaveFormat profile                           : OpenDMLFile size                                : 2.18 GiBDuration                                 : 2h 17mnOverall bit rate                         : 2 274 KbpsWriting application                      : VirtualDubModRus 1.5.10.2 (build 2542/release)Writing library                          : VirtualDubMod build 2542/release

VideoID                                       : 0Format                                   : MPEG-4 VisualFormat profile                           : Advanced [email protected] settings, BVOP                    : 1Format settings, QPel                    : NoFormat settings, GMC                     : No warppointsFormat settings, Matrix                  : CustomCodec ID                                 : XVIDCodec ID/Hint                            : XviDDuration                                 : 2h 17mnBit rate                                 : 1 878 KbpsWidth                                    : 720 pixelsHeight                                   : 304 pixelsDisplay aspect ratio                     : 2.35:1Frame rate                               : 23.976 fpsColor space                              : YUVChroma subsampling                       : 4:2:0Bit depth                                : 8 bitsScan type                                : ProgressiveCompression mode                         : LossyBits/(Pixel*Frame)                       : 0.358Stream size                              : 1.80 GiB (83%)Writing library                          : XviD 73

AudioID                                       : 1Format                                   : AC-3Format/Info                              : Audio Coding 3Mode extension                           : CM (complete main)Codec ID                                 : 2000Duration                                 : 2h 17mnBit rate mode                            : ConstantBit rate                                 : 384 KbpsChannel(s)                               : 6 channelsChannel positions                        : Front: L C R, Side: L R, LFESampling rate                            : 48.0 KHzBit depth                                : 16 bitsCompression mode                         : LossyStream size                              : 377 MiB (17%)Alignment                                : Split accross interleavesInterleave, duration                     : 42 ms (1.00 video frame)Interleave, preload duration             : 500 ms

Скачать Номер 44 через торрент http://i2.imageban.ru/out/2015/07/24/61ca878bb393683c775a6c50a473f44d.jpg Скачать фильм Номер 44 через торрент бесплантно в хорошем качестве Описание: СССР, начало 50-ых годов. Офицер МГБ Лев Демидов решает расследовать серию убийств детей, но проблема в том, что это идёт вразрез ... 2015-07-24 09:14 7.9 10 22

Loading...

Loading...

% Раздел Тема Автор DL S | L
Фильмы с украинским озвучиванием [ 1.91 GB ] Номер 44 / Child 44 [2015 BDRip-AVC] [Ukr Dub] killermax2013 Скачать
T Фильмы [HD 720p, 1080p] (Хороший звук DUB, MVO) [ 6.93 GB ] Номер 44 / Child 44 [2015 Чехия Румыния BDRip 720p - / ] _KaisiK_ Скачать
T Фильмы (Blu-ray, BD-Remux, HDDVD) [ 39.21 GB ] Номер 44 / Child 44 [2014 BDRemux / US Transfer / ] Ворон Скачать
Фильмы 2015 [DVDrip, WEB-DLRip, HDrip] [ 2.91 GB ] Номер 44 / Child 44 [2014 BDRip-AVC] Dub potroks Скачать
Фильмы 2015 [DVDrip, WEB-DLRip, HDrip] [ 1.46 GB ] Номер 44 / Child 44 [2015 BDRip ] Twi7ter Скачать
Фильмы 2015 [DVDrip, WEB-DLRip, HDrip] [ 1.37 GB ] Номер 44 / Child 44 [2015 HDRip - / ] Newton5 Скачать
Фильмы 2015 [DVDrip, WEB-DLRip, HDrip] [ 2.05 GB ] Номер 44 / Child 44 [2015 WEB-DLRip - / ] Ворон Скачать

Рекламный пират

24-07-2015 09:38 Номер 44 Скачать торрент  

Даже качать не стану. Англичане сняли про русских. За всю историю на моей памяти один нормальный фильм про нас - К 19. А тут по аннотации уже ясно все. Хороший мент ищет, а злые коммуняки мешают. На западе схавают, а между тем при Сталине с бандитизмом боролись очень круто. И с маньяками никто не церемонился.

24-07-2015 09:40 Номер 44 Скачать торрент  

А ну еще Красная жара, где нас не совсем дебилами выставили.

24-07-2015 10:37 Номер 44 Скачать торрент  

Ничего мы не знаем о настоящей истории. История- это шлюха которая спит с победителем!

25-07-2015 11:08 Номер 44 Скачать торрент  

Evgeniy 23 писал(а):

На западе схавают, а между тем при Сталине с бандитизмом боролись очень круто. И с маньяками никто не церемонился.

А Вы жили тогда и сами все видели своими глазами? При Сталине со всеми боролись "очень круто", напомнить сколько народу голодоморами, репрессиями, лагерями, гулагами и тд. и тп. Сколько невинных людей НКВД погубило? Сколько менты совковые людей невиновных закрыли и расстреляли, лишь бы "дело закрыт". Вам что сказали, Вы то и схавали, и другим людям этой х*рней голову засираете.

25-07-2015 17:35 Номер 44 Скачать торрент  

Ten0N писал(а):

Evgeniy 23 писал(а):

На западе схавают, а между тем при Сталине с бандитизмом боролись очень круто. И с маньяками никто не церемонился.

А Вы жили тогда и сами все видели своими глазами? При Сталине со всеми боролись "очень круто", напомнить сколько народу голодоморами, репрессиями, лагерями, гулагами и тд. и тп. Сколько невинных людей НКВД погубило? Сколько менты совковые людей невиновных закрыли и расстреляли, лишь бы "дело закрыт". Вам что сказали, Вы то и схавали, и другим людям этой х*рней голову засираете.Намного меньше, чем при Екатерине II. Но ведь, конечно, Сталин сатрап и диктатор... только минусы...

25-07-2015 19:21 Номер 44 Скачать торрент  

Отличный, серьезный фильм, не для школоты...Не потратил время зря .. ®

25-07-2015 19:30 Номер 44 Скачать торрент  

Фильм отличный! Глянул с удовольствием!

30-07-2015 10:25 Номер 44 Скачать торрент  

Фильм отличный.спасибо

Pекламный агент PB

10-09-2015 15:33 Номер 44 Скачать торрент  

Раздача не нуждаются в помощи (Сидеров: 16, Личеров: 1)???Два часа уже "качаю"...

20-09-2015 17:26 Номер 44 Скачать торрент  

Ten0N писал(а):

Evgeniy 23 писал(а):

На западе схавают, а между тем при Сталине с бандитизмом боролись очень круто. И с маньяками никто не церемонился.

А Вы жили тогда и сами все видели своими глазами? При Сталине со всеми боролись "очень круто", напомнить сколько народу голодоморами, репрессиями, лагерями, гулагами и тд. и тп. Сколько невинных людей НКВД погубило? Сколько менты совковые людей невиновных закрыли и расстреляли, лишь бы "дело закрыт". Вам что сказали, Вы то и схавали, и другим людям этой х*рней голову засираете.Сталин конечно тиран и т.д., ведь кто-то же написал все эти доносы...

26-09-2015 15:39 Номер 44 Скачать торрент  

Фильм дерьмо полное , еще до сих пор американские шлюхи не снимали такой чуши про Россию - но на этот раз они переплюнули все грани разума. Мы конечно привыкли смотреть в их фильмах про то что у всех нас какарда на шапке , валенки , тулуп и рядом мишка водку подливает , а под левой рукой гармонь , но в этот раз это просто пиз............ Других слов не найдешь Россия империя зла вашу мать !!!! Чё вы там курите уроды американские ? Фильм однозначно шлак полный -20 из 5

04-10-2015 18:04 Номер 44 Скачать торрент  

Evgeniy 23 писал(а):

Даже качать не стану. Англичане сняли про русских. За всю историю на моей памяти один нормальный фильм про нас - К 19. А тут по аннотации уже ясно все. Хороший мент ищет, а злые коммуняки мешают. На западе схавают, а между тем при Сталине с бандитизмом боролись очень круто. И с маньяками никто не церемонился.

Согласен,но и невинные жертвы тоже были.Фильм гумно. :cansored:

Ten0N писал(а):

Цитата:

А Вы жили тогда и сами все видели своими глазами? При Сталине со всеми боролись "очень круто", напомнить сколько народу голодоморами, репрессиями, лагерями, гулагами и тд. и тп. Сколько невинных людей НКВД погубило? Сколько менты совковые людей невиновных закрыли и расстреляли, лишь бы "дело закрыт". Вам что сказали, Вы то и схавали, и другим людям этой х*рней голову засираете.

Дети совковых чиновников приватизировали общенародное имущество и стали олигархами.Большиство депутатов и чиновников имеют недвижимость на "загнивающем западе",их дети учатся за бугром,а перед нами они корчат из себя ярых патриотов.Например,у главного патриота России Железняка одна дочь учится в Бельгии,а вторая в Швейцарии.В СССР такого не было. Полковника ГРУ Квачков сидит по сфабрикованным обвинениям,а гнида Васильева на свободе! У нас экономический кризис,а у них зимняя Олимпиада в субтропиках и ЧМ -18. Это вы не засирайте людям головы,они умнее,чем вы думаете!

Дорогой пользователь! Огромная просьба, поблагодарите релизера, оцените раздачу и оставьте свои комментарий, если Вы скачали Номер 44 через торрент бесплатно! Внесите свою лепту в развитие PiratBit!

Комментировать посты могут только пользователи прошедшие не сложную регистрацию

Номер 44 через торрент Скачать бесплатно Номер 44 Номер 44 скачать торрент Номер 44 смотреть онлайн Cкачать фильм Номер 44 бесплатно Номер 44 скачать торрент в хорошем качестве Номер 44 смотреть онлайн бесплатно в хорошем качестве

Вы не можете начинать темыВы не можете отвечать на сообщенияВы не можете редактировать свои сообщенияВы не можете удалять свои сообщенияВы не можете голосовать в опросахВы не можете прикреплять файлы к сообщениямВы можете скачивать файлы

piratbit.ru

Скачать фильм Номер 44 через торрент в хорошем качестве бесплатно HDRip

Размер: 1.37 GB | Добавлен: 2 года 3 мес. назад | Торрент скачан:321 раз
Реклама Дарим 3000 рублей за регистрацию, не упусти свой шанс получить шикарный бонус!!!

25-07-2015 22:53 Номер 44 Скачать торрент  

Номер 44 / Child 44 Год выпуска: 2015Страна: США, Великобритания, Чехия, РумынияЖанр: триллер, детектив, криминал, драмаПродолжительность: 02:17:11Перевод: Дубляж - [Лицензия / iTunes]Режиссер: Даниэль ЭспиносаВ ролях: Том Харди (Leo Demidov), Гари Олдман (General Mikhail Nesterov), Нуми Рапас (Raisa Demidov), Юэль Киннаман (Vasili), Пэдди Консидайн (Vladimir Malevich), Джейсон Кларк (Anatoly Tarasovich Brodsky), Венсан Кассель (Major Kuzmin), Ксавьер Аткинс (Young Leo Demidov), Марк Льюис Джонс (Tortoise), Фарес Фарес (Alexei Andreyev), Карел Добрей (Photographer), Агнешка Гроховска (Nina Andreyeva)Описание: СССР, начало 50-ых годов. Офицер МГБ Лев Демидов решает расследовать серию убийств детей, но проблема в том, что это идёт вразрез с утверждением «у нас убийств нет» самого тов. Сталина... , MPAA: R - Лицам до 17 лет обязательно присутствие взрослогоКачество: HDRipФормат: AVIВидео кодек: XviDАудио кодек: AC3Видео: XviD, 720x304 (2.35:1), 1032 kbps, 23,976 fps, 0,197 bppАудио: AC3 / 5.1 / 48 kHz / 384 kbps / 16 bit

Код:

GeneralComplete name                            : E:\торент\Ch2ld0.44.2015.D.HDRip.1400Mb.aviFormat                                   : AVIFormat/Info                              : Audio Video InterleaveFile size                                : 1.37 GiBDuration                                 : 2h 17mnOverall bit rate                         : 1 426 KbpsWriting application                      : VirtualDubMod 1.5.10.2 (build 2540/release)Writing library                          : VirtualDubMod build 2540/release

VideoID                                       : 0Format                                   : MPEG-4 VisualFormat profile                           : Advanced [email protected] settings, BVOP                    : 2Format settings, QPel                    : NoFormat settings, GMC                     : No warppointsFormat settings, Matrix                  : Default (MPEG)Codec ID                                 : XVIDCodec ID/Hint                            : XviDDuration                                 : 2h 17mnBit rate                                 : 1 033 KbpsWidth                                    : 720 pixelsHeight                                   : 304 pixelsDisplay aspect ratio                     : 2.35:1Frame rate                               : 23.976 fpsColor space                              : YUVChroma subsampling                       : 4:2:0Bit depth                                : 8 bitsScan type                                : ProgressiveCompression mode                         : LossyBits/(Pixel*Frame)                       : 0.197Stream size                              : 1 013 MiB (72%)Writing library                          : XviD 1.2.1 (UTC 2008-12-04)

AudioID                                       : 1Format                                   : AC-3Format/Info                              : Audio Coding 3Mode extension                           : CM (complete main)Codec ID                                 : 2000Duration                                 : 2h 17mnBit rate mode                            : ConstantBit rate                                 : 384 KbpsChannel(s)                               : 6 channelsChannel positions                        : Front: L C R, Side: L R, LFESampling rate                            : 48.0 KHzBit depth                                : 16 bitsCompression mode                         : LossyStream size                              : 377 MiB (27%)Alignment                                : Split accross interleavesInterleave, duration                     : 42 ms (1.00 video frame)Interleave, preload duration             : 500 ms

Скачать Номер 44 через торрент http://pic1.pb.wtf/images/10/ibph8.jpg Скачать фильм Номер 44 через торрент бесплантно в хорошем качестве Описание: СССР, начало 50-ых годов. Офицер МГБ Лев Демидов решает расследовать серию убийств детей, но проблема в том, что это идёт вразрез ... 2015-07-25 22:53 8.3 10 17

Loading...

Loading...

% Раздел Тема Автор DL S | L
Фильмы с украинским озвучиванием [ 1.91 GB ] Номер 44 / Child 44 [2015 BDRip-AVC] [Ukr Dub] killermax2013 Скачать
Фильмы 2015 [DVDrip, WEB-DLRip, HDrip] [ 2.18 GB ] Номер 44 / Child 44 [2015 HDRip - / ] 10oN Скачать
T Фильмы [HD 720p, 1080p] (Хороший звук DUB, MVO) [ 6.93 GB ] Номер 44 / Child 44 [2015 Чехия Румыния BDRip 720p - / ] _KaisiK_ Скачать
T Фильмы (Blu-ray, BD-Remux, HDDVD) [ 39.21 GB ] Номер 44 / Child 44 [2014 BDRemux / US Transfer / ] Ворон Скачать
Фильмы 2015 [DVDrip, WEB-DLRip, HDrip] [ 2.91 GB ] Номер 44 / Child 44 [2014 BDRip-AVC] Dub potroks Скачать
Фильмы 2015 [DVDrip, WEB-DLRip, HDrip] [ 1.46 GB ] Номер 44 / Child 44 [2015 BDRip ] Twi7ter Скачать
Фильмы 2015 [DVDrip, WEB-DLRip, HDrip] [ 2.05 GB ] Номер 44 / Child 44 [2015 WEB-DLRip - / ] Ворон Скачать

Рекламный пират

25-07-2015 23:44 Номер 44 Скачать торрент  

Newton5 писал(а):

Офицер МГБ

Шта? оО

25-07-2015 23:49 Номер 44 Скачать торрент  

Как по мне то фильм шлак, ну это мое мнение. Все наиграно

25-07-2015 23:54 Номер 44 Скачать торрент  

in1erpanik писал(а):

Newton5 писал(а):

Офицер МГБ

Шта? оО  

26-07-2015 03:18 Номер 44 Скачать торрент  

Такого говна давно не смотрел !!!

26-07-2015 07:48 Номер 44 Скачать торрент  

Ш Л А К -

26-07-2015 10:32 Номер 44 Скачать торрент  

Вот это Муть. :sarcastic_blum:

27-07-2015 13:43 Номер 44 Скачать торрент  

Согласен с другими мнениями тут! Особенно, момент с часами на руке у солдата, водружающего знамя Победы над Рейхстагом!!!! Наверное сценарист и режиссёр были в то время там и видели это !?!? Это мерзко...

Дорогой пользователь! Огромная просьба, поблагодарите релизера, оцените раздачу и оставьте свои комментарий, если Вы скачали Номер 44 через торрент бесплатно! Внесите свою лепту в развитие PiratBit!

Комментировать посты могут только пользователи прошедшие не сложную регистрацию

Номер 44 через торрент Скачать бесплатно Номер 44 Номер 44 скачать торрент Номер 44 смотреть онлайн Cкачать фильм Номер 44 бесплатно Номер 44 скачать торрент в хорошем качестве Номер 44 смотреть онлайн бесплатно в хорошем качестве

Вы не можете начинать темыВы не можете отвечать на сообщенияВы не можете редактировать свои сообщенияВы не можете удалять свои сообщенияВы не можете голосовать в опросахВы не можете прикреплять файлы к сообщениямВы можете скачивать файлы

piratbit.ru

Скачать фильм Номер 44 через торрент в хорошем качестве бесплатно BDRip от Twi7ter

Размер: 1.46 GB | Добавлен: 2 года 2 мес. назад | Торрент скачан:911 раз
Реклама Дарим 3000 рублей за регистрацию, не упусти свой шанс получить шикарный бонус!!!

28-07-2015 07:53 Номер 44 Скачать торрент  

Номер 44 / Child 44

«Можно ли найти убийцу, которого нет»

Год выпуска: 2015Страна: США, Великобритания, Чехия, РумынияЖанр: триллер, детектив, криминал, драмаПродолжительность: 02:17:11Перевод: Профессиональный (полное дублирование) [iTunes]Субтитры: НетРежиссер: Даниэль Эспиноса / Daniel EspinosaВ ролях: Том Харди (Leo Demidov), Гари Олдман (General Mikhail Nesterov), Нуми Рапас (Raisa Demidov), Юэль Киннаман (Vasili), Пэдди Консидайн (Vladimir Malevich), Джейсон Кларк (Anatoly Tarasovich Brodsky), Венсан Кассель (Major Kuzmin), Ксавьер Аткинс (Young Leo Demidov), Марк Льюис Джонс (Tortoise), Фарес Фарес (Alexei Andreyev), Карел Добрей (Photographer), Агнешка Гроховска (Nina Andreyeva)Описание: СССР, начало 50-ых годов. Офицер МГБ Лев Демидов решает расследовать серию убийств детей, но проблема в том, что это идёт вразрез с утверждением «у нас убийств нет» самого тов. Сталина...Рейтинг:

MPAA: R - Лицам до 17 лет обязательно присутствие взрослого

Качество: BDRip | исх. CHILD_44_2015_REMUX_HDCLUB |Формат: AVIВидео кодек: XviDАудио кодек: AC3Видео: 720x304 (2.37:1), 23.976 fps, XviD build 73 ~1325 kbps avg, 0.25 bit/pixelАудио: 48 kHz, AC3 Dolby Digital, 2/0 (L,R) ch, ~192 kbps

Релиз: & MegaPeer

Скачать Номер 44 через торрент http://i72.fastpic.ru/big/2015/0728/e0/f470e2b0e1f453e87439d8e06137fce0.png Скачать фильм Номер 44 через торрент бесплантно в хорошем качестве Описание: СССР, начало 50-ых годов. Офицер МГБ Лев Демидов решает расследовать серию убийств детей, но проблема в том, что это идёт вразрез ... 2015-07-28 07:53 9.7 10 30

Loading...

Loading...

% Раздел Тема Автор DL S | L
Фильмы 2015 [DVDrip, WEB-DLRip, HDrip] [ 2.18 GB ] Номер 44 / Child 44 [2015 HDRip - / ] 10oN Скачать
T Фильмы [HD 720p, 1080p] (Хороший звук DUB, MVO) [ 6.93 GB ] Номер 44 / Child 44 [2015 Чехия Румыния BDRip 720p - / ] _KaisiK_ Скачать
T Фильмы (Blu-ray, BD-Remux, HDDVD) [ 39.21 GB ] Номер 44 / Child 44 [2014 BDRemux / US Transfer / ] Ворон Скачать
Фильмы 2015 [DVDrip, WEB-DLRip, HDrip] [ 1.37 GB ] Номер 44 / Child 44 [2015 HDRip - / ] Newton5 Скачать
Фильмы 2015 [DVDrip, WEB-DLRip, HDrip] [ 2.05 GB ] Номер 44 / Child 44 [2015 WEB-DLRip - / ] Ворон Скачать
Фильмы (WEB-DL 720p, 1080p) [ 5.23 GB ] Номер 44 / Child 44 [2015 WEB-DL 1080p ] Ворон Скачать
Фильмы 2015 [DVDrip, WEB-DLRip, HDrip] [ 1.37 GB ] Номер 44 / Child 44 [2015 WEB-DLRip - / ] Ворон Скачать

Рекламный пират

28-07-2015 09:51 Номер 44 Скачать торрент  

Спасибо, норм"

29-07-2015 17:53 Номер 44 Скачать торрент  

Фильм вполне "смотрибельный" и даже интересный.Одно не пойму, неужели американцы не могут отличить погоны советского майора от генерала? (или перевод такой странный)

29-07-2015 23:41 Номер 44 Скачать торрент  

фильм 10/10 а перевод 6/10 фильм советую, снят хорошо!

30-07-2015 12:04 Номер 44 Скачать торрент  

Интересный сюжет, отличные актеры. Смотрели вечером с женой, фильм понравился.

30-07-2015 14:11 Номер 44 Скачать торрент  

30-07-2015 18:39 Номер 44 Скачать торрент  

Большое спасибо!

05-08-2015 09:12 Номер 44 Скачать торрент  

нормуль

09-08-2015 07:15 Номер 44 Скачать торрент  

Фильм просто "Ложь :cansored: и провокация!" 0 из 5

Pекламный агент PB

22-08-2015 15:24 Номер 44 Скачать торрент  

гумно! не стоит тратить свое время!

Дорогой пользователь! Огромная просьба, поблагодарите релизера, оцените раздачу и оставьте свои комментарий, если Вы скачали Номер 44 через торрент бесплатно! Внесите свою лепту в развитие PiratBit!

Комментировать посты могут только пользователи прошедшие не сложную регистрацию

Номер 44 через торрент Скачать бесплатно Номер 44 Номер 44 скачать торрент Номер 44 смотреть онлайн Cкачать фильм Номер 44 бесплатно Номер 44 скачать торрент в хорошем качестве Номер 44 смотреть онлайн бесплатно в хорошем качестве

Вы не можете начинать темыВы не можете отвечать на сообщенияВы не можете редактировать свои сообщенияВы не можете удалять свои сообщенияВы не можете голосовать в опросахВы не можете прикреплять файлы к сообщениямВы можете скачивать файлы

piratbit.ru

Скачать фильм Номер 44 (2014) через торрент

28 сентября 2016 07:23 Номер 44 / Child 44 (2014) BDRip-AVC от HELLYWOOD | iTunes .torrent   [Информация о файле (нажмите для просмотра)] Перевод: Дубляж [iTunes]Субтитры: английские (Full), английские (SDH)Качество: BDRip-AVCФормат: MKVВидео: AVC, 1092x456 (2.40:1), 2141 kbps, 23,976 fps, 0,179 bppАудио №1: AC3 / 5.1 / 48 kHz / 448 kbps / 16 bit| RUSАудио №2: AC3 / 5.1 / 48 kHz / 448 kbps / 16 bit| ENG 2,91 Gb 15 3 28 сентября 2016 07:23 Номер 44 / Child 44 (2015) HDRip от Scarabey | iTunes .torrent   [Информация о файле (нажмите для просмотра)] Перевод: Профессиональный (полное дублирование) [iTunes]Видео: 720x304 (2.37:1), 23.976 fps, XviD build 73 ~1279 kbps avg, 0.24 bit/pixelАудио: 48 kHz, AC3 Dolby Digital, 2/0 (L,R) ch, ~192 kbps 1,42 Gb 219 5 28 сентября 2016 07:23 Номер 44 / Child 44 (2015) HDRip от Scarabey | iTunes .torrent   [Информация о файле (нажмите для просмотра)] Перевод: Профессиональный (полное дублирование) [iTunes]Видео: 640x272 (2.35:1), 23.976 fps, XviD build 73 ~677 kbps avg, 0.16 bit/pixelАудио: 48 kHz, MPEG Layer 3, 2 ch, ~128.00 kbps avg 799,72 Mb 18 1 28 сентября 2016 07:23 Номер 44 / Child 44 (2015) BDRip 720p от Leonardo | iTunes .torrent   [Информация о файле (нажмите для просмотра)] Перевод: Профессиональный (полное дублирование)Формат: MKVВидео кодек: MPEG-4 AVC Аудио кодек: AC3Видео: 1280x534 (2.40:1) at 23.976 fps, AVC at 3917 kbps avg, 0.239 bit/pixelАудио: AC-3 640 Kbps 6 channels, 48.0 KHz Rus 4,36 Gb 48 9 28 сентября 2016 07:23 Номер 44 / Child 44 (2015) BDRip-AVC от ExKinoRay | US Transfer | iTunes .torrent   [Информация о файле (нажмите для просмотра)] Качество: WEB-DLRip (AVC)Видео: MPEG-4 AVC, 1720 Кбит/с, 1024x426Аудио: Русский (AC3, 6 ch, 384 Кбит/с), английский (AC3, 6 ch, 448 Кбит/с)Субтитры: Английские 2,44 Gb 6 3 28 сентября 2016 07:23 Номер 44 / Child 44 (2015) BDRip 1080p от ExKinoRay | US Transfer | iTunes Russia .torrent   [Информация о файле (нажмите для просмотра)] Качество: BDRip (1080p)Видео: MPEG-4 AVC, 7777 Кбит/с, 1920x800, 23.976 кадр/сАудио: Русский (AC3, 6 ch, 384 Кбит/с), (AC3, 6 ch, 640 Кбит/с), английский (DTS, 6 ch, 1510 Кбит/с)Перевод: ДублированныйСубтитры: АнглийскиеВидео: Идентификатор : 1 Формат : AVC Формат/Информация : Advanced Video Codec Профиль формата : [email protected] Параметр CABAC формата : Да Параметр ReFrames формата : 5 кадров Идентификатор кодека : V_MPEG4/ISO/AVC Продолжительность : 2 ч. 17 м. Битрейт : 7777 Кбит/сек Ширина : 1920 пикселей Высота : 800 пикселей Соотношение сторон : 2,40:1 Режим частоты кадров : Постоянный Частота кадров : 23,976 кадра/сек Цветовое пространство : YUV Субдискретизация насыщенности : 4:2:0 Битовая глубина : 8 бит Тип развёртки : Прогрессивная Бит/(Пиксели*Кадры) : 0.211 Размер потока : 7,25 Гбайт (73%) Библиотека кодирования : x264 core 125 r2200 999b753 Настройки программы : cabac=1 / ref=5 / deblock=1:-3:-3 / analyse=0x3:0x133 / me=umh / subme=11 / psy=1 / psy_rd=1.00:0.10 / mixed_ref=1 / me_range=32 / chroma_me=1 / trellis=2 / 8x8dct=1 / cqm=0 / deadzone=21,11 / fast_pskip=0 / chroma_qp_offset=-3 / threads=12 / lookahead_threads=2 / sliced_threads=0 / nr=0 / decimate=0 / interlaced=0 / bluray_compat=0 / constrained_intra=0 / bframes=9 / b_pyramid=2 / b_adapt=2 / b_bias=0 / direct=3 / weightb=1 / open_gop=0 / weightp=2 / keyint=240 / keyint_min=23 / scenecut=40 / intra_refresh=0 / rc=2pass / mbtree=0 / bitrate=7777 / ratetol=1.0 / qcomp=0.60 / qpmin=0 / qpmax=69 / qpstep=4 / cplxblur=20.0 / qblur=0.5 / ip_ratio=1.40 / pb_ratio=1.30 / aq=1:1.00 Язык : English Default : Да Forced : НетАудио #1: Идентификатор : 2 Формат : AC-3 Формат/Информация : Audio Coding 3 Расширение режима : CM (complete main) Параметр Endianness формата : Big Идентификатор кодека : A_AC3 Продолжительность : 2 ч. 17 м. Вид битрейта : Постоянный Битрейт : 384 Кбит/сек Каналы : 6 каналов Расположение каналов : Front: L C R, Side: L R, LFE Частота : 48,0 КГц Битовая глубина : 16 бит Метод сжатия : С потерями Размер потока : 377 Мбайт (4%) Заголовок : Дублированный (iTunes Russia) Язык : Russian Default : Нет Forced : НетАудио #2: Идентификатор : 3 Формат : AC-3 Формат/Информация : Audio Coding 3 Расширение режима : CM (complete main) Параметр Endianness формата : Big Идентификатор кодека : A_AC3 Продолжительность : 2 ч. 17 м. Вид битрейта : Постоянный Битрейт : 640 Кбит/сек Каналы : 6 каналов Расположение каналов : Front: L C R, Side: L R, LFE Частота : 48,0 КГц Битовая глубина : 16 бит Метод сжатия : С потерями Размер потока : 628 Мбайт (6%) Заголовок : Дублированный (iTunes Russia) Язык : Russian Default : Нет Forced : НетАудио #3: Идентификатор : 4 Формат : DTS Формат/Информация : Digital Theater Systems Режим : 16 Параметр Endianness формата : Big Идентификатор кодека : A_DTS Продолжительность : 2 ч. 17 м. Вид битрейта : Постоянный Битрейт : 1509 Кбит/сек Каналы : 6 каналов Расположение каналов : Front: L C R, Side: L R, LFE Частота : 48,0 КГц Битовая глубина : 24 бит Метод сжатия : С потерями Размер потока : 1,45 Гбайт (15%) Язык : English Default : Нет Forced : Нет 9,87 Gb 9 3 28 сентября 2016 07:23 Номер 44 / Child 44 (2015) BDRemux | US Transfer | iTunes .torrent   [Информация о файле (нажмите для просмотра)] Формат: m2tsКачество: BDRemuxВидео: 1920x1080 at 23.976 fps, MPEG-4 AVC, ~34153 kbps avgСубтитры: English, Spanish 39,21 Gb 3 3 28 сентября 2016 07:23 Номер 44 / Child 44 (2015) HDRip | US Transfer | iTunes .torrent   [Информация о файле (нажмите для просмотра)] Формат: AVI (XviD)Качество: HDRip [Рип с BDRip 720p]Видео: 1033 kb/s, 720x304Звук: AC3, 384 kb/s (6 ch) 1,37 Gb 97 3 28 сентября 2016 07:23 Номер 44 / Child 44 (2015) HDRip от GeneralFilm | US Transfer | iTunes .torrent   [Информация о файле (нажмите для просмотра)] Формат: aviКачество: HDRipВидео: XviD, 1492 kb/s, 720x304Звук: Russian: AC3, 384 kb/s (6 ch) / English: AC3, 384 kb/s (6 ch)Видео: Идентификатор : 0 Формат : MPEG-4 Visual Профиль формата : Advanced [email protected] Параметр BVOP формата : 1 Параметр QPel формата : Нет Параметр GMC формата : Без точки перехода Параметр матрицы формата : Выборочная Идентификатор кодека : XVID Идентификатор кодека/Подсказка : XviD Продолжительность : 2 ч. 17 м. Битрейт : 1492 Кбит/сек Ширина : 720 пикселей Высота : 304 пикселя Соотношение сторон : 2,35:1 Частота кадров : 23,976 кадра/сек Цветовое пространство : YUV Субдискретизация насыщенности : 4:2:0 Битовая глубина : 8 бит Тип развёртки : Прогрессивная Метод сжатия : С потерями Бит/(Пиксели*Кадры) : 0.284 Размер потока : 1,43 Гбайт (65%) Библиотека кодирования : XviD 73Аудио #1: Идентификатор : 1 Формат : AC-3 Формат/Информация : Audio Coding 3 Расширение режима : CM (complete main) Параметр Endianness формата : Big Идентификатор кодека : 2000 Продолжительность : 2 ч. 17 м. Вид битрейта : Постоянный Битрейт : 384 Кбит/сек Каналы : 6 каналов Расположение каналов : Front: L C R, Side: L R, LFE Частота : 48,0 КГц Метод сжатия : С потерями Размер потока : 377 Мбайт (17%) Выравнивание : Разделение по промежуткам Продолжительность промежутка : 42 мс. (1,00 видеокадр) Время предзагрузки промежутка : 500 мс.Аудио #2: Идентификатор : 2 Формат : AC-3 Формат/Информация : Audio Coding 3 Расширение режима : CM (complete main) Параметр Endianness формата : Big Идентификатор кодека : 2000 Продолжительность : 2 ч. 17 м. Вид битрейта : Постоянный Битрейт : 384 Кбит/сек Каналы : 6 каналов Расположение каналов : Front: L C R, Side: L R, LFE Частота : 48,0 КГц Метод сжатия : С потерями Размер потока : 377 Мбайт (17%) Выравнивание : Разделение по промежуткам Продолжительность промежутка : 42 мс. (1,00 видеокадр) Время предзагрузки промежутка : 500 мс. 2,18 Gb 3 3 28 сентября 2016 07:23 Номер 44 / Child 44 (2015) BDRip 720p | US Transfer | iTunes .torrent   [Информация о файле (нажмите для просмотра)] Формат: MKV (x264)Качество: BDRip 720pВидео: 5330 kb/s, 1280x536Звук: Russian: AC3, 384 kb/s (6 ch) / English: DTS, 1510 kb/s (6 ch) 6,93 Gb 12 4 28 сентября 2016 07:23 Номер 44 / Child 44 (2015) HDRip | US Transfer | iTunes .torrent   [Информация о файле (нажмите для просмотра)] Качество: HDRipВидео: XviD, 1878 Кбит/с, 720x304Аудио: Русский (AC3, 6 ch, 384 Кбит/с)Перевод: Дублированный [iTunes] 2,18 Gb 96 3 28 сентября 2016 07:23 Номер 44 / Child 44 (2015) WEB-DLRip | US Transfer | iTunes .torrent   [Информация о файле (нажмите для просмотра)] Формат: AVI (XviD)Качество: WEB-DLRip *PROPER*Видео: 1132 kb/s, 720x304Звук: AC3, 384 kb/s (6 ch) 1,46 Gb 3 1 28 сентября 2016 07:23 Номер 44 / Child 44 (2015) WEB-DLRip | US Transfer | iTunes .torrent   [Информация о файле (нажмите для просмотра)] Формат: AVI (XviD)Качество: WEB-DLRip *PROPER*Видео: 623 kb/s, 720x304Звук: AC3, 128 kb/s (2 ch) 745,64 Mb 3 5 28 сентября 2016 07:23 Номер 44 / Child 44 (2015) WEB-DLRip-AVC от Scarabey | iTunes .torrent   [Информация о файле (нажмите для просмотра)] Перевод: Профессиональный (полное дублирование) [iTunes]Видео: 1024x576, 23.976 fps, AVC, ~1977 kbps avg, 0.134 bit/pixelАудио: 48 kHz, AC3 Dolby Digital, 3/2 (L,C,R,l,r) + LFE ch, ~384 kbps 2,17 Gb 12 3 28 сентября 2016 07:23 Номер 44 / Child 44 (2015) WEB-DLRip от Scarabey | iTunes .torrent   [Информация о файле (нажмите для просмотра)] Перевод: Профессиональный (полное дублирование) [iTunes]Видео: 688x384 (1.79:1), 25 fps, XviD build 73 ~2028 kbps avg, 0.31 bit/pixelАудио: 48 kHz, AC3 Dolby Digital, 3/2 (L,C,R,l,r) + LFE ch, ~384 kbps 2,17 Gb 4 3 28 сентября 2016 07:23 Номер 44 / Child 44 (2015) WEB-DLRip от Scarabey | iTunes .torrent   [Информация о файле (нажмите для просмотра)] Перевод: Профессиональный (полное дублирование) [iTunes]Видео: 688x384 (1.79:1), 25 fps, XviD build 73 ~1374 kbps avg, 0.21 bit/pixelАудио: 48 kHz, AC3 Dolby Digital, 2/0 (L,R) ch, ~192 kbps 1,45 Gb 9 1 28 сентября 2016 07:23 Номер 44 / Child 44 (2015) WEB-DLRip-AVC | iTunes .torrent   [Информация о файле (нажмите для просмотра)] Качество: WEB-DLRip (AVC)Видео: MPEG-4 AVC, ~650 Кбит/с, 720x400Аудио: AC3, 2 ch, 192 Кбит/с 811,75 Mb 6 4 28 сентября 2016 07:23 Номер 44 / Child 44 (2015) WEB-DLRip-AVC от ExKinoRay | iTunes .torrent   [Информация о файле (нажмите для просмотра)] Качество: WEB-DLRip (AVC)Видео: MPEG-4 AVC, 1789 Кбит/с, 1024x576Аудио: AC3, 6 ch, 384 Кбит/с 2 Gb 3 2 28 сентября 2016 07:23 Номер 44 / Child 44 (2015) WEB-DL 1080p | iTunes .torrent   [Информация о файле (нажмите для просмотра)] Формат: MKV (x264)Качество: WEB-DL 1080pВидео: 5200 kb/s, 1920x1080Аудио: AC3, 384 kb/s (6 ch) 5,23 Gb 32 4 28 сентября 2016 07:23 Номер 44 / Child 44 (2015) WEB-DL 720p | iTunes .torrent   [Информация о файле (нажмите для просмотра)] Формат: MKV (x264)Качество: WEB-DL 720pВидео: 3976 kb/s, [email protected]Аудио: AC3, 384 kb/s (6 ch) 4,09 Gb 17 2 28 сентября 2016 07:23 Номер 44 / Child 44 (2015) WEB-DLRip | iTunes .torrent   [Информация о файле (нажмите для просмотра)] Формат: AVI (XviD)Качество: WEB-DLRipВидео: 1196 kb/s, 720x400Аудио: AC3, 384 kb/s (6 ch) 1,46 Gb 306 5 28 сентября 2016 07:23 Номер 44 / Child 44 (2015) WEB-DLRip | iTunes .torrent   [Информация о файле (нажмите для просмотра)] Формат: AVI (XviD)Качество: WEB-DLRipВидео: 1839 kb/s, 720x400Аудио: AC3, 384 kb/s (6 ch) 2,05 Gb 12 3

gig-torrent.net

Скачать фильм Номер 44 через торрент в хорошем качестве бесплатно BDRip-AVC от potroks

GeneralUnique ID                                : 212892566494168389319618925218308679507 (0xA0299DEB82B8623DB5FC7A38AA8DE753)Complete name                            : N:\Триллер\Nomer.44.2014.DUAL.BDRip.x264.-HELLYWOOD.mkvFormat                                   : MatroskaFormat version                           : Version 4 / Version 2File size                                : 2.91 GiBDuration                                 : 2h 17mnOverall bit rate                         : 3 039 KbpsMovie name                               : Child 44 (2015) - HELLYWOODEncoded date                             : UTC 2015-07-30 16:57:37Writing application                      : mkvmerge v5.9.0 ('On The Loose') built on Dec 15 2012 16:39:58Writing library                          : libebml v1.3.0 + libmatroska v1.4.0

VideoID                                       : 1Format                                   : AVCFormat/Info                              : Advanced Video CodecFormat profile                           : [email protected] settings, CABAC                   : YesFormat settings, ReFrames                : 10 framesCodec ID                                 : V_MPEG4/ISO/AVCDuration                                 : 2h 17mnBit rate                                 : 2 141 KbpsWidth                                    : 1 092 pixelsHeight                                   : 456 pixelsDisplay aspect ratio                     : 2.40:1Frame rate                               : 23.976 fpsColor space                              : YUVChroma subsampling                       : 4:2:0Bit depth                                : 8 bitsScan type                                : ProgressiveBits/(Pixel*Frame)                       : 0.179Stream size                              : 2.00 GiB (69%)Title                                    : potroksWriting library                          : x264 core 146 r2538 121396cEncoding settings                        : cabac=1 / ref=10 / deblock=1:-3:-3 / analyse=0x3:0x113 / me=umh / subme=11 / psy=1 / psy_rd=1.00:0.03 / mixed_ref=1 / me_range=48 / chroma_me=1 / trellis=2 / 8x8dct=1 / cqm=0 / deadzone=21,11 / fast_pskip=0 / chroma_qp_offset=-3 / threads=9 / lookahead_threads=2 / sliced_threads=0 / nr=0 / decimate=1 / interlaced=0 / bluray_compat=0 / constrained_intra=0 / bframes=11 / b_pyramid=2 / b_adapt=2 / b_bias=0 / direct=3 / weightb=1 / open_gop=0 / weightp=2 / keyint=250 / keyint_min=23 / scenecut=40 / intra_refresh=0 / rc_lookahead=60 / rc=2pass / mbtree=0 / bitrate=2141 / ratetol=1.0 / qcomp=0.70 / qpmin=0 / qpmax=69 / qpstep=4 / cplxblur=20.0 / qblur=0.5 / vbv_maxrate=14000 / vbv_bufsize=14000 / nal_hrd=none / filler=0 / ip_ratio=1.35 / pb_ratio=1.25 / aq=1:0.80Language                                 : EnglishDefault                                  : YesForced                                   : No

Audio #1ID                                       : 2Format                                   : AC-3Format/Info                              : Audio Coding 3Mode extension                           : CM (complete main)Codec ID                                 : A_AC3Duration                                 : 2h 17mnBit rate mode                            : ConstantBit rate                                 : 448 KbpsChannel(s)                               : 6 channelsChannel positions                        : Front: L C R, Side: L R, LFESampling rate                            : 48.0 KHzBit depth                                : 16 bitsCompression mode                         : LossyStream size                              : 440 MiB (15%)Title                                    : Dub | DD 5.1 @ 448 kbps - iTunesLanguage                                 : RussianDefault                                  : YesForced                                   : No

Audio #2ID                                       : 3Format                                   : AC-3Format/Info                              : Audio Coding 3Mode extension                           : CM (complete main)Codec ID                                 : A_AC3Duration                                 : 2h 17mnBit rate mode                            : ConstantBit rate                                 : 448 KbpsChannel(s)                               : 6 channelsChannel positions                        : Front: L C R, Side: L R, LFESampling rate                            : 48.0 KHzBit depth                                : 16 bitsCompression mode                         : LossyStream size                              : 440 MiB (15%)Title                                    : Original | DD 5.1 @ 448 kbpsLanguage                                 : EnglishDefault                                  : NoForced                                   : No

Text #1ID                                       : 4Format                                   : UTF-8Codec ID                                 : S_TEXT/UTF8Codec ID/Info                            : UTF-8 Plain TextTitle                                    : FullLanguage                                 : EnglishDefault                                  : NoForced                                   : No

Text #2ID                                       : 5Format                                   : UTF-8Codec ID                                 : S_TEXT/UTF8Codec ID/Info                            : UTF-8 Plain TextTitle                                    : SDHLanguage                                 : EnglishDefault                                  : NoForced                                   : No

Menu00:00:00.000                             : en:(01)00:00:00:00000:06:34.060                             : en:(02)00:06:34:06000:17:19.288                             : en:(03)00:17:19:28800:22:45.195                             : en:(04)00:22:45:19500:33:14.450                             : en:(05)00:33:14:45000:40:53.992                             : en:(06)00:40:53:99200:48:27.445                             : en:(07)00:48:27:44500:59:22.766                             : en:(08)00:59:22:76601:03:56.164                             : en:(09)01:03:56:16401:10:16.420                             : en:(10)01:10:16:42001:19:23.381                             : en:(11)01:19:23:38101:28:12.787                             : en:(12)01:28:12:78701:38:45.667                             : en:(13)01:38:45:66701:47:48.920                             : en:(14)01:47:48:92001:54:15.055                             : en:(15)01:54:15:05502:02:20.373                             : en:(16)02:02:20:37302:17:10.805                             : en:(17)02:17:10:805

piratbit.ru


Смотрите также