Скачать неверная торрент в хорошем качестве


Неверная 2002 - скачать бесплатно через торрент в хорошем качестве. Без регистрации

Название: Неверная / Unfaithful (2002) BDRip 1080p by msltel
Качество видео: BDRip 1080p Сравнение с исходником
Перевод: дублированный, профессиональный многоголосый, авторский
Формат видео: MKV
Видео: MPEG-4 AVC, 13 Mбит/с, 1920x1040, 23,976 кадра/с
Аудио: русский, DTS, 1509 kbps, 6 ch, 48 kHz [авторский, Юрий Живов]русский, AC3, 448 kbps, 6 ch, 48 kHz [авторский, Антон Карповский]английский, DTS, 1509 kbps, 6 ch, 48 kHz [оригинал]
Скачать

Загрузка начнется в течение 5 сек.

15.70 GB

Название: Неверная / Unfaithful (2002) BDRip 720p by msltel
Качество видео: BDRip 720p Сравнение с исходником
Перевод: дублированный, профессиональный многоголосый, авторский
Формат видео: MKV
Видео: MPEG-4 AVC, 5069 Кбит/с, 1280x694,, 23,976 кадра/с
Аудио: русский, AC3, 448 kbps, 6 ch, 48 kHz [авторский, Юрий Живов]русский, AC3, 448 kbps, 6 ch, 48 kHz [авторский, Антон Карповский]английский, AC3, 448 kbps, 6 ch, 48 kHz [оригинал]
Скачать

Загрузка начнется в течение 5 сек.

6.58 GB

Название: Неверная / Unfaithful (2002) BDRip-AVC by msltel
Качество видео: BDRip AVC Сравнение с исходником
Перевод: дублированный, профессиональный многоголосый, авторский
Формат видео: MKV
Видео: MPEG-4 AVC, 2675 Кбит/с, 1024x554, 23,976 кадра/с
Аудио: русский, AC3, 448 kbps, 6 ch, 48 kHz [авторский, Юрий Живов]русский, AC3, 448 kbps, 6 ch, 48 kHz [авторский, Антон Карповский]английский, AC3, 448 kbps, 6 ch, 48 kHz [оригинал]
Скачать

Загрузка начнется в течение 5 сек.

4.47 GB

Название: Неверная / Unfaithful (2000) BDRip-AVC от Mr. Movier
Качество видео: BDRip-AVC
Перевод: Дублированный
Видео: x264 1024x552 (1.85:1), 1500 Kbps, 23.976 fps, 0.111 bit/pixel
Аудио: 48 kHz, AC3 Dolby Digital, 2/0 (L,R) ch, 192.00 kbps
Скачать

Загрузка начнется в течение 5 сек.

1.46 GB

Название: Неверная / Unfaithful (2002) BDRip 1080p от NNNB
Качество видео: BDRip 1080p (исходник Blu-ray Disc CEE)
Перевод: Дублированный
Видео: 1916x1040, 7896 Кбит/сек, 23,976 кадр/сек, AVC, x264, [email protected], 1.85:1, 0.165 Бит/[Пиксели*Кадры]
Аудио: AC-3, 448 Кбит/сек, 6 канала(ов), 48,0 КГц - Дублированный / РусскийAC-3, 640 Кбит/сек, 6 канала(ов), 48,0 КГц - Оригинал / Английский
Скачать

Загрузка начнется в течение 5 сек.

7.75 GB

Название: Неверная / Unfaithful (2002) BDRip-AVC от MediaClub | D, P, A
Качество видео: BDRip-AVC
Перевод: Дублированный, профессиональный многоголосый, авторский одноголосый, украинский
Видео: MPEG-4 AVC 2700 Кбит/с, 1024х556, 23.976 кадр/с
Аудио: Русский (AC3, 6 ch, 448 Кбит/с) / Профессиональный многоголосыйРусский (AC3, 6 ch, 448 Кбит/с) / Авторский одноголосый (Ю. Живов)Русский (AC3, 2 ch, 192 Кбит/с) / Авторский одноголосый (С. Визгунов)Русский (AC3, 6 ch, 448 Кбит/с) / Авторский одноголосый (А. Карповский)Украинский (AC3, 6 ch, 384 Кбит/с) / Профессиональный многоголосый (Новый канал)Английский (AC3, 6 ch, 448 Кбит/с)
Скачать

Загрузка начнется в течение 5 сек.

4.76 GB

Название: Неверная / Unfaithful (2002) HDRip-AVC | iPhone
Качество видео: HDRip
Перевод: Профессиональный (дублированный)
Формат видео: MP4
Видео: H.264 480x256, 24 fps, 640 kbps, 0.217 bit/pixel
Аудио: AAC 48 kHz, 2 ch, 128 kbps
Скачать

Загрузка начнется в течение 5 сек.

682.48 MB

Название: Неверная / Unfaithful (2002) HDRip от Scarabey | D
Качество видео: HDRip
Перевод: Профессиональный (полное дублирование)
Формат видео: AVI
Видео: 592x320 (1.85:1), 23.976 fps, XviD build 65 ~707 kbps avg, 0.16 bit/pixel
Аудио: 48 kHz, MPEG Layer 3, 2 ch, ~128.00 kbps avg
Скачать

Загрузка начнется в течение 5 сек.

746.85 MB

Название: Неверная / Unfaithful (2002) HDRip от Scarabey | D
Качество видео: HDRip
Перевод: Профессиональный (полное дублирование)
Формат видео: AVI
Видео: 704x384 (1.83:1), 23.976 fps, XviD build 65 ~1474 kbps avg, 0.23 bit/pixel
Аудио: 48 kHz, AC3 Dolby Digital, 2/0 (L,R) ch, ~192.00 kbps avg
Скачать

Загрузка начнется в течение 5 сек.

1.45 GB

Название: Неверная / Unfaithful (2002) BDRip от Rulya74
Качество видео: BDRip
Перевод: Дубляж
Видео: XVID 720x384 (1.88:1), 23.976 fps, XviD MPEG-4 ~1484 kbps avg, 0.224 bit/pixel
Аудио: 48 kHz, AC3 Dolby Digital, 2/0 (L,R) ch, ~192 kbps / Дубляж
Скачать

Загрузка начнется в течение 5 сек.

1.46 GB

Название: Неверная / Unfaithful (2002) BDRip (720p) от FfClub
Качество видео: BDRip (720p)
Перевод: Дублированный, профессиональный многоголосый, авторский одноголосый
Видео: MPEG-4 AVC 7660 Кбит/с, 1280x692
Аудио: • Русский (DTS, 6 ch, 1510 Кбит/с) - ДБ (R5)
Скачать

Загрузка начнется в течение 5 сек.

10.38 GB

www.kinovit.net

Скачать фильм Неверная через торрент в хорошем качестве бесплатно 720p by msltel] DUB

Размер: 6.58 GB | Добавлен: 2 года 1 мес. назад | Торрент скачан:38 раз
Реклама Дарим 3000 рублей за регистрацию, не упусти свой шанс получить шикарный бонус!!!

25-09-2015 09:59 Неверная Скачать торрент  

Название: НевернаяОригинальное название: UnfaithfulГод выпуска: 2002Страна: США, Германия, ФранцияЖанр: триллер, драма, мелодрамаПродолжительность: 02:03:37Перевод: дублированный, профессиональный многоголосый, авторский

Режиссёр: Эдриан Лайн

В ролях: Дайан Лэйн, Ричард Гир, Оливье Мартинес, Эрик Пер Салливан, Мира Лукреция Тейлор, Мишель Монахэн, Чад Лоу, Эрик Андерсон, Дэймон Гаптон, Кейт Бёртон, Маргарет Колин, Марк Форгет, Ларри Глисон, Доминик Кьянезе, Джордж Ф. Миллер, Пол Д. Файлла, Хэл Смит-Рэйнолдс, Тайри Майкл Симпсон, Мюриель Арден, Салем Людвиг, Уильям Абади, Мэттью Мейтленд, Чарльз Глейсер, Желько Иванек, Гэри Басараба, Энн Питоняк, Расселл Гибсон, Лиза Эмери, Майкл Эмерсон, Дэвид Джеффресон, Джонатан Марк МакДоннел, Джесика Питерс, Роберт Питерс, Ник Пьетерникай, Джон Ротмен, Джон Х. Тобин

Описание: Эдварду и Конни Самнер можно позавидовать: вместе с восьмилетним сыном, собакой и домоправительницей они наслаждаются жизнью в тихом пригороде Нью-Йорка. Но судьба в облике молодого человека, с которым Конни сталкивается в Сохо, наносит удар по этому воплощению «американской мечты» и по счастливому, хотя и слегка монотонному существованию супругов. Случайная встреча перерастает в бурный роман, в котором есть всё: тайна, спонтанность, красота и… опасность. Когда Эдвард узнаёт о том, что жена от него что-то скрывает, он начинает за ней следить, выведывая мучительные подробности обмана. Не выдержав груза тайны, он встречается с любовником Конни, и копившийся в нём гнев выходит наружу приступом страшной, неожиданной для него самого, ярости. Что ждёт семью, в которой поселились обман, чувство вины и страх? Есть ли у неё будущее?...

Качество: BDRip 720p Сравнение с исходникомФормат: MKVВидео: MPEG-4 AVC, 5069 Кбит/с, 1280x694, 23,976 кадра/сАудио 1: русский, AC3, 448 kbps, 6 ch, 48 kHz [дублированный]Аудио 2: русский, AC3, 448 kbps, 6 ch, 48 kHz [профессиональный многоголосый]

Внешние файлыАудио: русский, AC3, 192 kbps, 2 ch, 48 kHz [авторский, Сергей Визгунов]Аудио: русский, AC3, 448 kbps, 6 ch, 48 kHz [авторский, Юрий Живов]Аудио: русский, AC3, 448 kbps, 6 ch, 48 kHz [авторский, Антон Карповский]Аудио: английский, AC3, 448 kbps, 6 ch, 48 kHz [оригинал]Субтитры: русскиеСубтитры: английские

«Золотой сателлит» за главную женскую роль.

Оскар, 2003 год Номинации (1):Лучшая женская роль (Дайан Лэйн)

Золотой глобус, 2003 год Номинации (1):Лучшая женская роль (драма) (Дайан Лэйн)

Премия Гильдии актеров, 2003 год Номинации (1):Лучшая женская роль (Дайан Лэйн)

ОбщееПолное имя : D:VideoНеверная.2002.BDRip.720pНеверная.2002.AVO.rus.А.Карповский.ac3Формат : AC-3Формат/Информация : Audio Coding 3Размер файла : 396 МбайтПродолжительность : 2 ч. 3 м.Режим общего битрейта : ПостоянныйОбщий поток : 448 Кбит/сек

АудиоФормат : AC-3Формат/Информация : Audio Coding 3Расширение режима : CM (complete main)Параметр Endianness формата : BigПродолжительность : 2 ч. 3 м.Вид битрейта : ПостоянныйБитрейт : 448 Кбит/секКаналы : 6 каналовРасположение каналов : Front: L C R, Side: L R, LFEЧастота : 48,0 КГцМетод сжатия : С потерямиРазмер потока : 396 Мбайт (100%)

ОбщееПолное имя : D:VideoНеверная.2002.BDRip.720pНеверная.2002.AVO.rus.С.Визгунов.ac3Формат : AC-3Формат/Информация : Audio Coding 3Размер файла : 170 МбайтПродолжительность : 2 ч. 3 м.Режим общего битрейта : ПостоянныйОбщий поток : 192 Кбит/сек

АудиоФормат : AC-3Формат/Информация : Audio Coding 3Расширение режима : CM (complete main)Параметр Endianness формата : BigПродолжительность : 2 ч. 3 м.Вид битрейта : ПостоянныйБитрейт : 192 Кбит/секКаналы : 2 каналаРасположение каналов : Front: L RЧастота : 48,0 КГцМетод сжатия : С потерямиРазмер потока : 170 Мбайт (100%)

ОбщееПолное имя : D:VideoНеверная.2002.BDRip.720pНеверная.2002.AVO.rus.Ю.Живов.ac3Формат : AC-3Формат/Информация : Audio Coding 3Размер файла : 396 МбайтПродолжительность : 2 ч. 3 м.Режим общего битрейта : ПостоянныйОбщий поток : 448 Кбит/сек

АудиоФормат : AC-3Формат/Информация : Audio Coding 3Расширение режима : CM (complete main)Параметр Endianness формата : BigПродолжительность : 2 ч. 3 м.Вид битрейта : ПостоянныйБитрейт : 448 Кбит/секКаналы : 6 каналовРасположение каналов : Front: L C R, Side: L R, LFEЧастота : 48,0 КГцМетод сжатия : С потерямиРазмер потока : 396 Мбайт (100%)

ОбщееУникальный идентификатор : 242272970527197207976893822826400398715 (0xB64413AD73609B519989D0A2295B3D7B)Полное имя : D:VideoНеверная.2002.BDRip.720pНеверная.2002.BDRip.720p.mkvФормат : MatroskaВерсия формата : Version 4 / Version 2Размер файла : 5,26 ГбайтПродолжительность : 2 ч. 3 м.Общий поток : 6086 Кбит/секНазвание фильма : BDRip -- STarankovДата кодирования : UTC 2015-09-25 07:03:07Программа кодирования : mkvmerge v8.2.0 ('World of Adventure') 64bitБиблиотека кодирования : libebml v1.3.1 + libmatroska v1.4.2DURATION : 02:03:37.760000000NUMBER_OF_FRAMES : 231805NUMBER_OF_BYTES : 415394560_STATISTICS_WRITING_APP : mkvmerge v8.2.0 ('World of Adventure') 64bit_STATISTICS_WRITING_DATE_UTC : 2015-09-25 07:03:07_STATISTICS_TAGS : BPS DURATION NUMBER_OF_FRAMES NUMBER_OF_BYTES

ВидеоИдентификатор : 1Формат : AVCФормат/Информация : Advanced Video CodecПрофиль формата : [email protected]Параметр CABAC формата : ДаПараметр ReFrames формата : 9 кадровИдентификатор кодека : V_MPEG4/ISO/AVCПродолжительность : 2 ч. 3 м.Битрейт : 5069 Кбит/секШирина : 1280 пикселейВысота : 694 пикселяСоотношение сторон : 1,85:1Режим частоты кадров : ПостоянныйЧастота кадров : 23,976 кадра/секЦветовое пространство : YUVСубдискретизация насыщенности : 4:2:0Битовая глубина : 8 битТип развёртки : ПрогрессивнаяБит/(Пиксели*Кадры) : 0.238Размер потока : 4,38 Гбайт (83%)Библиотека кодирования : x264 core 146 r2538 121396cНастройки программы : cabac=1 / ref=9 / deblock=1:-2:-2 / analyse=0x3:0x113 / me=umh / subme=10 / psy=1 / psy_rd=1.00:0.15 / mixed_ref=1 / me_range=32 / chroma_me=1 / trellis=2 / 8x8dct=1 / cqm=0 / deadzone=21,11 / fast_pskip=1 / chroma_qp_offset=-3 / threads=6 / lookahead_threads=1 / sliced_threads=0 / nr=0 / decimate=1 / interlaced=0 / bluray_compat=0 / constrained_intra=0 / bframes=8 / b_pyramid=2 / b_adapt=2 / b_bias=0 / direct=1 / weightb=1 / open_gop=0 / weightp=2 / keyint=230 / keyint_min=23 / scenecut=40 / intra_refresh=0 / rc_lookahead=40 / rc=crf / mbtree=0 / crf=18.6 / qcomp=0.60 / qpmin=0 / qpmax=69 / qpstep=4 / vbv_maxrate=40000 / vbv_bufsize=50000 / crf_max=0.0 / nal_hrd=none / filler=0 / ip_ratio=1.40 / pb_ratio=1.30 / aq=1:1.00Язык : EnglishDefault : ДаForced : НетDURATION : 02:03:37.744000000NUMBER_OF_FRAMES : 177848NUMBER_OF_BYTES : 4810118318_STATISTICS_WRITING_APP : mkvmerge v8.2.0 ('World of Adventure') 64bit_STATISTICS_WRITING_DATE_UTC : 2015-09-25 07:03:07_STATISTICS_TAGS : BPS DURATION NUMBER_OF_FRAMES NUMBER_OF_BYTES

Аудио #1Идентификатор : 2Формат : AC-3Формат/Информация : Audio Coding 3Расширение режима : CM (complete main)Параметр Endianness формата : BigИдентификатор кодека : A_AC3Продолжительность : 2 ч. 3 м.Вид битрейта : ПостоянныйБитрейт : 448 Кбит/секКаналы : 6 каналовРасположение каналов : Front: L C R, Side: L R, LFEЧастота : 48,0 КГцМетод сжатия : С потерямиРазмер потока : 396 Мбайт (7%)Заголовок : DUBЯзык : RussianDefault : ДаForced : Нет

Аудио #2Идентификатор : 3Формат : AC-3Формат/Информация : Audio Coding 3Расширение режима : CM (complete main)Параметр Endianness формата : BigИдентификатор кодека : A_AC3Продолжительность : 2 ч. 3 м.Вид битрейта : ПостоянныйБитрейт : 448 Кбит/секКаналы : 6 каналовРасположение каналов : Front: L C R, Side: L R, LFEЧастота : 48,0 КГцМетод сжатия : С потерямиРазмер потока : 396 Мбайт (7%)Заголовок : MVOЯзык : RussianDefault : НетForced : Нет

ОбщееПолное имя : D:VideoНеверная.2002.BDRip.720pНеверная.2002.eng.srtФормат : SubRipРазмер файла : 63,3 Кбайт

ТекстФормат : SubRipМетод сжатия : Без потерь

ОбщееПолное имя : D:VideoНеверная.2002.BDRip.720pНеверная.2002.Original.eng.ac3Формат : AC-3Формат/Информация : Audio Coding 3Размер файла : 396 МбайтПродолжительность : 2 ч. 3 м.Режим общего битрейта : ПостоянныйОбщий поток : 448 Кбит/сек

АудиоФормат : AC-3Формат/Информация : Audio Coding 3Расширение режима : CM (complete main)Параметр Endianness формата : BigПродолжительность : 2 ч. 3 м.Вид битрейта : ПостоянныйБитрейт : 448 Кбит/секКаналы : 6 каналовРасположение каналов : Front: L C R, Side: L R, LFEЧастота : 48,0 КГцМетод сжатия : С потерямиРазмер потока : 396 Мбайт (100%)

ОбщееПолное имя : D:VideoНеверная.2002.BDRip.720pНеверная.2002.rus.srtФормат : SubRipРазмер файла : 78,7 Кбайт

ТекстФормат : SubRipМетод сжатия : Без потерь

Скачать Неверная через торрент http://i70.fastpic.ru/big/2015/0923/6d/947c114e4180f77f935562cb0a43d16d.jpg Скачать фильм Неверная через торрент бесплантно в хорошем качестве Описание: Эдварду и Конни Самнер можно позавидовать: вместе с восьмилетним сыном, собакой и домоправительницей они наслаждаются жизнью в ... 2015-09-25 09:59 10 10 5

Loading...

Loading...

Последний раз редактировалось: msltel (2015-09-25 13:37), всего редактировалось 1 раз

Рекламный пират

25-09-2015 11:54 Неверная Скачать торрент  

трактор надо было рисовать.

Дорогой пользователь! Огромная просьба, поблагодарите релизера, оцените раздачу и оставьте свои комментарий, если Вы скачали Неверная через торрент бесплатно! Внесите свою лепту в развитие PiratBit!

Комментировать посты могут только пользователи прошедшие не сложную регистрацию

Неверная через торрент Скачать бесплатно Неверная Неверная скачать торрент Неверная смотреть онлайн Cкачать фильм Неверная бесплатно Неверная скачать торрент в хорошем качестве Неверная смотреть онлайн бесплатно в хорошем качестве

Вы не можете начинать темыВы не можете отвечать на сообщенияВы не можете редактировать свои сообщенияВы не можете удалять свои сообщенияВы не можете голосовать в опросахВы не можете прикреплять файлы к сообщениямВы можете скачивать файлы

piratbit.ru

Скачать фильм Неверная через торрент в хорошем качестве бесплатно BDRip AVC by msltel] DUB

Размер: 4.47 GB | Добавлен: 2 года 1 мес. назад | Торрент скачан:50 раз
Реклама Дарим 3000 рублей за регистрацию, не упусти свой шанс получить шикарный бонус!!!

23-09-2015 14:04 Неверная Скачать торрент  

Название: НевернаяОригинальное название: UnfaithfulГод выпуска: 2002Страна: США, Германия, ФранцияЖанр: триллер, драма, мелодрамаПродолжительность: 02:03:37Перевод: дублированный, профессиональный многоголосый, авторский

Режиссёр: Эдриан Лайн

В ролях: Дайан Лэйн, Ричард Гир, Оливье Мартинес, Эрик Пер Салливан, Мира Лукреция Тейлор, Мишель Монахэн, Чад Лоу, Эрик Андерсон, Дэймон Гаптон, Кейт Бёртон, Маргарет Колин, Марк Форгет, Ларри Глисон, Доминик Кьянезе, Джордж Ф. Миллер, Пол Д. Файлла, Хэл Смит-Рэйнолдс, Тайри Майкл Симпсон, Мюриель Арден, Салем Людвиг, Уильям Абади, Мэттью Мейтленд, Чарльз Глейсер, Желько Иванек, Гэри Басараба, Энн Питоняк, Расселл Гибсон, Лиза Эмери, Майкл Эмерсон, Дэвид Джеффресон, Джонатан Марк МакДоннел, Джесика Питерс, Роберт Питерс, Ник Пьетерникай, Джон Ротмен, Джон Х. Тобин

Описание: Эдварду и Конни Самнер можно позавидовать: вместе с восьмилетним сыном, собакой и домоправительницей они наслаждаются жизнью в тихом пригороде Нью-Йорка. Но судьба в облике молодого человека, с которым Конни сталкивается в Сохо, наносит удар по этому воплощению «американской мечты» и по счастливому, хотя и слегка монотонному существованию супругов. Случайная встреча перерастает в бурный роман, в котором есть всё: тайна, спонтанность, красота и… опасность. Когда Эдвард узнаёт о том, что жена от него что-то скрывает, он начинает за ней следить, выведывая мучительные подробности обмана. Не выдержав груза тайны, он встречается с любовником Конни, и копившийся в нём гнев выходит наружу приступом страшной, неожиданной для него самого, ярости. Что ждёт семью, в которой поселились обман, чувство вины и страх? Есть ли у неё будущее?...

Качество: BDRip AVC Сравнение с исходникомФормат: MKVВидео: MPEG-4 AVC, 2675 Кбит/с, 1024x554, 23,976 кадра/сАудио 1: русский, AC3, 448 kbps, 6 ch, 48 kHz [дублированный]Аудио 2: русский, AC3, 448 kbps, 6 ch, 48 kHz [профессиональный многоголосый]

Внешние файлыАудио: русский, AC3, 192 kbps, 2 ch, 48 kHz [авторский, Сергей Визгунов]Аудио: русский, AC3, 448 kbps, 6 ch, 48 kHz [авторский, Юрий Живов]Аудио: русский, AC3, 448 kbps, 6 ch, 48 kHz [авторский, Антон Карповский]Аудио: английский, AC3, 448 kbps, 6 ch, 48 kHz [оригинал]Субтитры: русскиеСубтитры: английские

«Золотой сателлит» за главную женскую роль.

Оскар, 2003 год Номинации (1):Лучшая женская роль (Дайан Лэйн)

Золотой глобус, 2003 год Номинации (1):Лучшая женская роль (драма) (Дайан Лэйн)

Премия Гильдии актеров, 2003 год Номинации (1):Лучшая женская роль (Дайан Лэйн)

ОбщееПолное имя : D:\Video\Неверная.2002.BDRip.AVC\Неверная.2002.AVO.rus.А.Карповский.ac3Формат : AC-3Формат/Информация : Audio Coding 3Размер файла : 396 МбайтПродолжительность : 2 ч. 3 м.Режим общего битрейта : ПостоянныйОбщий поток : 448 Кбит/сек

АудиоФормат : AC-3Формат/Информация : Audio Coding 3Расширение режима : CM (complete main)Параметр Endianness формата : BigПродолжительность : 2 ч. 3 м.Вид битрейта : ПостоянныйБитрейт : 448 Кбит/секКаналы : 6 каналовРасположение каналов : Front: L C R, Side: L R, LFEЧастота : 48,0 КГцМетод сжатия : С потерямиРазмер потока : 396 Мбайт (100%)

ОбщееПолное имя : D:\Video\Неверная.2002.BDRip.AVC\Неверная.2002.AVO.rus.С.Визгунов.ac3Формат : AC-3Формат/Информация : Audio Coding 3Размер файла : 170 МбайтПродолжительность : 2 ч. 3 м.Режим общего битрейта : ПостоянныйОбщий поток : 192 Кбит/сек

АудиоФормат : AC-3Формат/Информация : Audio Coding 3Расширение режима : CM (complete main)Параметр Endianness формата : BigПродолжительность : 2 ч. 3 м.Вид битрейта : ПостоянныйБитрейт : 192 Кбит/секКаналы : 2 каналаРасположение каналов : Front: L RЧастота : 48,0 КГцМетод сжатия : С потерямиРазмер потока : 170 Мбайт (100%)

ОбщееПолное имя : D:\Video\Неверная.2002.BDRip.AVC\Неверная.2002.AVO.rus.Ю.Живов.ac3Формат : AC-3Формат/Информация : Audio Coding 3Размер файла : 396 МбайтПродолжительность : 2 ч. 3 м.Режим общего битрейта : ПостоянныйОбщий поток : 448 Кбит/сек

АудиоФормат : AC-3Формат/Информация : Audio Coding 3Расширение режима : CM (complete main)Параметр Endianness формата : BigПродолжительность : 2 ч. 3 м.Вид битрейта : ПостоянныйБитрейт : 448 Кбит/секКаналы : 6 каналовРасположение каналов : Front: L C R, Side: L R, LFEЧастота : 48,0 КГцМетод сжатия : С потерямиРазмер потока : 396 Мбайт (100%)

ОбщееУникальный идентификатор : 202600257186865093440326326275479346035 (0x986B63E484E003F8B680D31627D29B73)Полное имя : D:\Video\Неверная.2002.BDRip.AVC\Неверная.2002.BDRip.AVC.mkvФормат : MatroskaВерсия формата : Version 4 / Version 2Размер файла : 3,15 ГбайтПродолжительность : 2 ч. 3 м.Общий поток : 3644 Кбит/секНазвание фильма : BDRip -- STarankovДата кодирования : UTC 2015-09-23 11:57:54Программа кодирования : mkvmerge v8.2.0 ('World of Adventure') 64bitБиблиотека кодирования : libebml v1.3.1 + libmatroska v1.4.2DURATION : 02:03:37.760000000NUMBER_OF_FRAMES : 231805NUMBER_OF_BYTES : 415394560_STATISTICS_WRITING_APP : mkvmerge v8.2.0 ('World of Adventure') 64bit_STATISTICS_WRITING_DATE_UTC : 2015-09-23 11:57:54_STATISTICS_TAGS : BPS DURATION NUMBER_OF_FRAMES NUMBER_OF_BYTES

ВидеоИдентификатор : 1Формат : AVCФормат/Информация : Advanced Video CodecПрофиль формата : [email protected]Параметр CABAC формата : ДаПараметр ReFrames формата : 9 кадровИдентификатор кодека : V_MPEG4/ISO/AVCПродолжительность : 2 ч. 3 м.Битрейт : 2675 Кбит/секШирина : 1024 пикселяВысота : 554 пикселяСоотношение сторон : 1,85:1Режим частоты кадров : ПостоянныйЧастота кадров : 23,976 кадра/секЦветовое пространство : YUVСубдискретизация насыщенности : 4:2:0Битовая глубина : 8 битТип развёртки : ПрогрессивнаяБит/(Пиксели*Кадры) : 0.197Размер потока : 2,31 Гбайт (73%)Библиотека кодирования : x264 core 146 r2538 121396cНастройки программы : cabac=1 / ref=9 / deblock=1:-2:-2 / analyse=0x3:0x113 / me=umh / subme=10 / psy=1 / psy_rd=1.00:0.15 / mixed_ref=1 / me_range=32 / chroma_me=1 / trellis=2 / 8x8dct=1 / cqm=0 / deadzone=21,11 / fast_pskip=1 / chroma_qp_offset=-3 / threads=6 / lookahead_threads=1 / sliced_threads=0 / nr=0 / decimate=1 / interlaced=0 / bluray_compat=0 / constrained_intra=0 / bframes=8 / b_pyramid=2 / b_adapt=2 / b_bias=0 / direct=1 / weightb=1 / open_gop=0 / weightp=2 / keyint=230 / keyint_min=23 / scenecut=40 / intra_refresh=0 / rc_lookahead=40 / rc=crf / mbtree=0 / crf=18.7 / qcomp=0.60 / qpmin=0 / qpmax=69 / qpstep=4 / vbv_maxrate=40000 / vbv_bufsize=50000 / crf_max=0.0 / nal_hrd=none / filler=0 / ip_ratio=1.40 / pb_ratio=1.30 / aq=1:1.00Язык : EnglishDefault : ДаForced : НетDURATION : 02:03:37.744000000NUMBER_OF_FRAMES : 177848NUMBER_OF_BYTES : 2545815725_STATISTICS_WRITING_APP : mkvmerge v8.2.0 ('World of Adventure') 64bit_STATISTICS_WRITING_DATE_UTC : 2015-09-23 11:57:54_STATISTICS_TAGS : BPS DURATION NUMBER_OF_FRAMES NUMBER_OF_BYTES

Аудио #1Идентификатор : 2Формат : AC-3Формат/Информация : Audio Coding 3Расширение режима : CM (complete main)Параметр Endianness формата : BigИдентификатор кодека : A_AC3Продолжительность : 2 ч. 3 м.Вид битрейта : ПостоянныйБитрейт : 448 Кбит/секКаналы : 6 каналовРасположение каналов : Front: L C R, Side: L R, LFEЧастота : 48,0 КГцМетод сжатия : С потерямиРазмер потока : 396 Мбайт (12%)Заголовок : DUBЯзык : RussianDefault : ДаForced : Нет

Аудио #2Идентификатор : 3Формат : AC-3Формат/Информация : Audio Coding 3Расширение режима : CM (complete main)Параметр Endianness формата : BigИдентификатор кодека : A_AC3Продолжительность : 2 ч. 3 м.Вид битрейта : ПостоянныйБитрейт : 448 Кбит/секКаналы : 6 каналовРасположение каналов : Front: L C R, Side: L R, LFEЧастота : 48,0 КГцМетод сжатия : С потерямиРазмер потока : 396 Мбайт (12%)Заголовок : MVOЯзык : RussianDefault : НетForced : Нет

ОбщееПолное имя : D:\Video\Неверная.2002.BDRip.AVC\Неверная.2002.eng.srtФормат : SubRipРазмер файла : 63,3 Кбайт

ТекстФормат : SubRipМетод сжатия : Без потерь

ОбщееПолное имя : D:\Video\Неверная.2002.BDRip.AVC\Неверная.2002.Original.eng.ac3Формат : AC-3Формат/Информация : Audio Coding 3Размер файла : 396 МбайтПродолжительность : 2 ч. 3 м.Режим общего битрейта : ПостоянныйОбщий поток : 448 Кбит/сек

АудиоФормат : AC-3Формат/Информация : Audio Coding 3Расширение режима : CM (complete main)Параметр Endianness формата : BigПродолжительность : 2 ч. 3 м.Вид битрейта : ПостоянныйБитрейт : 448 Кбит/секКаналы : 6 каналовРасположение каналов : Front: L C R, Side: L R, LFEЧастота : 48,0 КГцМетод сжатия : С потерямиРазмер потока : 396 Мбайт (100%)

ОбщееПолное имя : D:\Video\Неверная.2002.BDRip.AVC\Неверная.2002.rus.srtФормат : SubRipРазмер файла : 78,7 Кбайт

ТекстФормат : SubRipМетод сжатия : Без потерь

Скачать Неверная через торрент http://i70.fastpic.ru/big/2015/0923/6d/947c114e4180f77f935562cb0a43d16d.jpg Скачать фильм Неверная через торрент бесплантно в хорошем качестве Описание: Эдварду и Конни Самнер можно позавидовать: вместе с восьмилетним сыном, собакой и домоправительницей они наслаждаются жизнью в ... 2015-09-23 14:04 10 10 4

Loading...

Loading...

Рекламный пират

Дорогой пользователь! Огромная просьба, поблагодарите релизера, оцените раздачу и оставьте свои комментарий, если Вы скачали Неверная через торрент бесплатно! Внесите свою лепту в развитие PiratBit!

Комментировать посты могут только пользователи прошедшие не сложную регистрацию

Неверная через торрент Скачать бесплатно Неверная Неверная скачать торрент Неверная смотреть онлайн Cкачать фильм Неверная бесплатно Неверная скачать торрент в хорошем качестве Неверная смотреть онлайн бесплатно в хорошем качестве

Вы не можете начинать темыВы не можете отвечать на сообщенияВы не можете редактировать свои сообщенияВы не можете удалять свои сообщенияВы не можете голосовать в опросахВы не можете прикреплять файлы к сообщениямВы можете скачивать файлы

piratbit.ru

Скачать фильм Неверная через торрент в хорошем качестве бесплатно 1080p

Format                                   : MatroskaFormat version                           : Version 2File size                                : 7.75 GiBDuration                                 : 2h 3mnOverall bit rate                         : 8 970 KbpsMovie name                               : Неверная.(2002).BDRip.1080p.[envy]Encoded date                             : UTC 2015-02-04 07:08:38Writing application                      : mkvmerge v5.8.0 ('No Sleep / Pillow') built on Sep  2 2012 15:37:04Writing library                          : libebml v1.2.3 + libmatroska v1.3.0

VideoID                                       : 1Format                                   : AVCFormat/Info                              : Advanced Video CodecFormat profile                           : [email protected] settings, CABAC                   : YesFormat settings, ReFrames                : 4 framesCodec ID                                 : V_MPEG4/ISO/AVCDuration                                 : 2h 3mnBit rate                                 : 7 896 KbpsWidth                                    : 1 916 pixelsHeight                                   : 1 040 pixelsDisplay aspect ratio                     : 1.85:1Frame rate mode                          : ConstantFrame rate                               : 23.976 fpsColor space                              : YUVChroma subsampling                       : 4:2:0Bit depth                                : 8 bitsScan type                                : ProgressiveBits/(Pixel*Frame)                       : 0.165Stream size                              : 6.65 GiB (86%)Title                                    : Неверная.(2002).BDRip.1080p.[envy]Writing library                          : x264 core 144 r2525 40bb568Encoding settings                        : cabac=1 / ref=4 / deblock=1:-3:-3 / analyse=0x3:0x133 / me=umh / subme=11 / psy=1 / psy_rd=1.00:0.00 / mixed_ref=1 / me_range=32 / chroma_me=1 / trellis=2 / 8x8dct=1 / cqm=0 / deadzone=21,11 / fast_pskip=0 / chroma_qp_offset=-2 / threads=12 / lookahead_threads=2 / sliced_threads=0 / nr=0 / decimate=1 / interlaced=0 / bluray_compat=0 / constrained_intra=0 / bframes=9 / b_pyramid=2 / b_adapt=2 / b_bias=0 / direct=3 / weightb=1 / open_gop=0 / weightp=2 / keyint=240 / keyint_min=23 / scenecut=40 / intra_refresh=0 / rc=2pass / mbtree=0 / bitrate=7896 / ratetol=2.0 / qcomp=0.60 / qpmin=0 / qpmax=69 / qpstep=4 / cplxblur=20.0 / qblur=0.5 / ip_ratio=1.40 / pb_ratio=1.30 / aq=2:1.00Language                                 : EnglishDefault                                  : YesForced                                   : No

Audio #1ID                                       : 2Format                                   : AC-3Format/Info                              : Audio Coding 3Mode extension                           : CM (complete main)Format settings, Endianness              : BigCodec ID                                 : A_AC3Duration                                 : 2h 3mnBit rate mode                            : ConstantBit rate                                 : 448 KbpsChannel(s)                               : 6 channelsChannel positions                        : Front: L C R, Side: L R, LFESampling rate                            : 48.0 KHzBit depth                                : 16 bitsCompression mode                         : LossyStream size                              : 396 MiB (5%)Title                                    : DubLanguage                                 : RussianDefault                                  : YesForced                                   : No

Audio #2ID                                       : 3Format                                   : AC-3Format/Info                              : Audio Coding 3Mode extension                           : CM (complete main)Format settings, Endianness              : BigCodec ID                                 : A_AC3Duration                                 : 2h 3mnBit rate mode                            : ConstantBit rate                                 : 640 KbpsChannel(s)                               : 6 channelsChannel positions                        : Front: L C R, Side: L R, LFESampling rate                            : 48.0 KHzBit depth                                : 16 bitsCompression mode                         : LossyStream size                              : 566 MiB (7%)Title                                    : EngLanguage                                 : EnglishDefault                                  : NoForced                                   : No

Text #1ID                                       : 4Format                                   : UTF-8Codec ID                                 : S_TEXT/UTF8Codec ID/Info                            : UTF-8 Plain TextTitle                                    : fullLanguage                                 : RussianDefault                                  : NoForced                                   : No

Text #2ID                                       : 5Format                                   : UTF-8Codec ID                                 : S_TEXT/UTF8Codec ID/Info                            : UTF-8 Plain TextTitle                                    : fullLanguage                                 : EnglishDefault                                  : NoForced                                   : No

Menu00:00:00.000                             : en:00:00:00.00000:05:40.756                             : en:00:05:40.75600:10:09.775                             : en:00:10:09.77500:15:50.532                             : en:00:15:50.53200:20:55.420                             : en:00:20:55.42000:25:24.439                             : en:00:25:24.43900:30:29.326                             : en:00:30:29.32600:35:34.214                             : en:00:35:34.21400:40:39.102                             : en:00:40:39.10200:45:43.990                             : en:00:45:43.99000:50:48.878                             : en:00:50:48.87800:55:53.766                             : en:00:55:53.76601:00:58.653                             : en:01:00:58.65301:05:45.607                             : en:01:05:45.60701:10:50.494                             : en:01:10:50.49401:15:55.382                             : en:01:15:55.38201:20:42.336                             : en:01:20:42.33601:25:47.223                             : en:01:25:47.22301:30:52.111                             : en:01:30:52.11101:35:56.999                             : en:01:35:56.99901:40:43.952                             : en:01:40:43.95201:45:48.840                             : en:01:45:48.84001:50:53.728                             : en:01:50:53.72801:55:58.616                             : en:01:55:58.61602:00:45.569                             : en:02:00:45.56902:05:50.457                             : en:02:05:50.45702:10:55.345                             : en:02:10:55.34502:14:30.560                             : en:02:14:30.560

piratbit.ru


Смотрите также