Скачать мистер холмс торрент в хорошем качестве


Скачать торрент Мистер Холмс / Mr. Holmes (2015) BDRip-AVC от New-Team

Мистер ХолмсMr. Holmes

«The man behind the myth»

Страна: Великобритания, СШАЖанр: драма, детектив

Год выпуска: 2015Продолжительность: 01:43:44

Перевод: Профессиональный (многоголосый закадровый) [Лицензия iTunes]Субтитры: русские, английские (полные, SDH)Оригинальная аудиодорожка: нет

Режиссер: Билл Кондон / Bill Condon

В ролях: Иэн МакКеллен, Лора Линни, Майло Паркер, Хироюки Санада, Хэтти Морахэн, Патрик Кеннеди, Роджер Аллам, Филип Дэвис, Фрэнсис де ла Тур, Чарльз Мэддокс, Такако Акаши, Zak Shukor

Описание: Действие развернется в 1947 году, а речь в фильме пойдет об отошедшем от дел Шерлоке Холмсе, живущем в сонной деревушке в Сассексе вместе с горничной миссис Манро и сыном, который занимается сыском в качестве хобби. Несмотря на уединенный образ жизни, знаменитому сыщику с Бейкер-стрит по-прежнему не дает покоя тайна так и нераскрытого 30 лет назад дела.

Релиз:

Автор рипа: Stalker oK

Сэмпл

Качество видео: BDRip-AVC [Blu-ray Remux 1080p]Формат видео: MKVВидео кодек: AVCАудио кодек: AC3Видео: 1569 Кбит/сек, 960x400 (2.40:1), 23,976 кадр/сек, AVCАудио: русский, 384 Кбит/сек, 48,0 КГц, 6 каналов, AC-3Навигация по главам: есть

MediaInfo

Общее Уникальный идентификатор : 238634468693653139953638217805370249998 (0xB38753AFD98A4F6881BD0BD52390530E) Полное имя : M:RipsMr. HolmesMr.Holmes.2015.BDRip-AVC.MVO.1.45Gb.stalkerok.new-team.mkv Формат : Matroska Версия формата : Version 4 / Version 2 Размер файла : 1,41 Гбайт Продолжительность : 1 ч. 43 м. Общий поток : 1947 Кбит/сек Название фильма : Mr. Holmes (2015) (New-Team) (Rip by Stalker oK) Дата кодирования : UTC 2016-04-23 15:59:13 Программа кодирования : mkvmerge v8.6.1 ('Flying') 64bit Библиотека кодирования : libebml v1.3.3 + libmatroska v1.4.4

Видео Идентификатор : 1 Формат : AVC Формат/Информация : Advanced Video Codec Профиль формата : [email protected] Параметр CABAC формата : Да Параметр ReFrames формата : 13 кадров Идентификатор кодека : V_MPEG4/ISO/AVC Продолжительность : 1 ч. 43 м. Битрейт : 1569 Кбит/сек Ширина : 960 пикселей Высота : 400 пикселей Соотношение сторон : 2,40:1 Режим частоты кадров : Постоянный Частота кадров : 23,976 (24000/1001) кадра/сек Цветовое пространство : YUV Субдискретизация насыщенности : 4:2:0 Битовая глубина : 8 бит Тип развёртки : Прогрессивная Бит/(Пиксели*Кадры) : 0.170 Размер потока : 1,13 Гбайт (80%) Заголовок : Mr. Holmes (2015) (New-Team) (Rip by Stalker oK) Библиотека кодирования : x264 core 146 r2538kMod 121396c Настройки программы : cabac=1 / ref=13 / deblock=1:-3:-3 / analyse=0x3:0x133 / me=umh / subme=11 / psy=1 / fade_compensate=0.00 / psy_rd=1.00:0.12 / mixed_ref=1 / me_range=48 / chroma_me=1 / trellis=2 / 8x8dct=1 / cqm=0 / deadzone=21,11 / fast_pskip=0 / chroma_qp_offset=-3 / threads=12 / lookahead_threads=3 / sliced_threads=0 / nr=0 / decimate=0 / interlaced=0 / bluray_compat=0 / constrained_intra=0 / fgo=0 / bframes=14 / b_pyramid=2 / b_adapt=2 / b_bias=0 / direct=3 / weightb=1 / open_gop=0 / weightp=2 / keyint=240 / keyint_min=23 / scenecut=40 / intra_refresh=0 / rc_lookahead=60 / rc=2pass / mbtree=0 / bitrate=1569 / ratetol=1.0 / qcomp=0.70 / qpmin=0 / qpmax=69 / qpstep=4 / cplxblur=20.0 / qblur=0.5 / vbv_maxrate=50000 / vbv_bufsize=62500 / nal_hrd=none / filler=0 / ip_ratio=1.40 / pb_ratio=1.30 / aq=3:0.85 Default : Да Forced : Нет

Аудио Идентификатор : 2 Формат : AC-3 Формат/Информация : Audio Coding 3 Расширение режима : CM (complete main) Параметр Endianness формата : Big Идентификатор кодека : A_AC3 Продолжительность : 1 ч. 43 м. Вид битрейта : Постоянный Битрейт : 384 Кбит/сек Каналы : 6 каналов Расположение каналов : Front: L C R, Side: L R, LFE Частота : 48,0 КГц Частота кадров : 31,250 кадров/сек (1536 spf) Метод сжатия : С потерями Размер потока : 285 Мбайт (20%) Заголовок : iTunes Язык : Russian Default : Да Forced : Нет

Текст #1 Идентификатор : 3 Формат : UTF-8 Идентификатор кодека : S_TEXT/UTF8 Идентификатор кодека/Информация : UTF-8 Plain Text Продолжительность : 1 ч. 37 м. Битрейт : 92 бит/сек Count of elements : 1169 Размер потока : 66,4 Кбайт (0%) Язык : Russian Default : Нет Forced : Нет

Текст #2 Идентификатор : 4 Формат : UTF-8 Идентификатор кодека : S_TEXT/UTF8 Идентификатор кодека/Информация : UTF-8 Plain Text Продолжительность : 1 ч. 37 м. Битрейт : 54 бит/сек Count of elements : 1189 Размер потока : 39,0 Кбайт (0%) Язык : English Default : Нет Forced : Нет

Текст #3 Идентификатор : 5 Формат : UTF-8 Идентификатор кодека : S_TEXT/UTF8 Идентификатор кодека/Информация : UTF-8 Plain Text Продолжительность : 1 ч. 37 м. Битрейт : 61 бит/сек Count of elements : 1123 Размер потока : 43,9 Кбайт (0%) Заголовок : SDH Язык : English Default : Нет Forced : Нет

Меню 00:00:00.000 : en:Chapter 01 00:07:28.906 : en:Chapter 02 00:13:13.501 : en:Chapter 03 00:17:30.924 : en:Chapter 04 00:26:18.910 : en:Chapter 05 00:33:56.576 : en:Chapter 06 00:39:33.913 : en:Chapter 07 00:45:14.753 : en:Chapter 08 00:53:35.128 : en:Chapter 09 00:59:44.789 : en:Chapter 10 01:05:43.981 : en:Chapter 11 01:14:05.232 : en:Chapter 12 01:24:24.350 : en:Chapter 13 01:29:30.406 : en:Chapter 14 01:34:31.248 : en:Chapter 15 01:39:47.815 : en:Chapter 16

krutor.org

2015 hd 720, 1080

vtorrents.net

!

: : Mr. Holmes : 2015: , : : , , , , , , , , ,

IMDB: 6.9/10 (47 618 ) : 6.5/10 (10 697 )

:, . - , . , 30 .

: , : 1 43 : ( ) iTunes

745

681

udp://shubt.net:2710

13 2 4

udp://tracker.openbittorrent.com:80/announce

56 24 31

udp://tracker.publicbt.com:80/announce

87 49 12

udp://tracker.ccc.de:80/announce

65 20 46

udp://open.demonii.com:1337

52 13 36

udp://tracker.leechers-paradise.org:6969

16 1 19

udp://tracker.coppersurfer.tk:6969

16 3 37710

udp://ipv6.leechers-paradise.org:6969

66 98 66

udp://explodie.org:6969

2 1 98

udp://tracker.zer0day.to:1337

65 78 37

udp://tracker.opentrackr.org:1337

67 23 61

udp://tracker.sktorrent.net:6969

63 81 80

http://mgtracker.org:2710/announce

58 41 47

http://open.touki.ru/announce.php

32 34 36

http://p4p.arenabg.ch:1337/announce

3 1 88

http://torrentsmd.com:8080/announce

51 73 83

udp://tracker.kuroy.me:5944

32 43 54

udp://open.stealth.si:80

1 96 67

1,37 Gb

145

Mr.Holmes.2015.P.HDRip.Pardox&Omskbird.avi (1,37 Gb)

468

862

udp://shubt.net:2710

10 83 4

udp://tracker.leechers-paradise.org:6969

7 29 7

udp://tracker.coppersurfer.tk:6969

9 30 13871

udp://ipv6.leechers-paradise.org:6969

71 42 85

udp://explodie.org:6969

50 57 30

udp://tracker.zer0day.to:1337

15 84 83

udp://tracker.opentrackr.org:1337

1 99 1

udp://tracker.sktorrent.net:6969

20 53 64

http://mgtracker.org:2710/announce

64 81 27

http://open.touki.ru/announce.php

17 25 60

http://p4p.arenabg.ch:1337/announce

30 79 4

http://torrentsmd.com:8080/announce

75 60 17

udp://tracker.kuroy.me:5944

98 78 85

udp://open.stealth.si:80

1 62 70

6,81 Gb

13

.720p.i. Ton.mkv (6,81 Gb)

752

1114

udp://shubt.net:2710

2 89 1

udp://tracker.openbittorrent.com:80/announce

48 45 92

udp://tracker.publicbt.com:80/announce

51 73 85

udp://tracker.ccc.de:80/announce

94 90 83

udp://open.demonii.com:1337

13 73 66

udp://tracker.leechers-paradise.org:6969

1 40 1

udp://tracker.coppersurfer.tk:6969

1 39 14210

udp://ipv6.leechers-paradise.org:6969

55 28 17

udp://explodie.org:6969

83 1 78

udp://tracker.zer0day.to:1337

38 26 14

udp://tracker.opentrackr.org:1337

72 99 51

udp://tracker.sktorrent.net:6969

21 79 70

http://mgtracker.org:2710/announce

24 45 76

http://open.touki.ru/announce.php

93 63 89

http://p4p.arenabg.ch:1337/announce

36 98 48

http://torrentsmd.com:8080/announce

33 100 51

udp://tracker.kuroy.me:5944

69 31 23

udp://open.stealth.si:80

18 95 11

10,02 Gb

9

Mr.Holmes.2015.P.BDRip.1080p.Pardox_Omskbird.mkv (10,02 Gb)

Скачать фильм Мистер Холмс через торрент в хорошем качестве бесплатно HDRip

piratbit.ru

Размер: 1.37 GB | Добавлен: 1 год 11 мес. назад | Торрент скачан:1131 раз
Реклама Дарим 3000 рублей за регистрацию, не упусти свой шанс получить шикарный бонус!!!

31-10-2015 19:29 Мистер Холмс Скачать торрент  

Мистер Холмс / Mr. Holmes Год выхода: 2015Жанр: Драма, криминал, детективСтрана: Великобритания, СШАСтудия: AI-Film, See-Saw Films, Archer GrayПродолжительность: 01:44:01Перевод: Профессиональный (многоголосый) [Paradox & Omskbird records]

• Роли озвучивали: Константин Погодаев, Ольга Федорова, Павел Ярощик, Максим Максимов, Анастасия Флигина • Перевод: Екатерина Кузнецова • Звукорежиссер: Павел Квентов

Режиссер: Билл Кондон

В ролях: Иэн МакКеллен, Лора Линни, Майло Паркер, Хироюки Санада, Хэтти Морахэн, Патрик Кеннеди, Роджер Аллам, Филип Дэвис, Фрэнсис де ла Тур, Чарльз Мэддокс, Такако Акаши, Джон Сешнс, Майкл Калкин, Дэвид Фокс, Оливер Девоти, Майк Бернсайд, Николас Роу, Сэм Колсон, Фрэнсис Барбер, Гермиона Корфилд Действие развернется в 1947 году, а речь в фильме пойдет об отошедшем от дел Шерлоке Холмсе, живущем в сонной деревушке в Сассексе вместе с горничной миссис Манро и сыном, который занимается сыском в качестве хобби. Несмотря на уединенный образ жизни, знаменитому сыщику с Бейкер-стрит по-прежнему не дает покоя тайна так и нераскрытого 50 лет назад дела.

Семпл

Качество: HDRipКодек: AVI Видео: XviD, 720x304 (2.35:1), 23,976 fps, 1748 kbpsЗвук: AC-3, 48 kHz, 6 ch, 192 kbps

Скачать Мистер Холмс через торрент http://i57.fastpic.ru/big/2015/1016/6f/30f50b99aee29213d6491a1d74cdfc6f.jpg Скачать фильм Мистер Холмс через торрент бесплантно в хорошем качестве В ролях: Иэн МакКеллен, Лора Линни, Майло Паркер, Хироюки Санада, Хэтти Морахэн, Патрик Кеннеди, Роджер Аллам, Филип Дэвис, Фрэнсис де ла ... 2015-10-31 19:29 9.4 10 24

Loading...

Loading...

% Раздел Тема Автор DL S | L
Фильмы 2015 [DVDrip, WEB-DLRip, HDrip] [ 1.41 GB ] Мистер Холмс / Mr. Holmes [2015 BDRip-AVC от sokol_ok] MVO sokol_ok Скачать
Фильмы 2015 [DVDrip, WEB-DLRip, HDrip] [ 748 MB ] Мистер Холмс / Mr. Holmes [2015 HDRip by _Один_777] MVO () Один 777 Скачать
Фильмы 2015 [DVDrip, WEB-DLRip, HDrip] [ 2.04 GB ] Мистер Холмс / Mr. Holmes [2015 HDRip многоголосый закадровый ""] coc900 Скачать
Фильмы 2015 [DVDrip, WEB-DLRip, HDrip] [ 1.41 GB ] Мистер Холмс / Mr. Holmes [2015 BDRip-AVC] MVO potroks Скачать
Фильмы 2015 [DVDrip, WEB-DLRip, HDrip] [ 1.37 GB ] Мистер Холмс / Mr. Holmes [2015 HDRip] MVO Ворон Скачать
Фильмы с авторской озвучкой [ 4.37 GB ] Мистер Холмс / Mr. Holmes [2015 BDRip 720p от _denis_100 / NNNB] Авторский _denis_100 Скачать
R.G.Resident - Фильмы, Видео [ 1.46 GB ] Мистер Холмс / Mr. Holmes [2015 BDRip-AVC Авторский Ю.Сербин] R.G.Resident schultz Скачать

Рекламный пират

31-10-2015 20:27 Мистер Холмс Скачать торрент  

о , вот спасибо!

Дорогой пользователь! Огромная просьба, поблагодарите релизера, оцените раздачу и оставьте свои комментарий, если Вы скачали Мистер Холмс через торрент бесплатно! Внесите свою лепту в развитие PiratBit!

Комментировать посты могут только пользователи прошедшие не сложную регистрацию

Мистер Холмс через торрент Скачать бесплатно Мистер Холмс Мистер Холмс скачать торрент Мистер Холмс смотреть онлайн Cкачать фильм Мистер Холмс бесплатно Мистер Холмс скачать торрент в хорошем качестве Мистер Холмс смотреть онлайн бесплатно в хорошем качестве

Вы можете начинать темыВы можете отвечать на сообщенияВы не можете редактировать свои сообщенияВы не можете удалять свои сообщенияВы не можете голосовать в опросахВы не можете прикреплять файлы к сообщениямВы можете скачивать файлы

Скачать фильм Мистер Холмс через торрент в хорошем качестве бесплатно HDRip

piratbit.ru

Раздают: 1 [ 0 KB/s ]
Размер: 1.37 GB | Добавлен: 1 год 7 мес. назад | Торрент скачан:543 раза
Реклама Дарим 3000 рублей за регистрацию, не упусти свой шанс получить шикарный бонус!!!

23-03-2016 20:33 Мистер Холмс Скачать торрент  

Мистер Холмс / Mr. Holmes Год выпуска: 2015Страна: Великобритания, СШАЖанр: драма, криминал, детективПродолжительность: 01:44:10Перевод: Профессиональный многоголосый [iTunes]

Режиссер постановщик: Билл Кондон

В главных ролях: Иэн МакКеллен, Лора Линни, Майло Паркер, Хироюки Санада, Хэтти Морахэн, Патрик Кеннеди, Роджер Аллам, Филип Дэвис, Фрэнсис де ла Тур, Чарльз Мэддокс Действие развернется в 1947 году, а речь в фильме пойдет об отошедшем от дел Шерлоке Холмсе, живущем в сонной деревушке в Сассексе вместе с горничной миссис Манро и сыном, который занимается сыском в качестве хобби. Несмотря на уединенный образ жизни, знаменитому сыщику с Бейкер-стрит по-прежнему не дает покоя тайна так и нераскрытого 50 лет назад дела.

СЭМПЛ

Качество видео: HDRipФормат видео: AVIВидео: XviD, 720x304 (2.35:1), 23,976 fps, 1679 kbpsАудио: AC-3, 48 kHz, 6 ch, 384 kbps

            Скачать Мистер Холмс через торрент http://picsee.net/upload/2015-11-01/157a103c666e.jpg Скачать фильм Мистер Холмс через торрент бесплантно в хорошем качестве Год выпуска: 2015Страна: Великобритания, СШАЖанр: драма, криминал, детективПродолжительность: 01:44:10Перевод: Профессиональный ... 2016-03-23 20:33 9 10 23

Loading...

Loading...

Рекламный пират

24-03-2016 06:32 Мистер Холмс Скачать торрент  

Уппс,Гэндальф в Холмса на пенсии перевоплатился?надо посмотреть))

24-03-2016 09:15 Мистер Холмс Скачать торрент  

Уппс,Гэндальф в Холмса на пенсии перевоплатился?надо посмотреть))Ну если только не жалко полтора часа впустую потратить...

24-03-2016 11:41 Мистер Холмс Скачать торрент  

Уппс,Гэндал...лан не буду повторятся...

Дорогой пользователь! Огромная просьба, поблагодарите релизера, оцените раздачу и оставьте свои комментарий, если Вы скачали Мистер Холмс через торрент бесплатно! Внесите свою лепту в развитие PiratBit!

Комментировать посты могут только пользователи прошедшие не сложную регистрацию

Мистер Холмс через торрент Скачать бесплатно Мистер Холмс Мистер Холмс скачать торрент Мистер Холмс смотреть онлайн Cкачать фильм Мистер Холмс бесплатно Мистер Холмс скачать торрент в хорошем качестве Мистер Холмс смотреть онлайн бесплатно в хорошем качестве

Вы не можете начинать темыВы не можете отвечать на сообщенияВы не можете редактировать свои сообщенияВы не можете удалять свои сообщенияВы не можете голосовать в опросахВы не можете прикреплять файлы к сообщениямВы можете скачивать файлы

Мистер Холмс / Mr. Holmes [2015 BDRip 720p от _denis_100 / NNNB] Авторский скачать через торрент

Format                                   : MatroskaFormat version                           : Version 2File size                                : 4.37 GiBDuration                                 : 1h 43mnOverall bit rate                         : 6 030 KbpsMovie name                               : Mr. Holmes.(2015).BDRip.720p.[denis100]Encoded date                             : UTC 2016-03-03 15:34:25Writing application                      : mkvmerge v5.8.0 ('No Sleep / Pillow') built on Sep  2 2012 15:37:04Writing library                          : libebml v1.2.3 + libmatroska v1.3.0

VideoID                                       : 1Format                                   : AVCFormat/Info                              : Advanced Video CodecFormat profile                           : [email protected] settings, CABAC                   : YesFormat settings, ReFrames                : 11 framesCodec ID                                 : V_MPEG4/ISO/AVCDuration                                 : 1h 43mnBit rate                                 : 4 753 KbpsWidth                                    : 1 280 pixelsHeight                                   : 534 pixelsDisplay aspect ratio                     : 2.40:1Frame rate                               : 23.976 fpsColor space                              : YUVChroma subsampling                       : 4:2:0Bit depth                                : 8 bitsScan type                                : ProgressiveBits/(Pixel*Frame)                       : 0.290Stream size                              : 3.36 GiB (77%)Title                                    : Mr. Holmes.(2015).BDRip.720p.[denis100]Writing library                          : x264 core 148 r2665 a01e339Encoding settings                        : cabac=1 / ref=11 / deblock=1:-3:-3 / analyse=0x3:0x133 / me=umh / subme=11 / psy=1 / psy_rd=1.00:0.00 / mixed_ref=1 / me_range=32 / chroma_me=1 / trellis=2 / 8x8dct=1 / cqm=0 / deadzone=21,11 / fast_pskip=0 / chroma_qp_offset=-2 / threads=6 / lookahead_threads=1 / sliced_threads=0 / nr=0 / decimate=1 / interlaced=0 / bluray_compat=0 / constrained_intra=0 / bframes=9 / b_pyramid=2 / b_adapt=2 / b_bias=0 / direct=3 / weightb=1 / open_gop=0 / weightp=2 / keyint=240 / keyint_min=23 / scenecut=40 / intra_refresh=0 / rc=2pass / mbtree=0 / bitrate=4753 / ratetol=1.0 / qcomp=0.60 / qpmin=0 / qpmax=69 / qpstep=4 / cplxblur=20.0 / qblur=0.5 / ip_ratio=1.40 / pb_ratio=1.30 / aq=2:1.00Language                                 : EnglishDefault                                  : YesForced                                   : No

Audio #1ID                                       : 2Format                                   : AC-3Format/Info                              : Audio Coding 3Mode extension                           : CM (complete main)Codec ID                                 : A_AC3Duration                                 : 1h 43mnBit rate mode                            : ConstantBit rate                                 : 640 KbpsChannel(s)                               : 6 channelsChannel positions                        : Front: L C R, Side: L R, LFESampling rate                            : 48.0 KHzBit depth                                : 16 bitsCompression mode                         : LossyStream size                              : 475 MiB (11%)Title                                    : Авторский, СербинLanguage                                 : RussianDefault                                  : YesForced                                   : No

Audio #2ID                                       : 3Format                                   : AC-3Format/Info                              : Audio Coding 3Mode extension                           : CM (complete main)Codec ID                                 : A_AC3Duration                                 : 1h 43mnBit rate mode                            : ConstantBit rate                                 : 640 KbpsChannel(s)                               : 6 channelsChannel positions                        : Front: L C R, Side: L R, LFESampling rate                            : 48.0 KHzBit depth                                : 16 bitsCompression mode                         : LossyStream size                              : 475 MiB (11%)Language                                 : EnglishDefault                                  : NoForced                                   : No

TextID                                       : 4Format                                   : UTF-8Codec ID                                 : S_TEXT/UTF8Codec ID/Info                            : UTF-8 Plain TextLanguage                                 : RussianDefault                                  : NoForced                                   : No

Menu00:00:00.000                             : en:Chapter 0100:07:29.155                             : en:Chapter 0200:13:13.581                             : en:Chapter 0300:17:31.007                             : en:Chapter 0400:26:19.161                             : en:Chapter 0500:33:56.826                             : en:Chapter 0600:39:33.996                             : en:Chapter 0700:45:15.002                             : en:Chapter 0800:53:34.670                             : en:Chapter 0900:59:44.789                             : en:Chapter 1001:05:44.064                             : en:Chapter 1101:14:05.439                             : en:Chapter 1201:24:24.433                             : en:Chapter 1301:29:30.487                             : en:Chapter 1401:34:30.957                             : en:Chapter 1501:39:47.353                             : en:Chapter 16

piratbit.ru


Смотрите также