Скачать малыш на драйве через торрент бесплатно в хорошем качестве


Скачать фильм Малыш на драйве через торрент в хорошем качестве бесплатно WEB-DLRip

piratbit.ru

Раздают: 23 [ 43 KB/s ]
Размер: 1.46 GB | Добавлен: 1 мес. 3 д. назад | Торрент скачан:845 раз
Реклама Дарим 3000 рублей за регистрацию, не упусти свой шанс получить шикарный бонус!!!

22-09-2017 20:10 Малыш на драйве Скачать торрент  

Малыш на драйве / Baby Driver Год выпуска: 2017Жанр: боевик, триллер, криминал, музыкаСтрана: Великобритания, СШАПродолжительность:01:54:48Озвучивание: Дубляж [Line]Субтитры: нет

Режиссёр: Дениз Ди Нови

В ролях: Энсел Элгорт, Джон Бернтал, Джон Хэмм, Эйса Гонсалес, Micah Howard, Лили Джеймс, Морган Браун, Кевин Спейси, Morse Diggs, С.Дж. Джонс

Описание: Молодой парень по прозвищу Малыш обожает стильную музыку, быструю езду и адреналин в крови. Вся его жизнь — это сплошные погони и перестрелки, ведь он работает водителем, который помогает бандитам скрыться с места преступления. Однажды он по-настоящему влюбляется и решает выйти из игры, но сначала ему предстоит выполнить еще одно задание, которое вполне может оказаться последним в его жизни.

Качество: WEB-DLRipФормат: AVI Видео: 720x304 (2.37:1), 23.976 fps, XviD build 50 ~1615 kbps avg, 0.31 bit/pixelАудио: 48 kHz, AC3 Dolby Digital, 2/0 (L,R) ch, ~192 kbps

Скачать Малыш на драйве через торрент http://i92.fastpic.ru/big/2017/0712/3f/ca0de913790b04a16d1a01e9cf32a93f.jpg Скачать фильм Малыш на драйве через торрент бесплантно в хорошем качестве Описание: Молодой парень по прозвищу Малыш обожает стильную музыку, быструю езду и адреналин в крови. Вся его жизнь — это сплошные погони и ... 2017-09-22 20:10 8.2 10 21

Loading...

Loading...

% Раздел Тема Автор DL S | L
Фильмы 2017 [DVDrip, WEB-DLRip, HDrip] (DUB, MVO) [ 2.94 GB ] Малыш на драйве / Baby Driver [2017 BDRip-AVC] Dub sokol_ok Скачать
T Релизы по Парсеру [Фильмы, Игры, Сериалы и другое...] [ 42.77 GB ] Малыш на драйве / Baby Driver [2017 музыка Blu-ray disc ] DUB bober100 Скачать
Фильмы 2017 [DVDrip, WEB-DLRip, HDrip] (DUB, MVO) [ 760 MB ] Малыш на драйве / Baby Driver [2017 BDRip-AVC] Dub sokol_ok Скачать
Фильмы (Blu-ray, BD-Remux, HDDVD) [ 21.91 GB ] Малыш на драйве / Baby Driver [2017 музыка BD Remux 1080p] bober100 Скачать
Официальные cаундтреки к зарубежным фильмам [ 253 MB ] OST - Малыш на драйве / Baby Driver 2017 / MP3 / 320 kbps / Soundtrack bober100 Скачать
Фильмы [HD 720p, 1080p] (Хороший звук DUB, MVO) [ 9.21 GB ] Малыш на драйве / Baby Driver [2017 музыка BDRip 1080p] bober100 Скачать
Фильмы 2017 [DVDrip, WEB-DLRip, HDrip] (DUB, MVO) [ 2.03 GB ] Малыш на драйве / Baby Driver [2017 BDRip-AVC] R.G.Generalfilm White Smoke Скачать

Рекламный пират

23-09-2017 14:43 Малыш на драйве Скачать торрент  

писец пуйня не понятно откуда такой рейтинг смотрел на перемотке

29-09-2017 19:12 Малыш на драйве Скачать торрент  

mcrae писал(а):

писец пуйня не понятно откуда такой рейтинг смотрел на перемотке

Фильм то норм, но, согласитесь,

если бы он не начал выеживаться, стольких бы жертв не было

04-10-2017 19:34 Малыш на драйве Скачать торрент  

Дорогой пользователь! Огромная просьба, поблагодарите релизера, оцените раздачу и оставьте свои комментарий, если Вы скачали Малыш на драйве через торрент бесплатно! Внесите свою лепту в развитие PiratBit!

Комментировать посты могут только пользователи прошедшие не сложную регистрацию

Малыш на драйве через торрент Скачать бесплатно Малыш на драйве Малыш на драйве скачать торрент Малыш на драйве смотреть онлайн Cкачать фильм Малыш на драйве бесплатно Малыш на драйве скачать торрент в хорошем качестве Малыш на драйве смотреть онлайн бесплатно в хорошем качестве

Вы можете начинать темыВы можете отвечать на сообщенияВы не можете редактировать свои сообщенияВы не можете удалять свои сообщенияВы не можете голосовать в опросахВы не можете прикреплять файлы к сообщениямВы можете скачивать файлы

Скачать фильм Малыш на драйве через торрент в хорошем качестве бесплатно 720p

GeneralUnique ID : 205354254873346931508769827863792606896 (0x9A7DCA763EF9AEF2BB85186413DE5EB0)Complete name : F:Baby.Driver.2017.BDRip.720p.ExKinoRay.mkvFormat : MatroskaFormat version : Version 2File size : 4.50 GiBDuration : 1 h 52 minOverall bit rate : 5 713 kb/sEncoded date : UTC 2017-10-04 18:30:43Writing application : mkvmerge v5.8.0 ('No Sleep / Pillow') built on Sep 2 2012 15:37:04Writing library : libebml v1.2.3 + libmatroska v1.3.0

VideoID : 1Format : AVCFormat/Info : Advanced Video CodecFormat profile : [email protected] settings : CABAC / 12 Ref FramesFormat settings, CABAC : YesFormat settings, RefFrames : 12 framesMuxing mode : Header strippingCodec ID : V_MPEG4/ISO/AVCDuration : 1 h 52 minBit rate : 4 500 kb/sWidth : 1 280 pixelsHeight : 536 pixelsDisplay aspect ratio : 2.40:1Frame rate mode : ConstantFrame rate : 23.976 (24000/1001) FPSColor space : YUVChroma subsampling : 4:2:0Bit depth : 8 bitsScan type : ProgressiveBits/(Pixel*Frame) : 0.274Stream size : 3.45 GiB (77%)Writing library : x264 core 146 r2538 121396cEncoding settings : cabac=1 / ref=12 / deblock=1:-2:-2 / analyse=0x3:0x133 / me=umh / subme=11 / psy=1 / psy_rd=1.05:0.05 / mixed_ref=1 / me_range=32 / chroma_me=1 / trellis=2 / 8x8dct=1 / cqm=0 / deadzone=21,11 / fast_pskip=0 / chroma_qp_offset=-3 / threads=12 / lookahead_threads=2 / sliced_threads=0 / nr=0 / decimate=0 / interlaced=0 / bluray_compat=0 / constrained_intra=0 / bframes=8 / b_pyramid=2 / b_adapt=2 / b_bias=0 / direct=3 / weightb=1 / open_gop=0 / weightp=2 / keyint=240 / keyint_min=23 / scenecut=40 / intra_refresh=0 / rc_lookahead=50 / rc=2pass / mbtree=0 / bitrate=4500 / ratetol=1.0 / qcomp=0.60 / qpmin=0 / qpmax=69 / qpstep=4 / cplxblur=20.0 / qblur=0.5 / vbv_maxrate=50000 / vbv_bufsize=62500 / nal_hrd=none / filler=0 / ip_ratio=1.40 / pb_ratio=1.30 / aq=3:0.80Language : EnglishDefault : YesForced : No

Audio #1ID : 2Format : AC-3Format/Info : Audio Coding 3Format settings, Endianness : BigMuxing mode : Header strippingCodec ID : A_AC3Duration : 1 h 52 minBit rate mode : ConstantBit rate : 384 kb/sChannel(s) : 6 channelsChannel positions : Front: L C R, Side: L R, LFESampling rate : 48.0 kHzFrame rate : 31.250 FPS (1536 SPF)Bit depth : 16 bitsCompression mode : LossyStream size : 309 MiB (7%)Title : iTunesLanguage : RussianService kind : Complete MainDefault : YesForced : No

Audio #2ID : 3Format : AC-3Format/Info : Audio Coding 3Format settings, Endianness : BigMuxing mode : Header strippingCodec ID : A_AC3Duration : 1 h 52 minBit rate mode : ConstantBit rate : 640 kb/sChannel(s) : 6 channelsChannel positions : Front: L C R, Side: L R, LFESampling rate : 48.0 kHzFrame rate : 31.250 FPS (1536 SPF)Bit depth : 16 bitsCompression mode : LossyStream size : 516 MiB (11%)Title : OriginalLanguage : EnglishService kind : Complete MainDefault : NoForced : No

Audio #3ID : 4Format : AC-3Format/Info : Audio Coding 3Format settings, Endianness : BigMuxing mode : Header strippingCodec ID : A_AC3Duration : 1 h 52 minBit rate mode : ConstantBit rate : 192 kb/sChannel(s) : 2 channelsChannel positions : Front: L RSampling rate : 48.0 kHzFrame rate : 31.250 FPS (1536 SPF)Bit depth : 16 bitsCompression mode : LossyStream size : 155 MiB (3%)Title : Commentary by Writer Director Edgar WrightLanguage : EnglishService kind : Complete MainDefault : NoForced : No

Text #1ID : 5Format : UTF-8Codec ID : S_TEXT/UTF8Codec ID/Info : UTF-8 Plain TextTitle : ForcedLanguage : RussianDefault : YesForced : No

Text #2ID : 6Format : UTF-8Codec ID : S_TEXT/UTF8Codec ID/Info : UTF-8 Plain TextTitle : FullLanguage : RussianDefault : NoForced : No

Text #3ID : 7Format : UTF-8Codec ID : S_TEXT/UTF8Codec ID/Info : UTF-8 Plain TextTitle : SDHLanguage : EnglishDefault : NoForced : No

Menu00:00:00.000 : en:00:00:00.00000:09:11.050 : en:00:09:11.05000:13:30.476 : en:00:13:30.47600:20:58.174 : en:00:20:58.17400:25:17.599 : en:00:25:17.59900:33:07.903 : en:00:33:07.90300:43:43.246 : en:00:43:43.24600:48:15.643 : en:00:48:15.64300:53:39.550 : en:00:53:39.55000:58:51.903 : en:00:58:51.90301:05:23.545 : en:01:05:23.54501:11:34.081 : en:01:11:34.08101:19:17.002 : en:01:19:17.00201:30:30.675 : en:01:30:30.67501:38:04.170 : en:01:38:04.17001:43:30.413 : en:01:43:30.413

piratbit.ru

Скачать торрент Малыш на драйве / Baby Driver (2017) WEB-DL 1080p

Информация о фильмеНазвание: Малыш на драйвеОригинальное название: Baby DriverГод выхода: 2017Жанр: боевик, триллер, криминал, музыка

Режиссер: Эдгар Райт

В ролях: Энсел Элгорт, Джон Бернтал, Джон Хэмм, Эйса Гонсалес, Лили Джеймс, Кевин Спейси, Скай Феррейра, Вивиана Чавез, Лэнни Джун

О фильме: Молодой парень по прозвищу Малыш обожает стильную музыку, быструю езду и адреналин в крови. Вся его жизнь — это сплошные погони и перестрелки, ведь он работает водителем, который помогает бандитам скрыться с места преступления. Однажды он по-настоящему влюбляется и решает выйти из игры, но сначала ему предстоит выполнить еще одно задание, которое вполне может оказаться последним в его жизни.

Страна: Великобритания , СШАПродолжительность: 01:52:40Перевод: Любительский (многоголосый, закадровый) | студия Paradox & Omskbird records

ФайлКодек: x.264Качество: WEBDL 1080p (AMAZON версия)Видео: AVC, 1920x800 (2.40:1), 23.976 fps, 12 Mbps (0.325 bit/pixel)Звук 1: AC-3, 48.0 KHz, 2 ch, 384 Kbps, CBR (Russian)Звук 2: AC-3, 48.0 KHz, 6 ch, 640 Kbps, CBR (English)Субтитры: английские

MI

Общее Уникальный идентификатор : 199746462487112085471836949921955549348 (0x9645C4F3657DBD1A8A6331E8350F90A4) Полное имя : Baby driver.2017.WEB-DL.1080p.AMAZON.mkv Формат : Matroska Версия формата : Version 4 / Version 2 Размер файла : 10,2 Гбайт Продолжительность : 1 ч. 52 м. Режим общего битрейта : Переменный Общий поток : 13,0 Мбит/сек Название фильма : AMAZON Дата кодирования : UTC 2017-09-19 19:26:37 Программа кодирования : mkvmerge v8.3.0 ('Over the Horizon') 64bit Библиотека кодирования : libebml v1.3.1 + libmatroska v1.4.2

Видео Идентификатор : 1 Формат : AVC Формат/Информация : Advanced Video Codec Профиль формата : [email protected] Параметр CABAC формата : Да Параметр ReFrames формата : 4 кадра Идентификатор кодека : V_MPEG4/ISO/AVC Продолжительность : 1 ч. 52 м. Вид битрейта : Переменный Битрейт : 12,0 Мбит/сек Максимальный битрейт : 15,0 Мбит/сек Ширина : 1920 пикселей Высота : 800 пикселей Соотношение сторон : 2,40:1 Режим частоты кадров : Постоянный Частота кадров : 23,976 (24000/1001) кадра/сек Цветовое пространство : YUV Субдискретизация насыщенности : 4:2:0 Битовая глубина : 8 бит Тип развёртки : Прогрессивная Бит/(Пиксели*Кадры) : 0.325 Размер потока : 9,43 Гбайт (92%) Default : Да Forced : Нет Цветовой диапазон : Limited Основные цвета : BT.709 Характеристики трансфера : BT.709 Коэффициенты матрицы : BT.709

Аудио #1 Идентификатор : 2 Формат : AC-3 Формат/Информация : Audio Coding 3 Параметр Endianness формата : Big Идентификатор кодека : A_AC3 Продолжительность : 1 ч. 52 м. Вид битрейта : Постоянный Битрейт : 384 Кбит/сек Каналы : 2 канала Расположение каналов : Front: L R Частота : 48,0 КГц Частота кадров : 31,250 кадров/сек (1536 spf) Битовая глубина : 16 бит Метод сжатия : С потерями Размер потока : 309 Мбайт (3%) Заголовок : Paradox & Omskbird records Язык : Russian Default : Да Forced : Да

Аудио #2 Идентификатор : 3 Формат : E-AC-3 Формат/Информация : Enhanced Audio Coding 3 Параметр Endianness формата : Big Идентификатор кодека : A_EAC3 Продолжительность : 1 ч. 52 м. Вид битрейта : Постоянный Битрейт : 640 Кбит/сек Каналы : 6 каналов Расположение каналов : Front: L C R, Side: L R, LFE Частота : 48,0 КГц Частота кадров : 187,500 кадров/сек (256 spf) Метод сжатия : С потерями Размер потока : 516 Мбайт (5%) Язык : English Default : Нет Forced : Нет

Текст Идентификатор : 4 Формат : UTF-8 Идентификатор кодека : S_TEXT/UTF8 Идентификатор кодека/Информация : UTF-8 Plain Text Продолжительность : 1 ч. 51 м. Битрейт : 78 бит/сек ElementCount : 2275 Размер потока : 64,3 Кбайт (0%) Язык : English Default : Нет Forced : Нет

krutor.org

Скачать фильм Малыш на драйве через торрент в хорошем качестве бесплатно TS

piratbit.ru

Раздают: 12 [ 3 KB/s ]
Размер: 1.46 GB | Добавлен: 2 мес. 1 д. назад | Торрент скачан:557 раз
Реклама Дарим 3000 рублей за регистрацию, не упусти свой шанс получить шикарный бонус!!!

24-08-2017 16:43 Малыш на драйве Скачать торрент  

Малыш на драйве / Baby Driver

Год выпуска: 2017Страна: Великобритания, СШАЖанр: боевик, триллер, криминал, музыкаПродолжительность: 01:49:29Перевод: ДубляжСубтитры: отсутствуют

Режиссер: Эдгар Райт

В ролях:

Энсел Элгорт, Джон Бернтал, Джон Хэмм, Эйса Гонсалес, Micah Howard, Лили Джеймс, Морган Браун, Кевин Спейси, Morse Diggs, С.Дж. Джонс

Описание:

Молодой парень по прозвищу Малыш обожает стильную музыку, быструю езду и адреналин в крови. Вся его жизнь — это сплошные погони и перестрелки, ведь он работает водителем, который помогает бандитам скрыться с места преступления. Однажды он по-настоящему влюбляется и решает выйти из игры, но сначала ему предстоит выполнить еще одно задание, которое вполне может оказаться последним в его жизни.

Качество: TSФормат: AVIВидео кодек: XviDАудио кодек: AC3

Видео: 720x288 (2.50:1), 23.976 fps, XviD build 50 ~1703 kbps avg, 0.34 bit/pixelАудио#1: 48 kHz, AC3 Dolby Digital, 2/0 (L,R) ch, ~192 kbps

Скачать Малыш на драйве через торрент http://img10.lostpic.net/2017/08/24/5fa8c302dbdf3f73c88aea144fdeebd6.jpg Скачать фильм Малыш на драйве через торрент бесплантно в хорошем качестве Описание: Молодой парень по прозвищу Малыш обожает стильную музыку, быструю езду и адреналин в крови. Вся его жизнь — это сплошные погони и ... 2017-08-24 16:43 9.4 10 16

Loading...

Loading...

% Раздел Тема Автор DL S | L
Фильмы 2017 [DVDrip, WEB-DLRip, HDrip] (DUB, MVO) [ 2.94 GB ] Малыш на драйве / Baby Driver [2017 BDRip-AVC] Dub sokol_ok Скачать
T Релизы по Парсеру [Фильмы, Игры, Сериалы и другое...] [ 42.77 GB ] Малыш на драйве / Baby Driver [2017 музыка Blu-ray disc ] DUB bober100 Скачать
Фильмы 2017 [DVDrip, WEB-DLRip, HDrip] (DUB, MVO) [ 760 MB ] Малыш на драйве / Baby Driver [2017 BDRip-AVC] Dub sokol_ok Скачать
Фильмы (Blu-ray, BD-Remux, HDDVD) [ 21.91 GB ] Малыш на драйве / Baby Driver [2017 музыка BD Remux 1080p] bober100 Скачать
Фильмы [HD 720p, 1080p] (Хороший звук DUB, MVO) [ 9.21 GB ] Малыш на драйве / Baby Driver [2017 музыка BDRip 1080p] bober100 Скачать
Фильмы 2017 [DVDrip, WEB-DLRip, HDrip] (DUB, MVO) [ 2.26 GB ] Малыш на драйве / Baby Driver [2017 BDRip-AVC] Dub sokol_ok Скачать
Фильмы 2017 [DVDrip, WEB-DLRip, HDrip] (DUB, MVO) [ 1.54 GB ] Малыш на драйве / Baby Driver [2017 BDRip-AVC] Dub sokol_ok Скачать

Рекламный пират

25-08-2017 09:58 Малыш на драйве Скачать торрент  

Ходил в кино полностью тянет на оценку на КиноПоиск!

26-08-2017 07:18 Малыш на драйве Скачать торрент  

Ну ну. Качество: TSТак нет же. Качество: CamRipПроверяйте залитые файлы.

31-08-2017 23:40 Малыш на драйве Скачать торрент  

можно подумать ,что TS - это не CAMrip. Разберись сначала что к чему , потом пиши

15-09-2017 01:29 Малыш на драйве Скачать торрент  

Дорогой пользователь! Огромная просьба, поблагодарите релизера, оцените раздачу и оставьте свои комментарий, если Вы скачали Малыш на драйве через торрент бесплатно! Внесите свою лепту в развитие PiratBit!

Комментировать посты могут только пользователи прошедшие не сложную регистрацию

Малыш на драйве через торрент Скачать бесплатно Малыш на драйве Малыш на драйве скачать торрент Малыш на драйве смотреть онлайн Cкачать фильм Малыш на драйве бесплатно Малыш на драйве скачать торрент в хорошем качестве Малыш на драйве смотреть онлайн бесплатно в хорошем качестве

Вы можете начинать темыВы можете отвечать на сообщенияВы не можете редактировать свои сообщенияВы не можете удалять свои сообщенияВы не можете голосовать в опросахВы не можете прикреплять файлы к сообщениямВы можете скачивать файлы

Скачать фильм Малыш на драйве через торрент в хорошем качестве бесплатно WEB-DLRip

piratbit.ru

Раздают: 27 [ 0 KB/s ]
Размер: 1.46 GB | Добавлен: 1 мес. 11 д. назад | Торрент скачан:1146 раз
Реклама Дарим 3000 рублей за регистрацию, не упусти свой шанс получить шикарный бонус!!!

14-09-2017 18:54 Малыш на драйве Скачать торрент  

Малыш на драйве / Baby Driver

Год выпуска: 2017Страна: Великобритания, СШАЖанр: боевик, триллер, криминал, музыкаПродолжительность: 01:54:44Перевод: Любительский (многоголосый) [@[email protected]]Субтитры: отсутствуют

Режиссер: Эдгар Райт

В ролях:

Энсел Элгорт, Джон Бернтал, Джон Хэмм, Эйса Гонсалес, Micah Howard, Лили Джеймс, Морган Браун, Кевин Спейси, Morse Diggs, С.Дж. Джонс

Описание:

Молодой парень по прозвищу Малыш обожает стильную музыку, быструю езду и адреналин в крови. Вся его жизнь — это сплошные погони и перестрелки, ведь он работает водителем, который помогает бандитам скрыться с места преступления. Однажды он по-настоящему влюбляется и решает выйти из игры, но сначала ему предстоит выполнить еще одно задание, которое вполне может оказаться последним в его жизни.

Качество: WEB-DLRipФормат: AVIВидео кодек: XviDАудио кодек: AC3

Видео: XviD, 1616 Кбит/с, 720x304Аудио#1: AC3, 2 ch, 192 Кбит/с

Скачать Малыш на драйве через торрент http://img10.lostpic.net/2017/08/24/5fa8c302dbdf3f73c88aea144fdeebd6.jpg Скачать фильм Малыш на драйве через торрент бесплантно в хорошем качестве Описание: Молодой парень по прозвищу Малыш обожает стильную музыку, быструю езду и адреналин в крови. Вся его жизнь — это сплошные погони и ... 2017-09-14 18:54 9.5 10 33

Loading...

Loading...

% Раздел Тема Автор DL S | L
Фильмы 2017 [DVDrip, WEB-DLRip, HDrip] (DUB, MVO) [ 2.94 GB ] Малыш на драйве / Baby Driver [2017 BDRip-AVC] Dub sokol_ok Скачать
T Релизы по Парсеру [Фильмы, Игры, Сериалы и другое...] [ 42.77 GB ] Малыш на драйве / Baby Driver [2017 музыка Blu-ray disc ] DUB bober100 Скачать
Фильмы 2017 [DVDrip, WEB-DLRip, HDrip] (DUB, MVO) [ 760 MB ] Малыш на драйве / Baby Driver [2017 BDRip-AVC] Dub sokol_ok Скачать
Фильмы (Blu-ray, BD-Remux, HDDVD) [ 21.91 GB ] Малыш на драйве / Baby Driver [2017 музыка BD Remux 1080p] bober100 Скачать
Официальные cаундтреки к зарубежным фильмам [ 253 MB ] OST - Малыш на драйве / Baby Driver 2017 / MP3 / 320 kbps / Soundtrack bober100 Скачать
Фильмы [HD 720p, 1080p] (Хороший звук DUB, MVO) [ 9.21 GB ] Малыш на драйве / Baby Driver [2017 музыка BDRip 1080p] bober100 Скачать
Фильмы 2017 [DVDrip, WEB-DLRip, HDrip] (DUB, MVO) [ 2.03 GB ] Малыш на драйве / Baby Driver [2017 BDRip-AVC] R.G.Generalfilm White Smoke Скачать

Рекламный пират

04-10-2017 19:32 Малыш на драйве Скачать торрент  

Дорогой пользователь! Огромная просьба, поблагодарите релизера, оцените раздачу и оставьте свои комментарий, если Вы скачали Малыш на драйве через торрент бесплатно! Внесите свою лепту в развитие PiratBit!

Комментировать посты могут только пользователи прошедшие не сложную регистрацию

Малыш на драйве через торрент Скачать бесплатно Малыш на драйве Малыш на драйве скачать торрент Малыш на драйве смотреть онлайн Cкачать фильм Малыш на драйве бесплатно Малыш на драйве скачать торрент в хорошем качестве Малыш на драйве смотреть онлайн бесплатно в хорошем качестве

Вы можете начинать темыВы можете отвечать на сообщенияВы не можете редактировать свои сообщенияВы не можете удалять свои сообщенияВы не можете голосовать в опросахВы не можете прикреплять файлы к сообщениямВы можете скачивать файлы

Скачать фильм Малыш на драйве через торрент в хорошем качестве бесплатно BDRip-AVC

GeneralUnique ID : 227993427084351783940771500821825707466 (0xAB85EFD4632228BCBBBC58461A67DDCA)Complete name : D:\Baby.Driver.2017.D.BDRip.AVC.ExKinoRay.mkvFormat : MatroskaFormat version : Version 2File size : 2.60 GiBDuration : 1 h 52 minOverall bit rate : 3 307 kb/sMovie name : Baby Driver 2017 from ExKinoRayEncoded date : UTC 2017-10-05 01:38:38Writing application : mkvmerge v5.6.0 ('Kenya Kane') built on May 27 2012 16:44:04Writing library : libebml v1.2.3 + libmatroska v1.3.0

VideoID : 1Format : AVCFormat/Info : Advanced Video CodecFormat profile : [email protected] settings, CABAC : YesFormat settings, ReFrames : 12 framesCodec ID : V_MPEG4/ISO/AVCDuration : 1 h 52 minBit rate : 2 313 kb/sWidth : 1 024 pixelsHeight : 428 pixelsDisplay aspect ratio : 2.40:1Frame rate mode : ConstantFrame rate : 23.976 (23976/1000) FPSColor space : YUVChroma subsampling : 4:2:0Bit depth : 8 bitsScan type : ProgressiveBits/(Pixel*Frame) : 0.220Stream size : 1.77 GiB (68%)Title : EnigmaWriting library : x264 core 152 r2851 ba24899Encoding settings : cabac=1 / ref=12 / deblock=1:-2:-2 / analyse=0x3:0x113 / me=umh / subme=10 / psy=1 / psy_rd=1.05:0.10 / mixed_ref=1 / me_range=32 / chroma_me=1 / trellis=2 / 8x8dct=1 / cqm=0 / deadzone=21,11 / fast_pskip=1 / chroma_qp_offset=-3 / threads=12 / lookahead_threads=3 / sliced_threads=0 / nr=0 / decimate=0 / interlaced=0 / bluray_compat=0 / constrained_intra=0 / bframes=11 / b_pyramid=2 / b_adapt=2 / b_bias=0 / direct=3 / weightb=1 / open_gop=0 / weightp=2 / keyint=240 / keyint_min=23 / scenecut=40 / intra_refresh=0 / rc_lookahead=40 / rc=2pass / mbtree=0 / bitrate=2313 / ratetol=1.0 / qcomp=0.60 / qpmin=0 / qpmax=51 / qpstep=4 / cplxblur=20.0 / qblur=0.5 / vbv_maxrate=50000 / vbv_bufsize=62500 / nal_hrd=none / filler=0 / ip_ratio=1.40 / pb_ratio=1.30 / aq=1:1.00Language : EnglishDefault : YesForced : No

Audio #1ID : 2Format : AC-3Format/Info : Audio Coding 3Mode extension : CM (complete main)Format settings, Endianness : BigCodec ID : A_AC3Duration : 1 h 52 minBit rate mode : ConstantBit rate : 384 kb/sChannel(s) : 6 channelsChannel positions : Front: L C R, Side: L R, LFESampling rate : 48.0 kHzFrame rate : 31.250 FPS (1536 spf)Compression mode : LossyStream size : 309 MiB (12%)Title : Dub (iTunes)Language : RussianDefault : YesForced : No

Audio #2ID : 3Format : AC-3Format/Info : Audio Coding 3Mode extension : CM (complete main)Format settings, Endianness : BigCodec ID : A_AC3Duration : 1 h 52 minBit rate mode : ConstantBit rate : 160 kb/sChannel(s) : 2 channelsChannel positions : Front: L RSampling rate : 48.0 kHzFrame rate : 31.250 FPS (1536 spf)Compression mode : LossyStream size : 129 MiB (5%)Title : Dub (iTunes)Language : UkrainianDefault : NoForced : No

Audio #3ID : 4Format : AC-3Format/Info : Audio Coding 3Mode extension : CM (complete main)Format settings, Endianness : BigCodec ID : A_AC3Duration : 1 h 52 minBit rate mode : ConstantBit rate : 448 kb/sChannel(s) : 6 channelsChannel positions : Front: L C R, Side: L R, LFESampling rate : 48.0 kHzFrame rate : 31.250 FPS (1536 spf)Compression mode : LossyStream size : 361 MiB (14%)Language : EnglishDefault : NoForced : No

Text #1ID : 5Format : UTF-8Codec ID : S_TEXT/UTF8Codec ID/Info : UTF-8 Plain TextTitle : ForcedLanguage : RussianDefault : YesForced : No

Text #2ID : 6Format : UTF-8Codec ID : S_TEXT/UTF8Codec ID/Info : UTF-8 Plain TextTitle : ForcedLanguage : UkrainianDefault : NoForced : No

Text #3ID : 7Format : UTF-8Codec ID : S_TEXT/UTF8Codec ID/Info : UTF-8 Plain TextTitle : FullLanguage : RussianDefault : NoForced : No

Text #4ID : 8Format : UTF-8Codec ID : S_TEXT/UTF8Codec ID/Info : UTF-8 Plain TextTitle : FullLanguage : UkrainianDefault : NoForced : No

Text #5ID : 9Format : UTF-8Codec ID : S_TEXT/UTF8Codec ID/Info : UTF-8 Plain TextTitle : SDHLanguage : EnglishDefault : NoForced : No

Menu00:00:00.000 : en:Chapter 0100:09:11.050 : en:Chapter 0200:13:30.643 : en:Chapter 0300:20:58.173 : en:Chapter 0400:25:17.599 : en:Chapter 0500:33:07.527 : en:Chapter 0600:43:43.245 : en:Chapter 0700:48:15.392 : en:Chapter 0800:53:39.549 : en:Chapter 0900:58:51.528 : en:Chapter 1001:05:23.544 : en:Chapter 1101:11:33.747 : en:Chapter 1201:19:17.377 : en:Chapter 1301:30:30.675 : en:Chapter 1401:38:04.169 : en:Chapter 1501:43:30.412 : en:Chapter 16

piratbit.ru


Смотрите также