Скачать константин повелитель тьмы через торрент в хорошем качестве


Повелитель тьмы через торрент в хорошем качестве бесплатно 720p

ОбщееУникальный идентификатор : 208734656487913089014101098136060692186 (0x9D08D52116BDC2E59C714F1E2D7206DA)Полное имя : D:\ Constantine.(2005).BDRip.720p.( 60 Fps ).mkvФормат : MatroskaВерсия формата : Version 4 / Version 2Размер файла : 5,38 ГбайтПродолжительность : 2 ч. 0 м.Общий поток : 6380 Кбит/секНазвание фильма : Константин: Повелитель тьмы / Constantine (2005) BDRip 720p ( 60 Fps )Дата кодирования : UTC 2015-04-10 14:35:17Программа кодирования : mkvmerge v6.2.0 ('Promised Land') built on Apr 28 2013 12:22:01Библиотека кодирования : libebml v1.3.0 + libmatroska v1.4.0

ВидеоИдентификатор : 1Формат : AVCФормат/Информация : Advanced Video CodecПрофиль формата : [email protected]Параметр CABAC формата : ДаПараметр ReFrames формата : 4 кадраИдентификатор кодека : V_MPEG4/ISO/AVCПродолжительность : 2 ч. 0 м.Битрейт : 5614 Кбит/секШирина : 1280 пикселейВысота : 528 пикселейСоотношение сторон : 2,40:1Режим частоты кадров : ПостоянныйЧастота кадров : 59,880 кадров/секЧастота кадров в оригинале : 59,940 кадров/секЦветовое пространство : YUVСубдискретизация насыщенности : 4:2:0Битовая глубина : 8 битТип развёртки : ПрогрессивнаяБит/(Пиксели*Кадры) : 0.139Размер потока : 4,63 Гбайт (86%)Заголовок : Constantine (2005) BDRip 720p ( 60 Fps ).mkvБиблиотека кодирования : x264 core 130 r2273 b3065e6Настройки программы : cabac=1 / ref=4 / deblock=1:-1:-1 / analyse=0x3:0x113 / me=umh / subme=7 / psy=1 / psy_rd=1.00:0.00 / mixed_ref=1 / me_range=24 / chroma_me=1 / trellis=2 / 8x8dct=1 / cqm=0 / deadzone=21,11 / fast_pskip=1 / chroma_qp_offset=-2 / threads=3 / lookahead_threads=1 / sliced_threads=0 / nr=0 / decimate=1 / interlaced=0 / bluray_compat=0 / constrained_intra=0 / bframes=4 / b_pyramid=2 / b_adapt=2 / b_bias=0 / direct=3 / weightb=1 / open_gop=0 / weightp=2 / keyint=250 / keyint_min=25 / scenecut=40 / intra_refresh=0 / rc_lookahead=50 / rc=2pass / mbtree=1 / bitrate=5614 / ratetol=1.0 / qcomp=0.60 / qpmin=0 / qpmax=69 / qpstep=4 / cplxblur=20.0 / qblur=0.5 / ip_ratio=1.40 / aq=1:1.00Язык : EnglishDefault : НетForced : Нет

Аудио #1Идентификатор : 2Формат : AC-3Формат/Информация : Audio Coding 3Расширение режима : CM (complete main)Параметр Endianness формата : BigИдентификатор кодека : A_AC3Продолжительность : 2 ч. 0 м.Вид битрейта : ПостоянныйБитрейт : 384 Кбит/секКаналы : 6 каналовРасположение каналов : Front: L C R, Side: L R, LFEЧастота : 48,0 КГцБитовая глубина : 16 битМетод сжатия : С потерямиРазмер потока : 332 Мбайт (6%)Заголовок : DubЯзык : RussianDefault : ДаForced : Нет

Аудио #2Идентификатор : 3Формат : AC-3Формат/Информация : Audio Coding 3Расширение режима : CM (complete main)Параметр Endianness формата : BigИдентификатор кодека : A_AC3Продолжительность : 2 ч. 0 м.Вид битрейта : ПостоянныйБитрейт : 384 Кбит/секКаналы : 6 каналовРасположение каналов : Front: L C R, Side: L R, LFEЧастота : 48,0 КГцБитовая глубина : 16 битМетод сжатия : С потерямиРазмер потока : 332 Мбайт (6%)Заголовок : OriginalЯзык : EnglishDefault : НетForced : Нет

piratbit.ru

Повелитель тьмы через торрент в хорошем качестве бесплатно 720p

GeneralUnique ID                                : 179947161843595794115703421336076909171 (0x8760900FBE0460B59F244BC089777A73)Complete name                            : H:\Constantin.povelitel.tmi.2005.x264.BDRip_HDClub.mkvFormat                                   : MatroskaFormat version                           : Version 1File size                                : 8.85 GiBDuration                                 : 2h 0mnOverall bit rate mode                    : VariableOverall bit rate                         : 10.5 MbpsMovie name                               : Constantine (2005) - Release for HDClubEncoded date                             : UTC 2009-05-17 16:27:52Writing application                      : mkvmerge v2.1.0 ('Another Place To Fall') built on Aug 19 2007 13:40:07Writing library                          : libebml v0.7.7 + libmatroska v0.8.1

VideoID                                       : 1Format                                   : AVCFormat/Info                              : Advanced Video CodecFormat profile                           : [email protected] settings, CABAC                   : YesFormat settings, ReFrames                : 5 framesCodec ID                                 : V_MPEG4/ISO/AVCDuration                                 : 2h 0mnBit rate                                 : 6 050 KbpsWidth                                    : 1 280 pixelsHeight                                   : 528 pixelsDisplay aspect ratio                     : 2.40:1Frame rate                               : 23.976 fpsColor space                              : YUVChroma subsampling                       : 4:2:0Bit depth                                : 8 bitsScan type                                : ProgressiveBits/(Pixel*Frame)                       : 0.373Stream size                              : 4.92 GiB (56%)Title                                    : Release for HDClubWriting library                          : x264 core 65 r999M cc51047Encoding settings                        : cabac=1 / ref=5 / deblock=1:-3:-3 / analyse=0x3:0x133 / me=umh / subme=8 / psy_rd=1.0:0.0 / mixed_ref=1 / me_range=48 / chroma_me=1 / trellis=2 / 8x8dct=1 / cqm=0 / deadzone=21,11 / chroma_qp_offset=-2 / threads=6 / nr=0 / decimate=1 / mbaff=0 / bframes=16 / b_pyramid=1 / b_adapt=1 / b_bias=0 / direct=3 / wpredb=1 / keyint=250 / keyint_min=25 / scenecut=40(pre) / rc=2pass / bitrate=6050 / ratetol=1.0 / qcomp=0.60 / qpmin=10 / qpmax=51 / qpstep=4 / cplxblur=20.0 / qblur=0.5 / ip_ratio=1.40 / pb_ratio=1.30 / aq=1:1.00Language                                 : EnglishDefault                                  : YesForced                                   : No

Audio #1ID                                       : 2Format                                   : AC-3Format/Info                              : Audio Coding 3Mode extension                           : CM (complete main)Codec ID                                 : A_AC3Duration                                 : 2h 0mnBit rate mode                            : ConstantBit rate                                 : 640 KbpsChannel(s)                               : 6 channelsChannel positions                        : Front: L C R, Side: L R, LFESampling rate                            : 48.0 KHzBit depth                                : 16 bitsCompression mode                         : LossyStream size                              : 553 MiB (6%)Title                                    : AC3 5.1 @ 640 ДубляжLanguage                                 : RussianDefault                                  : YesForced                                   : No

Audio #2ID                                       : 3Format                                   : AC-3Format/Info                              : Audio Coding 3Mode extension                           : CM (complete main)Codec ID                                 : A_AC3Duration                                 : 2h 0mnBit rate mode                            : ConstantBit rate                                 : 256 KbpsChannel(s)                               : 2 channelsChannel positions                        : Front: L RSampling rate                            : 48.0 KHzBit depth                                : 16 bitsCompression mode                         : LossyStream size                              : 221 MiB (2%)Title                                    : AC3 2.0 @ 256 Многоголосый закадровыйLanguage                                 : UkrainianDefault                                  : NoForced                                   : No

Audio #3ID                                       : 4Format                                   : AC-3Format/Info                              : Audio Coding 3Mode extension                           : CM (complete main)Codec ID                                 : A_AC3Duration                                 : 2h 0mnBit rate mode                            : ConstantBit rate                                 : 448 KbpsChannel(s)                               : 6 channelsChannel positions                        : Front: L C R, Side: L R, LFESampling rate                            : 48.0 KHzBit depth                                : 16 bitsCompression mode                         : LossyStream size                              : 387 MiB (4%)Title                                    : AC3 5.1 @ 448 Двухголосый закадровый - TycoonLanguage                                 : RussianDefault                                  : NoForced                                   : No

Audio #4ID                                       : 5Format                                   : DTSFormat/Info                              : Digital Theater SystemsCodec ID                                 : A_DTSDuration                                 : 2h 0mnBit rate mode                            : ConstantBit rate                                 : 755 KbpsChannel(s)                               : 6 channelsChannel positions                        : Front: L C R, Side: L R, LFESampling rate                            : 48.0 KHzBit depth                                : 24 bitsCompression mode                         : LossyStream size                              : 652 MiB (7%)Title                                    : DTS 5.1 @ 768 Многоголосый закадровый - СуперБитLanguage                                 : RussianDefault                                  : NoForced                                   : No

Audio #5ID                                       : 6Format                                   : DTSFormat/Info                              : Digital Theater SystemsCodec ID                                 : A_DTSDuration                                 : 2h 0mnBit rate mode                            : ConstantBit rate                                 : 755 KbpsChannel(s)                               : 6 channelsChannel positions                        : Front: L C R, Side: L R, LFESampling rate                            : 48.0 KHzBit depth                                : 24 bitsCompression mode                         : LossyStream size                              : 652 MiB (7%)Title                                    : DTS 5.1 @ 768 Одноголосый закадровый - ГавриловLanguage                                 : RussianDefault                                  : NoForced                                   : No

Audio #6ID                                       : 7Format                                   : DTSFormat/Info                              : Digital Theater SystemsCodec ID                                 : A_DTSDuration                                 : 2h 0mnBit rate mode                            : ConstantBit rate                                 : 1 510 KbpsChannel(s)                               : 6 channelsChannel positions                        : Front: L C R, Side: L R, LFESampling rate                            : 48.0 KHzBit depth                                : 24 bitsCompression mode                         : LossyStream size                              : 1.27 GiB (14%)Title                                    : DTS 5.1 @ 1536Language                                 : EnglishDefault                                  : NoForced                                   : No

Audio #7ID                                       : 8Format                                   : VorbisFormat settings, Floor                   : 1Codec ID                                 : A_VORBISDuration                                 : 2h 0mnBit rate mode                            : VariableBit rate                                 : 86.0 KbpsChannel(s)                               : 1 channelSampling rate                            : 44.1 KHzCompression mode                         : LossyStream size                              : 74.3 MiB (1%)Title                                    : Vorbis 1.0 @ 86 CommentaryWriting library                          : libVorbis 1.0 (UTC 2002-07-17)Language                                 : EnglishDefault                                  : NoForced                                   : No

Text #1ID                                       : 9Format                                   : UTF-8Codec ID                                 : S_TEXT/UTF8Codec ID/Info                            : UTF-8 Plain TextLanguage                                 : RussianDefault                                  : NoForced                                   : No

Text #2ID                                       : 10Format                                   : UTF-8Codec ID                                 : S_TEXT/UTF8Codec ID/Info                            : UTF-8 Plain TextLanguage                                 : EnglishDefault                                  : NoForced                                   : No

Text #3ID                                       : 11Format                                   : UTF-8Codec ID                                 : S_TEXT/UTF8Codec ID/Info                            : UTF-8 Plain TextLanguage                                 : PolishDefault                                  : NoForced                                   : No

Text #4ID                                       : 12Format                                   : UTF-8Codec ID                                 : S_TEXT/UTF8Codec ID/Info                            : UTF-8 Plain TextLanguage                                 : CzechDefault                                  : NoForced                                   : No

Text #5ID                                       : 13Format                                   : UTF-8Codec ID                                 : S_TEXT/UTF8Codec ID/Info                            : UTF-8 Plain TextLanguage                                 : GermanDefault                                  : NoForced                                   : No

Text #6ID                                       : 14Format                                   : UTF-8Codec ID                                 : S_TEXT/UTF8Codec ID/Info                            : UTF-8 Plain TextLanguage                                 : FinnishDefault                                  : NoForced                                   : No

Text #7ID                                       : 15Format                                   : UTF-8Codec ID                                 : S_TEXT/UTF8Codec ID/Info                            : UTF-8 Plain TextLanguage                                 : GreekDefault                                  : NoForced                                   : No

Text #8ID                                       : 16Format                                   : UTF-8Codec ID                                 : S_TEXT/UTF8Codec ID/Info                            : UTF-8 Plain TextLanguage                                 : HungarianDefault                                  : NoForced                                   : No

Text #9ID                                       : 17Format                                   : UTF-8Codec ID                                 : S_TEXT/UTF8Codec ID/Info                            : UTF-8 Plain TextLanguage                                 : ChineseDefault                                  : NoForced                                   : No

Text #10ID                                       : 18Format                                   : UTF-8Codec ID                                 : S_TEXT/UTF8Codec ID/Info                            : UTF-8 Plain TextLanguage                                 : SpanishDefault                                  : NoForced                                   : No

Text #11ID                                       : 19Format                                   : UTF-8Codec ID                                 : S_TEXT/UTF8Codec ID/Info                            : UTF-8 Plain TextLanguage                                 : SwedishDefault                                  : NoForced                                   : No

piratbit.ru

rutor.org :: Константин: Повелитель тьмы / Constantine (2005) BDRip 720p от HQ-ViDEO

main-rutor.org

Константин: Повелитель тьмы / Constantine (2005) BDRip 720pРелиз от HQ-ViDEO

Информация о фильмеНазвание: Константин: Повелитель тьмыОригинальное название: ConstantineГод выхода: 2005Жанр: ужасы, фэнтези, драмаРежиссер: Френсис Лоуренс /Francis Lawrence/В ролях: Киану Ривз /Keanu Reeves/, Рейчел Вайс /Rachel Weisz/, Шайа ЛаБаф /Shia LaBeouf/, Джимон Хунсу /Djimon Hounsou/, Макс Бейкер /Max Baker/, Прюитт Тэйлор Винс /Pruitt Taylor Vince/, Гэвин Россдэйл /Gavin Rossdale/, Тильда Суинтон /Tilda Swinton/, Петер Стормаре /Peter Stormare/, Джесси Рамирез /Jesse Ramirez/, Хосе Суньига /Jose Zuniga/...

О фильме: Джону Константину удалось не только побывать в аду, но и вернуться обратно. Родившись с неугодным самому себе талантом — способностью распознавать помесь ангелов и демонов, которые бродят по земле в облике людей, — Константин под давлением обстоятельств пытается совершить самоубийство, лишь бы избавиться от мучительных видений. Но неудачно. Воскрешенный против собственной воли он снова оказывается в мире живых. Теперь, отмеченный печатью суицида и получивший временное право на жизнь, он патрулирует границу, разделяющую рай и ад, тщетно надеясь на обретение спасения путем сражения с земными ставленниками зла.

Страна: США, ГерманияПродолжительность: 02:00:47Перевод: Русский дублированный + Оригинальная, английская дорожка (Отдельно)

ФайлКодек: MKV, H.264Качество: BDRip 720p (Source: Blu-ray Disc)Видео: 4535 kbps; 0.274 bit/pixel; 1280 x 528; 2.35:1; 23.976 fpsЗвук #1: AC3 Dolby Digital; 640.00 kbps, 6 Ch - MVOЗвук #2: AC3 Dolby Digital; 640.00 kbps, 6 Ch - ENG (отдельно / скачать с Яндекс Диск)Субтитры: Русские, Английские.Субтитры: Русские (3 вида), Английские (полные, SDH). (Отдельно)Размер: 4.37 GB

SAMPLE / скачать с Яндекс Диск

MediaInfo

Полное имя Konstantin.Povelitel.Tmy.2005.RUS.BDRip.720p.h364.AC3.-HQ-ViDEO.mkv Формат : Matroska Версия формата : Version 2 Размер файла : 4,37 Гбайт Продолжительность : 2 ч. 0 м. Режим общего битрейта : Переменный Общий поток : 5176 Кбит/сек Название фильма : Constantine (2004) Дата кодирования : UTC 2016-02-01 10:01:05 Программа кодирования : mkvmerge v5.7.0 ('The Whirlwind') built on Jul 8 2012 20:08:51 Библиотека кодирования : libebml v1.2.3 + libmatroska v1.3.0

Видео Идентификатор : 1 Формат : AVC Формат/Информация : Advanced Video Codec Профиль формата : [email protected] Параметр CABAC формата : Да Параметр ReFrames формата : 6 кадров Режим смешивания : Header stripping Идентификатор кодека : V_MPEG4/ISO/AVC Продолжительность : 2 ч. 0 м. Вид битрейта : Переменный Битрейт : 4433 Кбит/сек Максимальный битрейт : 4535 Кбит/сек Ширина : 1280 пикселей Высота : 528 пикселей Соотношение сторон : 2,40:1 Режим частоты кадров : Постоянный Частота кадров : 23,976 кадра/сек Цветовое пространство : YUV Субдискретизация насыщенности : 4:2:0 Битовая глубина : 8 бит Тип развёртки : Прогрессивная Бит/(Пиксели*Кадры) : 0.274 Размер потока : 3,74 Гбайт (86%) Заголовок : Encoded by GYN Default : Да Forced : Нет

Аудио Идентификатор : 2 Формат : AC-3 Формат/Информация : Audio Coding 3 Расширение режима : CM (complete main) Параметр Endianness формата : Big Режим смешивания : Header stripping Идентификатор кодека : A_AC3 Продолжительность : 2 ч. 0 м. Вид битрейта : Постоянный Битрейт : 640 Кбит/сек Каналы : 6 каналов Расположение каналов : Front: L C R, Side: L R, LFE Частота : 48,0 КГц Метод сжатия : С потерями Размер потока : 553 Мбайт (12%) Заголовок : DUB Язык : Russian Default : Да Forced : Нет

Текст #1 Идентификатор : 3 Формат : UTF-8 Идентификатор кодека : S_TEXT/UTF8 Идентификатор кодека/Информация : UTF-8 Plain Text Язык : Russian Default : Нет Forced : Нет

Текст #2 Идентификатор : 4 Формат : UTF-8 Идентификатор кодека : S_TEXT/UTF8 Идентификатор кодека/Информация : UTF-8 Plain Text Язык : English Default : Нет Forced : Нет

Меню 00:00:00.000 : en:Chapter 00 00:02:48.251 : en:Chapter 01 00:06:43.486 : en:Chapter 02 00:10:33.382 : en:Chapter 03 00:14:21.610 : en:Chapter 04 00:17:59.995 : en:Chapter 05 00:20:31.480 : en:Chapter 06 00:24:31.553 : en:Chapter 07 00:27:22.724 : en:Chapter 08 00:29:42.363 : en:Chapter 09 00:34:22.143 : en:Chapter 10 00:37:36.170 : en:Chapter 11 00:41:18.726 : en:Chapter 12 00:46:50.057 : en:Chapter 13 00:50:29.443 : en:Chapter 14 00:53:33.960 : en:Chapter 15 00:58:03.563 : en:Chapter 16 01:01:25.264 : en:Chapter 17 01:04:32.618 : en:Chapter 18 01:09:17.736 : en:Chapter 19 01:12:24.423 : en:Chapter 20 01:16:06.311 : en:Chapter 21 01:18:30.622 : en:Chapter 22 01:22:36.868 : en:Chapter 23 01:25:50.895 : en:Chapter 24 01:29:52.136 : en:Chapter 25 01:34:06.057 : en:Chapter 26 01:37:08.072 : en:Chapter 27 01:39:59.243 : en:Chapter 28 01:42:57.754 : en:Chapter 29 01:45:03.714 : en:Chapter 30 01:48:28.084 : en:Chapter 31 01:51:29.599 : en:Chapter 32 01:53:52.909 : en:Chapter 33

Релиз от: HQ-ViDEOАвтор рипа: GYN

Повелитель тьмы через торрент в хорошем качестве бесплатно 1080p

GeneralUnique ID : 252645661492407880847354047758933774284 (0xBE11C8D399DAD3B498AF2DC5C9A14FCC)Complete name : C:\Фильмы и мульты\Konstantin.(2005).BDRip.1080p.[envy].[60fps].mkvFormat : MatroskaFormat version : Version 2File size : 13.1 GiBDuration : 2h 0mnOverall bit rate : 15.5 MbpsMovie name : Константин: Повелитель тьмы.(2005).BDRip.1080p.[envy].[60fps]Encoded date : UTC 2014-02-21 05:23:51Writing application : mkvmerge v5.8.0 ('No Sleep / Pillow') built on Sep 2 2012 15:37:04Writing library : libebml v1.2.3 + libmatroska v1.3.0

VideoID : 1Format : AVCFormat/Info : Advanced Video CodecFormat profile : [email protected] settings, CABAC : YesFormat settings, ReFrames : 5 framesCodec ID : V_MPEG4/ISO/AVCDuration : 2h 0mnBit rate : 14.3 MbpsWidth : 1 920 pixelsHeight : 794 pixelsDisplay aspect ratio : 2.40:1Frame rate mode : ConstantFrame rate : 59.940 fpsColor space : YUVChroma subsampling : 4:2:0Bit depth : 8 bitsScan type : ProgressiveBits/(Pixel*Frame) : 0.156Stream size : 11.7 GiB (90%)Title : Константин: Повелитель тьмы.(2005).BDRip.1080p.[envy].[60fps]Writing library : x264 core 140 r2377 1ca7bb9Encoding settings : cabac=1 / ref=5 / deblock=1:-3:-3 / analyse=0x3:0x133 / me=umh / subme=11 / psy=1 / psy_rd=1.00:0.00 / mixed_ref=1 / me_range=32 / chroma_me=1 / trellis=2 / 8x8dct=1 / cqm=0 / deadzone=21,11 / fast_pskip=0 / chroma_qp_offset=-2 / threads=12 / lookahead_threads=1 / sliced_threads=0 / nr=0 / decimate=1 / interlaced=0 / bluray_compat=0 / constrained_intra=0 / bframes=5 / b_pyramid=2 / b_adapt=2 / b_bias=0 / direct=3 / weightb=1 / open_gop=0 / weightp=2 / keyint=250 / keyint_min=25 / scenecut=40 / intra_refresh=0 / rc=2pass / mbtree=0 / bitrate=14254 / ratetol=2.0 / qcomp=0.60 / qpmin=0 / qpmax=69 / qpstep=4 / cplxblur=20.0 / qblur=0.5 / ip_ratio=1.40 / pb_ratio=1.30 / aq=1:0.80Language : EnglishDefault : YesForced : No

Audio #1ID : 2Format : AC-3Format/Info : Audio Coding 3Mode extension : CM (complete main)Format settings, Endianness : BigCodec ID : A_AC3Duration : 2h 0mnBit rate mode : ConstantBit rate : 640 KbpsChannel(s) : 6 channelsChannel positions : Front: L C R, Side: L R, LFESampling rate : 48.0 KHzBit depth : 16 bitsCompression mode : LossyStream size : 553 MiB (4%)Title : DubLanguage : RussianDefault : YesForced : No

Audio #2ID : 3Format : AC-3Format/Info : Audio Coding 3Mode extension : CM (complete main)Format settings, Endianness : BigCodec ID : A_AC3Duration : 2h 0mnBit rate mode : ConstantBit rate : 640 KbpsChannel(s) : 6 channelsChannel positions : Front: L C R, Side: L R, LFESampling rate : 48.0 KHzBit depth : 16 bitsCompression mode : LossyStream size : 553 MiB (4%)Title : EngLanguage : EnglishDefault : NoForced : No

Text #1ID : 4Format : UTF-8Codec ID : S_TEXT/UTF8Codec ID/Info : UTF-8 Plain TextTitle : rus fullLanguage : RussianDefault : NoForced : No

Text #2ID : 5Format : UTF-8Codec ID : S_TEXT/UTF8Codec ID/Info : UTF-8 Plain TextTitle : eng fullLanguage : EnglishDefault : NoForced : No

Menu00:00:00.000 : :Chapter 0100:05:00.000 : :Chapter 0200:10:00.000 : :Chapter 0300:15:00.000 : :Chapter 0400:20:00.000 : :Chapter 0500:25:00.000 : :Chapter 0600:30:00.000 : :Chapter 0700:35:00.000 : :Chapter 0800:40:00.000 : :Chapter 0900:45:00.000 : :Chapter 1000:50:00.000 : :Chapter 1100:55:00.000 : :Chapter 1201:00:00.000 : :Chapter 1301:05:00.000 : :Chapter 1401:10:00.000 : :Chapter 1501:15:00.000 : :Chapter 1601:20:00.000 : :Chapter 1701:25:00.000 : :Chapter 1801:30:00.000 : :Chapter 1901:35:00.000 : :Chapter 2001:40:00.000 : :Chapter 2101:45:00.000 : :Chapter 2201:50:00.000 : :Chapter 2301:55:00.000 : :Chapter 2402:00:00.000 : :Chapter 25

piratbit.ru


Смотрите также