Скачать кловерфилд 10 через торрент бесплатно в хорошем качестве


Фильм Кловерфилд, 10 2016 смотреть онлайн полностью в хорошем HD 720, 1080 качестве и скачать бесплатно

КачествоПереводРазмер файлаДата добавленияСкачано (раз)Сидеры / ЛичерыКак скачать?DVD9 ПодробнееПроф. (полное дублирование)7.81 GB01 Окт 163

▲ 2▼ 0

BDRip ПодробнееПроф. (полное дублирование)2.72 GB01 Сен 168

▲ 52▼ 3

Файл: Кловерфилд, 10 - 10 Cloverfield Lane (2016) BDRip HEVC 720p | Лицензия.torrentПродолжительность: 01:44Видео: 1280x536, 23,976 fps, HEVC, ~2857 kbpsЗвук:Аудио 1: Rus, 48 kHz/16-bit, AC3 5.1, ~448 kbps | ДубляжАудио 2: Eng, 48 kHz/16-bit, AC3 5.1, ~448 kbps | ОригиналПеревод: Дублированный [Лицензия]Субтитры: Русские, АнглийскиеHDRip ПодробнееПроф. (полное дублирование)491.40 MB16 Июл 1610

▲ 5▼ 0

BDRip ПодробнееПроф. (полное дублирование)7.74 GB11 Июл 160

▲ 34▼ 4

Файл: Кловерфилд, 10 - 10 Cloverfield Lane (2016) BDRip 1080p от NNNB | Лицензия.torrentПродолжительность: 01:44Видео: 1920x800, 9441 Кбит/сек, 23,976 кадр/сек, AVC, x264, [email protected], 2.40:1, 0.256 Бит/[Пиксели*Кадры]Звук:Аудио 1: AC-3, 640 Кбит/сек, 6 канала(ов), 48,0 КГц - Дублированный / РусскийАудио 2: AC-3, 640 Кбит/сек, 6 канала(ов), 48,0 КГц - Оригинал / АнглийскийПеревод: ДублированныйСубтитры: Английские | ПолныеBDRip ПодробнееПроф. (полное дублирование)2.18 GB10 Июл 168

▲ 24▼ 3

Файл: Кловерфилд, 10 - 10 Cloverfield Lane (2016) BDRip от HQCLUB | D | Лицензия.torrentПродолжительность: 01:44Видео: 720x304 (2.37:1), 23.976 fps, XviD build 65 ~2113 kbps avg, 0.40 bit/pixelЗвук:Аудио #1: 48 kHz, AC3 Dolby Digital, 3/2 (L,C,R,l,r) + LFE ch, ~448 kbps avg (RUS)Аудио #2: 48 kHz, AC3 Dolby Digital, 3/2 (L,C,R,l,r) + LFE ch, ~448 kbps avg (ENG)Аудио #3: 48 kHz, AC3 Dolby Digital, 3/2 (L,C,R,l,r) + LFE ch, ~448 kbps avg (UKR) (отдельно)Перевод: Профессиональный (полное дублирование) CEE + Оригинал (английский)Субтитры: русские, английские (обычные - 2 вида, SDH, SDH-Colored), украинские (спасибо Elheym)HDRip ПодробнееПроф. (полное дублирование)746.86 MB09 Июл 164

▲ 12▼ 0

Blu-Ray ПодробнееПроф. (полное дублирование)37.21 GB08 Июл 161

▲ 0▼ 0

Файл: Кловерфилд, 10 - 10 Cloverfield Lane (2016) Blu-Ray CEE | лицензия.torrentПродолжительность: 01:44Видео: 25673 Кbps, 1920x1080, 23.976 fpsЗвук:Аудио 1: Dolby TrueHD 8 ch, 48.0 KHz, 4614 Кbps (английский)Аудио 2: Dolby Digital 6 ch, 48.0 KHz, 640 Кbps (русский, украинский, чешский, польский, тайский)Аудио 3: Dolby Digital 2 ch, 48.0 KHz, 224 Кbps (английский)Перевод: полное дублированиеСубтитры: русские, украинские, английские, арабские, малазийские, китайские, чешские, греческие, эстонские, иврит, хинди, исландские, корейские, венгерские, латышские, литовские, польские, португальские, румынские, словацкие, тайскиеBDRip ПодробнееПроф. (полное дублирование)9.97 GB08 Июл 163

▲ 45▼ 5

Файл: Кловерфилд, 10 - 10 Cloverfield Lane (2016) BDRip 1080p от ExKinoRay | Лицензия.torrentПродолжительность: 01:44Видео: 1920x800, 12.5 Mbit/s, 23.976 fpsЗвук:Аудио #01: 48 kHz, AC3, 5.1, 640 Kbps | Дублированный, лицензия Blu-Ray CEE |AC3Аудио #02: 48 kHz, AC3, 5.1, 640 kbps | Оригинал |AC3Перевод: Дублированный | Лицензия Blu-Ray CEEСубтитры: Русские, английскиеBDRip ПодробнееПроф. (полное дублирование)7.47 GB08 Июл 160

▲ 8▼ 0

Файл: Кловерфилд, 10 - 10 Cloverfield Lane (2016) BDRip 720p от ExKinoRay | Лицензия.torrentПродолжительность: 01:44Видео: 1280x534, 9052 Kbit/s, 23.976 fpsЗвук:Аудио #01: 48 kHz, AC3, 5.1, 640 Kbps | Дублированный, лицензия Blu-Ray CEE |AC3Аудио #02: 48 kHz, AC3, 5.1, 640 kbps | Оригинал |AC3Перевод: Дублированный | Лицензия Blu-Ray CEEСубтитры: Русские, английскиеBDRip ПодробнееПроф. (полное дублирование)10.03 GB08 Июл 162

▲ 10▼ 0

Файл: Кловерфилд, 10 - 10 Cloverfield Lane (2016) BDRip 1080p | Лицензия.torrentПродолжительность: 01:44Видео: 1920x800 at 23.976 fps, [email protected], ~12300 kbps avgЗвук:Aудио#1: Russian: 48 kHz, AC3, 3/2 (L,C,R,l,r) + LFE ch, ~640 kbps avg |Дубляж, Blu-ray EUR|Aудио#2: English: 48 kHz, AC3, 3/2 (L,C,R,l,r) + LFE ch, ~640 kbps avgПеревод: Профессиональный (дублированный) Blu-ray EURСубтитры: Russian, EnglishHDRip ПодробнееПроф. (полное дублирование)744.96 MB08 Июл 160

▲ 6▼ 0

BDRip ПодробнееПроф. (полное дублирование)2.24 GB28 Июн 160

▲ 36▼ 2

Файл: Кловерфилд, 10 - 10 Cloverfield Lane (2016) BDRip-AVC | iTunes.torrentПродолжительность: 01:44Видео: AVC, 1024x426 (2.40:1), 2270 kbps, 23,976 fps, 0,217 bppЗвук:Аудио №1: русский / AC3 / 5.1 / 48 kHz / 384 kbps / 16 bitАудио №2: английский / AC3 / 5.1 / 48 kHz / 448 kbps / 16 bitПеревод: Дубляж - [iTunes]Субтитры: русские (FULL), английские (FULL), английские (SDH)BDRip ПодробнееПроф. (полное дублирование)5.79 GB01 Сен 160

▲ 25▼ 5

Файл: Кловерфилд, 10 - 10 Cloverfield Lane (2016) BDRip HEVC 1080p | Лицензия.torrentПродолжительность: 01:44Видео: 1920x800, 23,976 fps, HEVC, ~6718 kbpsЗвук:Аудио 1: Rus, 48 kHz/16-bit, AC3 5.1, ~640 kbps | ДубляжАудио 2: Eng, 48 kHz/16-bit, AC3 5.1, ~640 kbps | ОригиналПеревод: Дублированный [Лицензия]Субтитры: Русские, АнглийскиеBDRip ПодробнееПроф. (полное дублирование)1.46 GB12 Авг 160

▲ 26▼ 5

BDRip ПодробнееПроф. (полное дублирование)745.18 MB16 Июл 160

▲ 8▼ 3

Файл: Кловерфилд, 10 - 10 Cloverfield Lane (2016) BDRip-AVC от New-Team | Лицензия.torrentПродолжительность: 01:44Видео: 941 Кбит/сек, 816x340 (2.40:1), 23,976 кадр/сек, AVCЗвук:Аудио: русский, 64,0 Кбит/сек, 48,0 КГц / 24,0 КГц, 2 канала, AAC (HE-AAC / LC)Перевод: Профессиональный (полное дублирование) [Blu-ray CEE]Субтитры: русские (форсированные), украинские (форсированные)BDRipНе указан4.37 GB10 Июл 160

▲ 11▼ 0

HDRip ПодробнееПроф. (полное дублирование)1.45 GB10 Июл 160

▲ 34▼ 5

Файл: Кловерфилд, 10 - 10 Cloverfield Lane (2016) HDRip от Scarabey | Лицензия.torrentПродолжительность: 01:44Видео: 720x304 (2.37:1), 23.976 fps, XviD build 73 ~1630 kbps avg, 0.31 bit/pixelЗвук:Аудио: 48 kHz, AC3 Dolby Digital, 3/2 (L,C,R,l,r) + LFE ch, ~448 kbpsПеревод: Профессиональный (полное дублирование) [Лицензия]BDRip ПодробнееПроф. (полное дублирование)1.46 GB08 Июл 160

▲ 430▼ 9

Файл: Кловерфилд, 10 - 10 Cloverfield Lane (2016) BDRip от ExKinoRay | Лицензия.torrentПродолжительность: 01:44Видео: 720x304 (2.37:1), 23.976 fps, XviD build 73 ~1562 kbps avg, 0.30 bit/pixelЗвук:Аудио: 48 kHz, AC3 Dolby Digital, 3/2 (L,C,R,l,r) + LFE ch, ~448 kbpsПеревод: Профессиональный (полное дублирование) [Лицензия]Субтитры: НетBDRip ПодробнееПроф. (полное дублирование)2.18 GB08 Июл 160

▲ 114▼ 8

Файл: Кловерфилд, 10 - 10 Cloverfield Lane (2016) BDRip-AVC от HELLYWOOD | Лицензия.torrentПродолжительность: 01:44Видео: 1152х480 (2,40:1), 23,976 fps, MPEG-4 AVC ~2117 kbps avg, 0.160 bit/pixelЗвук:Аудио: 48 kHz, AC3, 6 ch, ~448.00 kbps avg | русский | Профессиональный (полное дублирование)[BD CEE]Аудио: 48 kHz, AC3, 6 ch, ~448.00 kbps avg | английский | ОригиналПеревод: Профессиональный (полное дублирование)[BD CEE]Субтитры: Русские (полные (х2) + форс.), украинские (полные + форс.), английские (Full + SDH + SDH-Colored)BDRip ПодробнееПроф. (полное дублирование)1.46 GB08 Июл 160

▲ 7▼ 0

Файл: Кловерфилд, 10 - 10 Cloverfield Lane (2016) BDRip-AVC от HELLYWOOD | Лицензия.torrentПродолжительность: 01:44Видео: 1032х430 (2,40:1), 23,976 fps, MPEG-4 AVC ~1570 kbps avg, 0.148 bit/pixelЗвук:Аудио: 48 kHz, AC3, 6 ch, ~448.00 kbps avg | русский | Профессиональный (полное дублирование)[BD CEE]Перевод: Профессиональный (полное дублирование)[BD CEE]Субтитры: Русские (полные (х2) + форс.)BDRemux ПодробнееПроф. (полное дублирование)22.23 GB08 Июл 160

▲ 3▼ 4

Файл: Кловерфилд, 10 - 10 Cloverfield Lane (2016) BDRemux 1080p от ExKinoRay | Лицензия.torrentПродолжительность: 01:44Видео: 1920x1080, 25.4 Mbit/s, 23.976 fpsЗвук:Аудио #01: 48 kHz, AC3, 5.1, 640 Kbps | Дублированный, лицензия Blu-Ray CEE|AC3Аудио #02: 48 kHz, TrueHD, 7.1, 4614 kbps | Оригинал |TrueHDПеревод: Дублированный | Лицензия Blu-Ray CEEСубтитры: Русские, английскиеBDRip ПодробнееПроф. (полное дублирование)5.68 GB08 Июл 160

▲ 32▼ 1

Файл: Кловерфилд, 10 - 10 Cloverfield Lane (2016) BDRip 720p | Лицензия.torrentПродолжительность: 01:44Видео: 1280x534 at 23.976 fps, [email protected], ~5553 kbps avgЗвук:Aудио#1: Russian: 48 kHz, AC3, 3/2 (L,C,R,l,r) + LFE ch, ~640.00 kbps avg |Дубляж, Blu-ray EUR|Aудио#2: Ukrainian: 48 kHz, AC3, 3/2 (L,C,R,l,r) + LFE ch, ~640.00 kbps avg |Дубляж, Blu-ray EUR|Aудио#3: English: 48 kHz, AC3-EX, 3/2 (L,C,R,l,r) + LFE ch, ~640.00 kbps avgAудио#4: English: 48 kHz, AC3, 2/0 (L,R) ch, ~224.00 kbps avg |Commentary by director Dan Trachtenberg and producer J.J. Abrams|Перевод: Профессиональный (дублированный) Blu-ray EURСубтитры: Russian (Blu-ray CEE), Ukrainian (Blu-ray CEE), English, English (SDH)BDRip ПодробнееПроф. (полное дублирование)1.46 GB08 Июл 160

▲ 37▼ 3

vkinoshke.com

Скачать фильм Кловерфилд, 10 (2016) через торрент

21 июля 2016 08:15 Кловерфилд, 10 / 10 Cloverfield Lane (2016) HDRip | КПК | Лицензия .torrent   [Информация о файле (нажмите для просмотра)] Перевод: Профессиональный (полное дублирование) [Лицензия]Качество: HDRip (Исходник BDRip 720p)Формат: MP4 491,4 Mb 14 5 21 июля 2016 08:15 Кловерфилд, 10 / 10 Cloverfield Lane (2016) BDRip-AVC от New-Team | Лицензия .torrent   [Информация о файле (нажмите для просмотра)] Перевод: Профессиональный (полное дублирование) [Blu-ray CEE]Субтитры: русские (форсированные), украинские (форсированные)Видео: 941 Кбит/сек, 816x340 (2.40:1), 23,976 кадр/сек, AVCАудио: русский, 64,0 Кбит/сек, 48,0 КГц / 24,0 КГц, 2 канала, AAC (HE-AAC / LC)Видео: Идентификатор : 1 Формат : AVC Формат/Информация : Advanced Video Codec Профиль формата : [email protected] Параметр CABAC формата : Да Параметр ReFrames формата : 16 кадров Идентификатор кодека : V_MPEG4/ISO/AVC Продолжительность : 1 ч. 43 м. Битрейт : 941 Кбит/сек Ширина : 816 пикселей Высота : 340 пикселей Соотношение сторон : 2,40:1 Режим частоты кадров : Постоянный Частота кадров : 23,976 (24000/1001) кадра/сек Цветовое пространство : YUV Субдискретизация насыщенности : 4:2:0 Битовая глубина : 8 бит Тип развёртки : Прогрессивная Бит/(Пиксели*Кадры) : 0.141 Размер потока : 696 Мбайт (93%) Заголовок : 10 Cloverfield Lane (2016) (Rip by stalkerok) Библиотека кодирования : x264 core 148 r2705+54 9f484c1 t_mod_Custom [[email protected] X86_64] Настройки программы : cabac=1 / ref=16 / deblock=1:-3:-2 / analyse=0x3:0x133 / me=umh / subme=10 / psy=1 / fade_compensate=0.00 / psy_rd=1.00:0.00 / mixed_ref=1 / me_range=32 / chroma_me=1 / trellis=2 / 8x8dct=1 / cqm=0 / deadzone=21,11 / fast_pskip=0 / chroma_qp_offset=-2 / threads=11 / lookahead_threads=2 / sliced_threads=0 / nr=0 / decimate=0 / interlaced=0 / bluray_compat=0 / constrained_intra=0 / fgo=0 / bframes=16 / b_pyramid=2 / b_adapt=2 / b_bias=0 / direct=3 / weightb=1 / open_gop=0 / weightp=2 / keyint=240 / keyint_min=23 / scenecut=40 / intra_refresh=0 / rc_lookahead=60 / rc=2pass / mbtree=0 / bitrate=941 / ratetol=1.0 / qcomp=0.65 / qpmin=0:0:0 / qpmax=69:69:69 / qpstep=4 / cplxblur=20.0 / qblur=0.5 / vbv_maxrate=50000 / vbv_bufsize=62500 / nal_hrd=none / filler=0 / ip_ratio=1.40 / pb_ratio=1.30 / aq=3:0.90 / aq-sensitivity=10.00 / aq-factor=1.00:1.00:1.00 / aq2=0 / aq3=0 Default : Да Forced : НетАудио: Идентификатор : 2 Формат : AAC Формат/Информация : Advanced Audio Codec Профиль формата : HE-AAC / LC Идентификатор кодека : A_AAC Продолжительность : 1 ч. 43 м. Битрейт : 64,0 Кбит/сек Каналы : 2 канала Расположение каналов : Front: L R Частота : 48,0 КГц / 24,0 КГц Частота кадров : 23,438 кадра/сек (1024 spf) Метод сжатия : С потерями Задержка видео : 31 мс. Размер потока : 47,4 Мбайт (6%) Язык : Russian Default : Да Forced : Нет 745,18 Mb 16 5 21 июля 2016 08:14 Кловерфилд, 10 / 10 Cloverfield Lane (2016) BDRip 1080p от NNNB | Лицензия .torrent   [Информация о файле (нажмите для просмотра)] Перевод: ДублированныйКачество: BDRip 1080p (исходник Blu-ray Disc CEE 1080)Формат: MKVВидео: 1920x800, 9441 Кбит/сек, 23,976 кадр/сек, AVC, x264, [email protected], 2.40:1, 0.256 Бит/[Пиксели*Кадры]Аудио 1: AC-3, 640 Кбит/сек, 6 канала(ов), 48,0 КГц - Дублированный / РусскийАудио 2: AC-3, 640 Кбит/сек, 6 канала(ов), 48,0 КГц - Оригинал / АнглийскийСубтитры: Английские | Полные 7,74 Gb 25 6 21 июля 2016 08:14 Кловерфилд, 10 / 10 Cloverfield Lane (2016) BDRip 1080p HEVC от qusi555 | Лицензия .torrent   [Информация о файле (нажмите для просмотра)] Перевод: Профессиональный (полное дублирование)[BD CEE]Кодек: HeVC/x265Качество: BDRip 1080pВидео: 1920x800, 5137 Kbps, 23.976 (24000/1001) fpsАудио1: 48 kHz, AC3, 5.1, 448 Kbps | Дублированный | BD CEEАудио2: 48 kHz, AC3, 5.1, 448 Kbps | Оригинал 4,37 Gb 4 7 21 июля 2016 08:14 Кловерфилд, 10 / 10 Cloverfield Lane (2016) BDRip от HQCLUB | D | Лицензия .torrent   [Информация о файле (нажмите для просмотра)] Перевод: Профессиональный (полное дублирование) CEE + Оригинал (английский)Субтитры: русские, английские (обычные - 2 вида, SDH, SDH-Colored), украинскиеФормат: AVIКачество: BDRip (источник:Видео: 720x304 (2.37:1), 23.976 fps, XviD build 65 ~2113 kbps avg, 0.40 bit/pixelАудио #1: 48 kHz, AC3 Dolby Digital, 3/2 (L,C,R,l,r) + LFE ch, ~448 kbps avg (RUS)Аудио #2: 48 kHz, AC3 Dolby Digital, 3/2 (L,C,R,l,r) + LFE ch, ~448 kbps avg (ENG)Аудио #3: 48 kHz, AC3 Dolby Digital, 3/2 (L,C,R,l,r) + LFE ch, ~448 kbps avg (UKR)(отдельно) 2,18 Gb 9 4 21 июля 2016 08:14 Кловерфилд, 10 / 10 Cloverfield Lane (2016) HDRip от Scarabey | Лицензия .torrent   [Информация о файле (нажмите для просмотра)] Перевод: Профессиональный (полное дублирование) [Лицензия]Видео: 720x304 (2.37:1), 23.976 fps, XviD build 73 ~1630 kbps avg, 0.31 bit/pixelАудио: 48 kHz, AC3 Dolby Digital, 3/2 (L,C,R,l,r) + LFE ch, ~448 kbps 1,45 Gb 73 7 21 июля 2016 08:14 Кловерфилд, 10 / 10 Cloverfield Lane (2016) HDRip от Scarabey | Лицензия .torrent   [Информация о файле (нажмите для просмотра)] Перевод: Профессиональный (полное дублирование) [Лицензия]Видео: 688x288 (2.39:1), 23.976 fps, XviD build 73 ~870 kbps avg, 0.18 bit/pixelАудио: 48 kHz, MPEG Layer 3, 2 ch, ~128.00 kbps avg 746,86 Mb 8 5 21 июля 2016 08:14 Кловерфилд, 10 / 10 Cloverfield Lane (2016) BDRip 720p | Дополнительные материалы .torrent   [Информация о файле (нажмите для просмотра)] Качество: BDRip 720pВидео: 1280x720 (16:9), 23,976 fps, h364, ~4000 kbps avg, ~0.181 bit/pixelАудио: 48 kHz, AC3 Dolby Digital, 2/0 (L,R) ch, ~192.00 kbps avgПеревод: СубтитрыСубтитры: Русские субтитры: есть 1,02 Gb 3 5 21 июля 2016 08:14 Кловерфилд, 10 / 10 Cloverfield Lane (2016) BDRip от ExKinoRay | Лицензия .torrent   [Информация о файле (нажмите для просмотра)] Перевод: Профессиональный (полное дублирование)[Лицензия]Субтитры: НетКачество: BDRip| исх. 10.Cloverfield.Lane.2016.1080p.BluRay.AVC.TrueHD.7.1.Atmos |Формат: AVIВидео: 720x304 (2.37:1), 23.976 fps, XviD build 73 ~1562 kbps avg, 0.30 bit/pixelАудио: 48 kHz, AC3 Dolby Digital, 3/2 (L,C,R,l,r) + LFE ch, ~448 kbps 1,46 Gb 148 5 21 июля 2016 08:14 Кловерфилд, 10 / 10 Cloverfield Lane (2016) Blu-Ray CEE | лицензия .torrent   [Информация о файле (нажмите для просмотра)] Перевод: полное дублированиеКодек: MPEG-4 AVCКачество: Blu-Ray"Новый Диск"Видео: 25673 Кbps, 1920x1080, 23.976 fpsАудио 1: Dolby TrueHD 8 ch, 48.0 KHz, 4614 Кbps(английский)Аудио 2: Dolby Digital 6 ch, 48.0 KHz, 640 Кbps(русский, украинский, чешский, польский, тайский)Аудио 3: Dolby Digital 2 ch, 48.0 KHz, 224 Кbps(английский)Субтитры: русские, украинские, английские, арабские, малазийские, китайские, чешские, греческие, эстонские, иврит, хинди, исландские, корейские, венгерские, латышские, литовские, польские, португальские, румынские, словацкие, тайскиеBD-InfoDISC INFO: 37,21 Gb 3 3 21 июля 2016 08:14 Кловерфилд, 10 / 10 Cloverfield Lane (2016) BDRip-AVC от HELLYWOOD | Лицензия .torrent   [Информация о файле (нажмите для просмотра)] Перевод: Профессиональный (полное дублирование)[BD CEE]Качество: BDRip-AVCКодек: MPEG-4 AVCВидео: 1152х480 (2,40:1), 23,976 fps, MPEG-4 AVC ~2117 kbps avg, 0.160 bit/pixelАудио: 48 kHz, AC3, 6 ch, ~448.00 kbps avg | русский | Профессиональный (полное дублирование)[BD CEE]Аудио: 48 kHz, AC3, 6 ch, ~448.00 kbps avg | английский | ОригиналСубтитры: Русские (полные (х2) + форс.), украинские (полные + форс.), английские (Full + SDH + SDH-Colored)Видео: Идентификатор : 1 Формат : AVC Формат/Информация : Advanced Video Codec Профиль формата : [email protected] Параметр CABAC формата : Да Параметр ReFrames формата : 10 кадров Идентификатор кодека : V_MPEG4/ISO/AVC Продолжительность : 1 ч. 43 м. Битрейт : 2117 Кбит/сек Ширина : 1152 пикселя Высота : 480 пикселей Соотношение сторон : 2,40:1 Режим частоты кадров : Постоянный Частота кадров : 23,976 (24000/1001) кадра/сек Цветовое пространство : YUV Субдискретизация насыщенности : 4:2:0 Битовая глубина : 8 бит Тип развёртки : Прогрессивная Бит/(Пиксели*Кадры) : 0.160 Размер потока : 1,49 Гбайт (68%) Заголовок : potroks Библиотека кодирования : x264 core 148 r2705M 3f5ed56 Настройки программы : cabac=1 / ref=10 / deblock=1:-2:-2 / analyse=0x3:0x133 / me=umh / subme=11 / psy=1 / psy_rd=1.00:0.03 / mixed_ref=1 / me_range=48 / chroma_me=1 / trellis=2 / 8x8dct=1 / cqm=0 / deadzone=21,11 / fast_pskip=0 / chroma_qp_offset=-3 / threads=9 / lookahead_threads=2 / sliced_threads=0 / nr=0 / decimate=0 / interlaced=0 / bluray_compat=0 / constrained_intra=0 / bframes=11 / b_pyramid=2 / b_adapt=2 / b_bias=0 / direct=3 / weightb=1 / open_gop=0 / weightp=2 / keyint=240 / keyint_min=23 / scenecut=40 / intra_refresh=0 / rc_lookahead=100 / rc=2pass / mbtree=0 / bitrate=2117 / ratetol=1.0 / qcomp=0.70 / qpmin=0 / qpmax=69 / qpstep=4 / cplxblur=20.0 / qblur=0.5 / vbv_maxrate=50000 / vbv_bufsize=60000 / nal_hrd=none / filler=0 / ip_ratio=1.40 / pb_ratio=1.30 / aq=1:0.80 Язык : English Default : Да Forced : Нет Аудио #1: Идентификатор : 2 Формат : AC-3 Формат/Информация : Audio Coding 3 Расширение режима : CM (complete main) Параметр Endianness формата : Big Идентификатор кодека : A_AC3 Продолжительность : 1 ч. 43 м. Вид битрейта : Постоянный Битрейт : 448 Кбит/сек Каналы : 6 каналов Расположение каналов : Front: L C R, Side: L R, LFE Частота : 48,0 КГц Частота кадров : 31,250 кадров/сек (1536 spf) Метод сжатия : С потерями Размер потока : 332 Мбайт (15%) Заголовок : Dub | DD 5.1 @ 448 kbps - Blu-ray CEE Язык : Russian Default : Да Forced : Нет Аудио #2: Идентификатор : 3 Формат : AC-3 Формат/Информация : Audio Coding 3 Расширение режима : CM (complete main) Параметр Endianness формата : Big Идентификатор кодека : A_AC3 Продолжительность : 1 ч. 43 м. Вид битрейта : Постоянный Битрейт : 448 Кбит/сек Каналы : 6 каналов Расположение каналов : Front: L C R, Side: L R, LFE Частота : 48,0 КГц Частота кадров : 31,250 кадров/сек (1536 spf) Метод сжатия : С потерями Размер потока : 332 Мбайт (15%) Заголовок : Origijal | DD 5.1 @ 448 kbps Язык : English Default : Нет Forced : Нет 2,18 Gb 141 7 21 июля 2016 08:14 Кловерфилд, 10 / 10 Cloverfield Lane (2016) BDRip 1080p от ExKinoRay | Лицензия .torrent   [Информация о файле (нажмите для просмотра)] Перевод: Дублированный | Лицензия Blu-Ray CEEКодек: MPEG-4Качество: BDRip 1080pВидео: 1920x800, 12.5 Mbit/s, 23.976 fpsЗвук: Аудио #01: 48 kHz, AC3, 5.1, 640 Kbps | Дублированный, лицензия Blu-Ray CEE |AC3Аудио #02: 48 kHz, AC3, 5.1, 640 kbps | Оригинал |AC3Субтитры: Русские, английские 9,97 Gb 31 6 21 июля 2016 08:14 Кловерфилд, 10 / 10 Cloverfield Lane (2016) BDRip-AVC от HELLYWOOD | Лицензия .torrent   [Информация о файле (нажмите для просмотра)] Перевод: Профессиональный (полное дублирование)[BD CEE]Качество: BDRip-AVCКодек: MPEG-4 AVCВидео: 1032х430 (2,40:1), 23,976 fps, MPEG-4 AVC ~1570 kbps avg, 0.148 bit/pixelАудио: 48 kHz, AC3, 6 ch, ~448.00 kbps avg | русский | Профессиональный (полное дублирование)[BD CEE]Субтитры: Русские (полные (х2) + форс.)Видео: Идентификатор : 1 Формат : AVC Формат/Информация : Advanced Video Codec Профиль формата : [email protected] Параметр CABAC формата : Да Параметр ReFrames формата : 11 кадров Идентификатор кодека : V_MPEG4/ISO/AVC Продолжительность : 1 ч. 43 м. Битрейт : 1570 Кбит/сек Ширина : 1032 пикселя Высота : 430 пикселей Соотношение сторон : 2,40:1 Режим частоты кадров : Постоянный Частота кадров : 23,976 (24000/1001) кадра/сек Цветовое пространство : YUV Субдискретизация насыщенности : 4:2:0 Битовая глубина : 8 бит Тип развёртки : Прогрессивная Бит/(Пиксели*Кадры) : 0.148 Размер потока : 1,11 Гбайт (76%) Заголовок : potroks Библиотека кодирования : x264 core 148 r2705M 3f5ed56 Настройки программы : cabac=1 / ref=11 / deblock=1:-2:-2 / analyse=0x3:0x133 / me=umh / subme=11 / psy=1 / psy_rd=1.00:0.05 / mixed_ref=1 / me_range=48 / chroma_me=1 / trellis=2 / 8x8dct=1 / cqm=0 / deadzone=21,11 / fast_pskip=0 / chroma_qp_offset=-3 / threads=9 / lookahead_threads=2 / sliced_threads=0 / nr=0 / decimate=0 / interlaced=0 / bluray_compat=0 / constrained_intra=0 / bframes=12 / b_pyramid=2 / b_adapt=2 / b_bias=0 / direct=3 / weightb=1 / open_gop=0 / weightp=2 / keyint=240 / keyint_min=23 / scenecut=40 / intra_refresh=0 / rc_lookahead=100 / rc=2pass / mbtree=0 / bitrate=1570 / ratetol=1.0 / qcomp=0.70 / qpmin=0 / qpmax=69 / qpstep=4 / cplxblur=20.0 / qblur=0.5 / vbv_maxrate=50000 / vbv_bufsize=60000 / nal_hrd=none / filler=0 / ip_ratio=1.40 / pb_ratio=1.30 / aq=1:0.80 Язык : English Default : Да Forced : Нет Аудио: Идентификатор : 2 Формат : AC-3 Формат/Информация : Audio Coding 3 Расширение режима : CM (complete main) Параметр Endianness формата : Big Идентификатор кодека : A_AC3 Продолжительность : 1 ч. 43 м. Вид битрейта : Постоянный Битрейт : 448 Кбит/сек Каналы : 6 каналов Расположение каналов : Front: L C R, Side: L R, LFE Частота : 48,0 КГц Частота кадров : 31,250 кадров/сек (1536 spf) Метод сжатия : С потерями Размер потока : 332 Мбайт (22%) Заголовок : Dub | DD 5.1 @ 448 kbps - Blu-ray CEE Язык : Russian Default : Да Forced : Нет 1,46 Gb 28 4 21 июля 2016 08:14 Кловерфилд, 10 / 10 Cloverfield Lane (2016) BDRip 720p от ExKinoRay | Лицензия .torrent   [Информация о файле (нажмите для просмотра)] Перевод: Дублированный | Лицензия Blu-Ray CEEКодек: MPEG-4Качество: BDRip 720pВидео: 1280x534, 9052 Kbit/s, 23.976 fpsЗвук: Аудио #01: 48 kHz, AC3, 5.1, 640 Kbps | Дублированный, лицензия Blu-Ray CEE |AC3Аудио #02: 48 kHz, AC3, 5.1, 640 kbps | Оригинал |AC3Субтитры: Русские, английские 7,47 Gb 6 3 21 июля 2016 08:14 Кловерфилд, 10 / 10 Cloverfield Lane (2016) BDRemux 1080p от ExKinoRay | Лицензия .torrent   [Информация о файле (нажмите для просмотра)] Перевод: Дублированный | Лицензия Blu-Ray CEEКодек: MPEG-4Качество: BDRemux 1080pВидео: 1920x1080, 25.4 Mbit/s, 23.976 fpsЗвук: Аудио #01: 48 kHz, AC3, 5.1, 640 Kbps | Дублированный, лицензия Blu-Ray CEE|AC3Аудио #02: 48 kHz, TrueHD, 7.1, 4614 kbps | Оригинал |TrueHDСубтитры: Русские, английские 22,23 Gb 3 3 21 июля 2016 08:14 Кловерфилд, 10 / 10 Cloverfield Lane (2016) BDRip 1080p | Лицензия .torrent   [Информация о файле (нажмите для просмотра)] Перевод: Профессиональный (дублированный) Blu-ray EURФормат: MatroskaВидео: 1920x800 at 23.976 fps, [email protected], ~12300 kbps avgСубтитры: Russian, EnglishВидео: Идентификатор : 1 Формат : AVC Формат/Информация : Advanced Video Codec Профиль формата : [email protected] Параметр CABAC формата : Да Параметр ReFrames формата : 5 кадров Идентификатор кодека : V_MPEG4/ISO/AVC Продолжительность : 1 ч. 43 м. Битрейт : 12,3 Мбит/сек Ширина : 1920 пикселей Высота : 800 пикселей Соотношение сторон : 2,40:1 Режим частоты кадров : Постоянный Частота кадров : 23,976 кадра/сек Цветовое пространство : YUV Субдискретизация насыщенности : 4:2:0 Битовая глубина : 8 бит Тип развёртки : Прогрессивная Бит/(Пиксели*Кадры) : 0.334 Размер потока : 8,90 Гбайт (89%) Библиотека кодирования : x264 core 146 r2538 121396c Настройки программы : cabac=1 / ref=5 / deblock=1:-3:-3 / analyse=0x3:0x133 / me=tesa / subme=11 / psy=1 / psy_rd=1.02:0.00 / mixed_ref=1 / me_range=32 / chroma_me=1 / trellis=2 / 8x8dct=1 / cqm=0 / deadzone=21,11 / fast_pskip=0 / chroma_qp_offset=-2 / threads=48 / lookahead_threads=6 / sliced_threads=0 / nr=0 / decimate=0 / interlaced=0 / bluray_compat=0 / constrained_intra=0 / bframes=12 / b_pyramid=2 / b_adapt=2 / b_bias=0 / direct=3 / weightb=1 / open_gop=0 / weightp=2 / keyint=240 / keyint_min=23 / scenecut=40 / intra_refresh=0 / rc_lookahead=150 / rc=crf / mbtree=0 / crf=17.4 / qcomp=0.60 / qpmin=0 / qpmax=69 / qpstep=4 / vbv_maxrate=62500 / vbv_bufsize=78125 / crf_max=0.0 / nal_hrd=none / filler=0 / ip_ratio=1.40 / pb_ratio=1.30 / aq=1:0.80 Язык : English Default : Да Forced : НетАудио #1: Идентификатор : 2 Формат : AC-3 Формат/Информация : Audio Coding 3 Расширение режима : CM (complete main) Параметр Endianness формата : Big Идентификатор кодека : A_AC3 Продолжительность : 1 ч. 43 м. Вид битрейта : Постоянный Битрейт : 640 Кбит/сек Каналы : 6 каналов Расположение каналов : Front: L C R, Side: L R, LFE Частота : 48,0 КГц Метод сжатия : С потерями Размер потока : 474 Мбайт (5%) Язык : Russian Default : Да Forced : НетАудио #2: Идентификатор : 3 Формат : AC-3 Формат/Информация : Audio Coding 3 Расширение режима : CM (complete main) Параметр Endianness формата : Big Идентификатор кодека : A_AC3 Продолжительность : 1 ч. 43 м. Вид битрейта : Постоянный Битрейт : 640 Кбит/сек Каналы : 6 каналов Расположение каналов : Front: L C R, Side: L R, LFE Частота : 48,0 КГц Метод сжатия : С потерями Размер потока : 474 Мбайт (5%) Заголовок : Original Язык : English Default : Нет Forced : Нет 10,03 Gb 7 2 21 июля 2016 08:14 Кловерфилд, 10 / 10 Cloverfield Lane (2016) BDRip 720p | Лицензия .torrent   [Информация о файле (нажмите для просмотра)] Перевод: Профессиональный (дублированный) Blu-ray EURФормат: MatroskaВидео: 1280x534 at 23.976 fps, [email protected], ~5553 kbps avgСубтитры: Russian (Blu-ray CEE), Ukrainian (Blu-ray CEE), English, English (SDH)Видео: Идентификатор : 1 Формат : AVC Формат/Информация : Advanced Video Codec Профиль формата : [email protected] Параметр CABAC формата : Да Параметр ReFrames формата : 12 кадров Идентификатор кодека : V_MPEG4/ISO/AVC Продолжительность : 1 ч. 43 м. Битрейт : 5553 Кбит/сек Ширина : 1280 пикселей Высота : 534 пикселя Соотношение сторон : 2,40:1 Режим частоты кадров : Постоянный Частота кадров : 23,976 кадра/сек Цветовое пространство : YUV Субдискретизация насыщенности : 4:2:0 Битовая глубина : 8 бит Тип развёртки : Прогрессивная Бит/(Пиксели*Кадры) : 0.339 Размер потока : 4,02 Гбайт (71%) Заголовок : 10 Cloverfield Lane (2016) - Release for HDCLUB Библиотека кодирования : x264 core 148 r2692+54 69a6f49 t_mod_Custom [[email protected] X86_64] Настройки программы : cabac=1 / ref=12 / deblock=1:-3:-3 / analyse=0x3:0x133 / me=umh / subme=10 / psy=1 / fade_compensate=0.00 / psy_rd=1.00:0.00 / mixed_ref=1 / me_range=32 / chroma_me=1 / trellis=2 / 8x8dct=1 / cqm=0 / deadzone=21,11 / fast_pskip=0 / chroma_qp_offset=-2 / threads=8 / lookahead_threads=2 / sliced_threads=0 / nr=0 / decimate=0 / interlaced=0 / bluray_compat=0 / constrained_intra=0 / fgo=0 / bframes=10 / b_pyramid=2 / b_adapt=2 / b_bias=0 / direct=3 / weightb=1 / open_gop=0 / weightp=2 / keyint=250 / keyint_min=23 / scenecut=40 / intra_refresh=0 / rc_lookahead=150 / rc=crf / mbtree=0 / crf=17.5000 / qcomp=0.60 / qpmin=0:0:0 / qpmax=69:69:69 / qpstep=4 / vbv_maxrate=50000 / vbv_bufsize=62500 / crf_max=0.0 / nal_hrd=none / filler=0 / ip_ratio=1.30 / pb_ratio=1.20 / aq=3:0.80 / aq-sensitivity=10.00 / aq-factor=1.00:1.00:1.00 / aq2=0 / aq3=0 Язык : English Default : Да Forced : Нет Цветовой диапазон : Limited Коэффициенты матрицы : BT.709Аудио #1: Идентификатор : 2 Формат : AC-3 Формат/Информация : Audio Coding 3 Расширение режима : CM (complete main) Параметр Endianness формата : Big Идентификатор кодека : A_AC3 Продолжительность : 1 ч. 43 м. Вид битрейта : Постоянный Битрейт : 640 Кбит/сек Каналы : 6 каналов Расположение каналов : Front: L C R, Side: L R, LFE Частота : 48,0 КГц Метод сжатия : С потерями Размер потока : 474 Мбайт (8%) Заголовок : AC3 5.1 @ 640 kbps - DUB, Blu-ray CEE Язык : Russian Default : Да Forced : НетАудио #2: Идентификатор : 3 Формат : AC-3 Формат/Информация : Audio Coding 3 Расширение режима : CM (complete main) Параметр Endianness формата : Big Идентификатор кодека : A_AC3 Продолжительность : 1 ч. 43 м. Вид битрейта : Постоянный Битрейт : 640 Кбит/сек Каналы : 6 каналов Расположение каналов : Front: L C R, Side: L R, LFE Частота : 48,0 КГц Метод сжатия : С потерями Размер потока : 474 Мбайт (8%) Заголовок : AC3 5.1 @ 640 kbps - DUB, Blu-ray CEE Язык : Ukrainian Default : Нет Forced : НетАудио #3: Идентификатор : 4 Формат : AC-3 Формат/Информация : Audio Coding 3 Расширение режима : CM (complete main) Параметр Endianness формата : Big Идентификатор кодека : A_AC3 Продолжительность : 1 ч. 43 м. Вид битрейта : Постоянный Битрейт : 640 Кбит/сек Каналы : 6 каналов Расположение каналов : Front: L C R, Side: L R, LFE Частота : 48,0 КГц Метод сжатия : С потерями Размер потока : 474 Мбайт (8%) Заголовок : AC3-EX 5.1 @ 640 kbps Язык : English Default : Нет Forced : НетАудио #4: Идентификатор : 5 Формат : AC-3 Формат/Информация : Audio Coding 3 Расширение режима : CM (complete main) Параметр Endianness формата : Big Идентификатор кодека : A_AC3 Продолжительность : 1 ч. 43 м. Вид битрейта : Постоянный Битрейт : 224 Кбит/сек Каналы : 2 канала Расположение каналов : Front: L R Частота : 48,0 КГц Метод сжатия : С потерями Размер потока : 166 Мбайт (3%) Заголовок : AC3 2.0 @ 224 kbps - Commentary by Director Dan Trachtenberg and Producer J.J. Abrams Язык : English Default : Нет Forced : Нет 5,68 Gb 8 3 21 июля 2016 08:14 Кловерфилд, 10 / 10 Cloverfield Lane (2016) HDRip от MegaPeer | Лицензия .torrent   [Информация о файле (нажмите для просмотра)] Перевод: Дублированный |BD CEEФормат: AVIКачество: HDRipВидео: XviD, 688x288, 23.976 fps, 871 kbpsЗвук: MP3, 2 ch, 128 kbpsСубтитры: | отсутствуют | 744,96 Mb 6 4 21 июля 2016 08:14 Кловерфилд, 10 / 10 Cloverfield Lane (2016) BDRip от MegaPeer | Лицензия .torrent   [Информация о файле (нажмите для просмотра)] Перевод: Дублированный |BD CEEФормат: AVIКачество: BDRipВидео: XviD, 720x304, 23.976 fps, 1565 kbpsЗвук: AC3, 6 ch, 448 kbpsСубтитры: | отсутствуют | 1,46 Gb 48 4 21 июля 2016 08:14 Кловерфилд, 10 / 10 Cloverfield Lane (2016) BDRip-AVC | iTunes .torrent   [Информация о файле (нажмите для просмотра)] Перевод: Дубляж - [iTunes]Субтитры: русские (FULL), английские (FULL), английские (SDH)Качество: BDRip-AVCФормат: MKVВидео: AVC, 1024x426 (2.40:1), 2270 kbps, 23,976 fps, 0,217 bppАудио №1: русский / AC3 / 5.1 / 48 kHz / 384 kbps / 16 bitАудио №2: английский / AC3 / 5.1 / 48 kHz / 448 kbps / 16 bit 2,24 Gb 25 4 21 июля 2016 08:14 Кловерфилд, 10 / 10 Cloverfield Lane (2016) BDRip 720p | iTunes .torrent   [Информация о файле (нажмите для просмотра)] Перевод: Дублированный [iTunes]Формат: MKVКачество: BDRip 720pВидео: MPEG-4 AVC, 6581 kb/s, 1280x534Аудио: Russian: AC3, 384 kb/s (6 ch) / English: AC3, 640 kb/s (6 ch)Субтитры: Russian (full), EnglishВидео: Идентификатор : 1 Формат : AVC Формат/Информация : Advanced Video Codec Профиль формата : [email protected] Параметр CABAC формата : Да Параметр ReFrames формата : 12 кадров Идентификатор кодека : V_MPEG4/ISO/AVC Продолжительность : 1 ч. 43 м. Битрейт : 6579 Кбит/сек Ширина : 1280 пикселей Высота : 534 пикселя Соотношение сторон : 2,40:1 Режим частоты кадров : Постоянный Частота кадров : 23,976 кадра/сек Цветовое пространство : YUV Субдискретизация насыщенности : 4:2:0 Битовая глубина : 8 бит Тип развёртки : Прогрессивная Бит/(Пиксели*Кадры) : 0.401 Размер потока : 4,76 Гбайт (85%) Заголовок : 10.Cloverfield.Lane.2016.D.720p.BluRay Библиотека кодирования : x264 core 142 r2431+42 c69a006 tMod [[email protected] X86_64] Настройки программы : cabac=1 / ref=12 / deblock=1:-3:-3 / analyse=0x3:0x133 / me=umh / subme=11 / psy=1 / fade_compensate=0.00 / psy_rd=1.05:1.00 / mixed_ref=1 / me_range=32 / chroma_me=1 / trellis=2 / 8x8dct=1 / cqm=0 / deadzone=21,11 / fast_pskip=0 / chroma_qp_offset=-4 / threads=12 / lookahead_threads=2 / sliced_threads=0 / nr=0 / decimate=0 / interlaced=0 / bluray_compat=0 / constrained_intra=0 / fgo=0 / bframes=8 / b_pyramid=2 / b_adapt=2 / b_bias=0 / direct=3 / weightb=1 / open_gop=0 / weightp=2 / keyint=240 / keyint_min=23 / scenecut=40 / intra_refresh=0 / rc_lookahead=60 / rc=crf / mbtree=0 / crf=17.5000 / qcomp=0.60 / qpmin=0:0:0 / qpmax=69:69:69 / qpstep=4 / vbv_maxrate=40000 / vbv_bufsize=30000 / crf_max=0.0 / nal_hrd=none / filler=0 / ip_ratio=1.40 / pb_ratio=1.30 / aq=1:1.00 / aq-sensitivity=10.00 / aq-factor=1.00:1.00:1.00 / aq2=0 / aq3=0 Язык : English Default : Да Forced : НетАудио #1: Идентификатор : 2 Формат : AC-3 Формат/Информация : Audio Coding 3 Расширение режима : CM (complete main) Параметр Endianness формата : Big Идентификатор кодека : A_AC3 Продолжительность : 1 ч. 43 м. Вид битрейта : Постоянный Битрейт : 384 Кбит/сек Каналы : 6 каналов Расположение каналов : Front: L C R, Side: L R, LFE Частота : 48,0 КГц Битовая глубина : 16 бит Метод сжатия : С потерями Размер потока : 284 Мбайт (5%) Заголовок : iTunes Язык : Russian Default : Да Forced : НетАудио #2: Идентификатор : 3 Формат : AC-3 Формат/Информация : Audio Coding 3 Расширение режима : CM (complete main) Параметр Endianness формата : Big Идентификатор кодека : A_AC3 Продолжительность : 1 ч. 43 м. Вид битрейта : Постоянный Битрейт : 640 Кбит/сек Каналы : 6 каналов Расположение каналов : Front: L C R, Side: L R, LFE Частота : 48,0 КГц Битовая глубина : 16 бит Метод сжатия : С потерями Размер потока : 474 Мбайт (8%) Язык : English Default : Нет Forced : Нет 5,61 Gb 118 6 21 июля 2016 08:14 Кловерфилд, 10 / 10 Cloverfield Lane (2016) WEB-DLRip | КПК от ImperiaFilm | Line .torrent   [Информация о файле (нажмите для просмотра)] Формат: MP4Качество: WEB-DLRip | КПКВидео: x264, 480x272, 350 кб/с, 0.112 bit/(pixel*frame)Аудио: AAC LC 2.0, 126 кб/с 354,99 Mb 35 3 21 июля 2016 08:14 Кловерфилд, 10 / 10 Cloverfield Lane (2016) WEB-DLRip от MegaPeer | Line .torrent   [Информация о файле (нажмите для просмотра)] Перевод: Дублированный |LineФормат: AVIКачество: WEB-DLRipВидео: XviD, 688x288, 23.976 fps, 868 kbpsЗвук: MP3, 2 ch, 128 kbpsСубтитры: | отсутствуют | 745,37 Mb 12 2 21 июля 2016 08:14 Кловерфилд, 10 / 10 Cloverfield Lane (2016) WEB-DLRip-AVC | Line .torrent   [Информация о файле (нажмите для просмотра)] Формат: MKVКачество: WEB-DLRip-AVCВидео: MPEG-4 AVC, ~880 kb/s, 776x320Аудио: AAC, 64 kb/s (2 ch)Субтитры: English 696,66 Mb 13 3

gig-torrent.net

Скачать фильм Кловерфилд, 10 через торрент в хорошем качестве бесплатно 1080p

Размер: 4.11 GB | Добавлен: 1 год 5 мес. назад | Торрент скачан:439 раз
Реклама Дарим 3000 рублей за регистрацию, не упусти свой шанс получить шикарный бонус!!!

05-05-2016 02:24 Кловерфилд, 10 Скачать торрент  

Кловерфилд, 10 / 10 Cloverfield Lane ««Монстры бывают разные»» ИНФОРМАЦИЯ: Год выпуска:2016 Страна: США Жанр: ужасы, фантастика, триллер, драма, детектив Продолжительность: 01:43:18 Перевод: Дубляж - [Звук с CamRip] Режиссер: Дэн ТрактенбергВ Ролях: Джон Гудман (Howard), Мэри Элизабет Уинстэд (Michelle), Джон Галлахер мл. (Emmett), Дуглас М. Гриффин (Driver), Сюзанн Крайер (Leslie), Брэдли Купер (Ben, озвучка), Сумали Монтано (Voice on Radio, озвучка), Фрэнк Моттек (Radio Broadcaster, озвучка), Синди Хоган (Neighbor, в титрах не указана), Мат Ваиро (Jeremy, в титрах не указан)Описание: Проснувшись после автомобильной аварии, девушка оказывается в подвале человека, утверждающего, что он спас ей жизнь от химической атаки, которая сделала мир за пределами бункера непригодным для жизни.
  • Мировая премьера:8 марта 2016 ТЕХ.ДАННЫЕ: Качество: WEBRip 1080p Формат: MKV Видео: AVC, 1920x800 (2.40:1), 5389 kbps, 29,970 fps, 0,117 bpp Аудио: AC3 / 2.0 / 48 kHz / 192 kbps / 16 bit GeneralUnique ID : 249891971397830135334930766534853941040 (0xBBFF716C3ACCCD7FAF4F03BAB7A25730)Complete name : D:\Торент\KloveRR.10.2O16.D.WEBRip.1O8OP_KOSHERA.mkvFormat : MatroskaFormat version : Version 2File size : 4.11 GiBDuration : 1h 43mnOverall bit rate mode : ConstantOverall bit rate : 5 695 KbpsEncoded date : UTC 2016-05-04 21:52:09Writing application : mkvmerge v8.3.0 ('Over the Horizon') 64bitWriting library : libebml v1.3.1 + libmatroska v1.4.2

    VideoID : 1Format : AVCFormat/Info : Advanced Video CodecFormat profile : [email protected] settings, CABAC : YesFormat settings, ReFrames : 5 framesCodec ID : V_MPEG4/ISO/AVCDuration : 1h 43mnBit rate mode : ConstantBit rate : 5 389 KbpsNominal bit rate : 6 000 KbpsWidth : 1 920 pixelsHeight : 800 pixelsDisplay aspect ratio : 2.40:1Frame rate : 29.970 fpsStandard : ComponentColor space : YUVChroma subsampling : 4:2:0Bit depth : 8 bitsScan type : ProgressiveBits/(Pixel*Frame) : 0.117Stream size : 3.89 GiB (95%)Default : YesForced : NoColor primaries : BT.709-5, BT.1361, IEC 61966-2-4, SMPTE RP177Transfer characteristics : BT.709-5, BT.1361Matrix coefficients : BT.709-5, BT.1361, IEC 61966-2-4 709, SMPTE RP177

    AudioID : 2Format : AC-3Format/Info : Audio Coding 3Mode extension : CM (complete main)Codec ID : A_AC3Duration : 1h 43mnBit rate mode : ConstantBit rate : 192 KbpsChannel(s) : 2 channelsChannel positions : Front: L RSampling rate : 48.0 KHzBit depth : 16 bitsCompression mode : LossyStream size : 142 MiB (3%)Default : YesForced : No

    Скриншоты: © Оформление by .::Ворон::.
  • !Ворон писал(а):

    Имеется реклама от спонсора показа.

    Скачать Кловерфилд, 10 через торрент http://pic.pb.wtf/images/6/ordi9.jpg Скачать фильм Кловерфилд, 10 через торрент бесплантно в хорошем качестве Описание: Проснувшись после автомобильной аварии, девушка оказывается в подвале человека, утверждающего, что он спас ей жизнь от химической ... 2016-05-05 02:24 9.2 10 12

    Loading...

    Loading...

    % Раздел Тема Автор DL S | L
    Фильмы (Blu-ray, BD-Remux, HDDVD) [ 22.23 GB ] Кловерфилд 10 / 10 Cloverfield Lane [2016 BD Remux 1080p] DUB [ Blu-Ray CEE] bober100 Скачать
    Фильмы [HD 720p, 1080p] (Хороший звук DUB, MVO) [ 4.37 GB ] Кловерфилд 10 / 10 Cloverfield Lane [2016 BDRip 720p] potroks Скачать
    Фильмы с авторской озвучкой [ 1.46 GB ] Кловерфилд 10 / 10 Cloverfield Lane [2016 BDRip] [AVO] killermax2013 Скачать
    Фильмы (Blu-ray, BD-Remux, HDDVD) [ 37.21 GB ] Кловерфилд 10 / 10 Cloverfield Lane [2016 Blu-Ray CEE] лицензия Russian Mafia Скачать
    R.G.Resident - Фильмы, Видео [ 2.24 GB ] Кловерфилд 10 / 10 Cloverfield Lane [2016 BDRip-AVC ] schultz Скачать
    Фильмы [HD 720p, 1080p] (Хороший звук DUB, MVO) [ 7.74 GB ] Кловерфилд 10 / 10 Cloverfield Lane [2016 BDRip 1080p от NNNB / ] Ворон Скачать
    Фильмы 2016 [DVDrip, WEB-DLRip, HDrip] (DUB, MVO) [ 1.46 GB ] Кловерфилд 10 / 10 Cloverfield Lane [2016 BDRip / ] Ворон Скачать

    Рекламный пират

    05-05-2016 02:28 Кловерфилд, 10 Скачать торрент  

    05-05-2016 16:26 Кловерфилд, 10 Скачать торрент  

    нормальный такой семпл... специально выбирался чтоб тишина была?)))

    05-05-2016 18:28 Кловерфилд, 10 Скачать торрент  

    Ходил в кино на него.. ни о чем.

    05-05-2016 19:58 Кловерфилд, 10 Скачать торрент  

    Хумм... неожиданно оказался не плохой фильм. Не шедевр конечно, но посмотреть можно.

    05-05-2016 21:01 Кловерфилд, 10 Скачать торрент  

    Вот бы англ дорогу с сабами и был бы шик

    Дорогой пользователь! Огромная просьба, поблагодарите релизера, оцените раздачу и оставьте свои комментарий, если Вы скачали Кловерфилд, 10 через торрент бесплатно! Внесите свою лепту в развитие PiratBit!

    Комментировать посты могут только пользователи прошедшие не сложную регистрацию

    Кловерфилд, 10 через торрент Скачать бесплатно Кловерфилд, 10 Кловерфилд, 10 скачать торрент Кловерфилд, 10 смотреть онлайн Cкачать фильм Кловерфилд, 10 бесплатно Кловерфилд, 10 скачать торрент в хорошем качестве Кловерфилд, 10 смотреть онлайн бесплатно в хорошем качестве

    Вы можете начинать темыВы можете отвечать на сообщенияВы не можете редактировать свои сообщенияВы не можете удалять свои сообщенияВы не можете голосовать в опросахВы не можете прикреплять файлы к сообщениямВы можете скачивать файлы

    piratbit.ru

    Скачать фильм Кловерфилд, 10 через торрент в хорошем качестве бесплатно BDRip / Лицензия

    Раздают: 2 [ 0 KB/s ]
    Размер: 1.46 GB | Добавлен: 1 год 3 мес. назад | Торрент скачан:667 раз
    Реклама Дарим 3000 рублей за регистрацию, не упусти свой шанс получить шикарный бонус!!!

    15-07-2016 15:34 Кловерфилд, 10 Скачать торрент  

    Кловерфилд, 10 / 10 Cloverfield Lane

    «Монстры бывают разные»

    Год выпуска: 2016

    Страна: США

    Жанр: ужасы, фантастика, триллер, драма, детектив

    Продолжительность: 01:43:34

    Перевод: Профессиональный (полное дублирование) [Лицензия]

    Субтитры: Нет

    Режиссер: Дэн Трактенберг / Dan TrachtenbergВ ролях: Джон Гудман (Howard), Мэри Элизабет Уинстэд (Michelle), Джон Галлахер мл. (Emmett), Дуглас М. Гриффин (Driver), Сюзанн Крайер (Leslie), Брэдли Купер (Ben, озвучка), Сумали Монтано (Voice on Radio, озвучка), Фрэнк Моттек (Radio Broadcaster, озвучка), Синди Хоган (Neighbor, в титрах не указана), Мат Ваиро (Jeremy, в титрах не указан)

    Описание:

    Проснувшись после автомобильной аварии, девушка оказывается в подвале человека, утверждающего, что он спас ей жизнь от химической атаки, которая сделала мир за пределами бункера непригодным для жизни.

    Рейтинг:

    MPAA: PG-13 - Детям до 13 лет просмотр не желателен

    Качество: BDRip | исх. 10.Cloverfield.Lane.2016.1080p.BluRay.AVC.TrueHD.7.1.Atmos |

    Формат: AVI

    Видео кодек: XviD

    Аудио кодек: AC3

    Видео: 720x304 (2.37:1), 23.976 fps, XviD build 73 ~1562 kbps avg, 0.30 bit/pixel

    Аудио: 48 kHz, AC3 Dolby Digital, 3/2 (L,C,R,l,r) + LFE ch, ~448 kbps

    Автор релиза: Релиз:

    Скачать Кловерфилд, 10 через торрент http://s019.radikal.ru/i626/1606/3a/9eb8df9e1934.png Скачать фильм Кловерфилд, 10 через торрент бесплантно в хорошем качестве Описание: Проснувшись после автомобильной аварии, девушка оказывается в подвале человека, утверждающего, что он спас ей жизнь от химической ... 2016-07-15 15:34 10 10 10

    Loading...

    Loading...

    Рекламный пират

    Дорогой пользователь! Огромная просьба, поблагодарите релизера, оцените раздачу и оставьте свои комментарий, если Вы скачали Кловерфилд, 10 через торрент бесплатно! Внесите свою лепту в развитие PiratBit!

    Комментировать посты могут только пользователи прошедшие не сложную регистрацию

    Кловерфилд, 10 через торрент Скачать бесплатно Кловерфилд, 10 Кловерфилд, 10 скачать торрент Кловерфилд, 10 смотреть онлайн Cкачать фильм Кловерфилд, 10 бесплатно Кловерфилд, 10 скачать торрент в хорошем качестве Кловерфилд, 10 смотреть онлайн бесплатно в хорошем качестве

    Вы не можете начинать темыВы не можете отвечать на сообщенияВы не можете редактировать свои сообщенияВы не можете удалять свои сообщенияВы не можете голосовать в опросахВы не можете прикреплять файлы к сообщениямВы можете скачивать файлы

    piratbit.ru

    Скачать фильм Кловерфилд, 10 через торрент в хорошем качестве бесплатно Кловерфилд

    Размер: 1.37 GB | Добавлен: 1 год 6 мес. назад | Торрент скачан:478 раз
    Реклама Дарим 3000 рублей за регистрацию, не упусти свой шанс получить шикарный бонус!!!

    30-03-2016 04:31 Кловерфилд, 10 Скачать торрент  

    Информация о фильме

    Название: Кловерфилд, 10

    Оригинальное название: 10 Cloverfield Lane

    Год выхода: 2016

    Жанр: ужасы, фантастика, триллер, драма, детектив

    Режиссер: Дэн Трактенберг

    Страна: США

    Студия: Bad Robot, Paramount Pictures, Spectrum Effects

    Продолжительность: 01:43:39

    Перевод: Любительский двухголосный

    В ролях: Джон Гудман, Мэри Элизабет Уинстэд, Джон Галлахер мл., Дуглас М. Гриффин, Сюзанн Крайер, Брэдли Купер, Сумали Монтано, Синди Хоган, Мат Ваиро

    Описание:

    Проснувшись после автомобильной аварии, девушка оказывается в подвале человека, утверждающего, что он спас ей жизнь от химической атаки, которая сделала мир за пределами бункера непригодным для жизни.

    Релиз без рекламы! Имеются вшитые испанские субтитры

    Файл

    Качество: CAMRipКодек: XviDВидео: MPEG4, XviD, 720x352 (2.045), 29.970 fps, 1 832 Kbps (0.241 bit/pixel)Аудио: MP3, 48.0 KHz, 2 ch, 128 Kbps, CBR

    Семпл

    Скачать Кловерфилд, 10 через торрент http://i75.fastpic.ru/big/2016/0329/bd/f8ece6b1f1e8d5d06468ad124b6110bd.jpg Скачать фильм Кловерфилд, 10 через торрент бесплантно в хорошем качестве Описание: Проснувшись после автомобильной аварии, девушка оказывается в подвале человека, утверждающего, что он спас ей жизнь от химической ... 2016-03-30 04:40 9.2 10 11

    Loading...

    Loading...

    Рекламный пират

    31-03-2016 01:40 Кловерфилд, 10 Скачать торрент  

    а что не калофильд то?

    02-04-2016 15:11 Кловерфилд, 10 Скачать торрент  

    Судя по фамилии режиссера - ШЫДЭВР!

    03-04-2016 12:43 Кловерфилд, 10 Скачать торрент  

    трейлер понравился, спецэфектов может и не будет, а история фильма прикольная

    05-04-2016 12:04 Кловерфилд, 10 Скачать торрент  

    фильм ни о чем!смело можно смотреть первые 10 минут и последние 5.середина вообще тягомотина!

    Дорогой пользователь! Огромная просьба, поблагодарите релизера, оцените раздачу и оставьте свои комментарий, если Вы скачали Кловерфилд, 10 через торрент бесплатно! Внесите свою лепту в развитие PiratBit!

    Комментировать посты могут только пользователи прошедшие не сложную регистрацию

    Кловерфилд, 10 через торрент Скачать бесплатно Кловерфилд, 10 Кловерфилд, 10 скачать торрент Кловерфилд, 10 смотреть онлайн Cкачать фильм Кловерфилд, 10 бесплатно Кловерфилд, 10 скачать торрент в хорошем качестве Кловерфилд, 10 смотреть онлайн бесплатно в хорошем качестве

    Вы можете начинать темыВы можете отвечать на сообщенияВы не можете редактировать свои сообщенияВы не можете удалять свои сообщенияВы не можете голосовать в опросахВы не можете прикреплять файлы к сообщениямВы можете скачивать файлы

    piratbit.ru

    Скачать фильм Кловерфилд, 10 через торрент в хорошем качестве бесплатно WEBRip

    Размер: 1.46 GB | Добавлен: 1 год 5 мес. назад | Торрент скачан:304 раза
    Реклама Дарим 3000 рублей за регистрацию, не упусти свой шанс получить шикарный бонус!!!

    05-05-2016 02:22 Кловерфилд, 10 Скачать торрент  

    Кловерфилд, 10 / 10 Cloverfield Lane ««Монстры бывают разные»» ИНФОРМАЦИЯ: Год выпуска:2016 Страна: США Жанр: ужасы, фантастика, триллер, драма, детектив Продолжительность: 01:43:18 Перевод: Дубляж - [Звук с CamRip] Режиссер: Дэн ТрактенбергВ Ролях: Джон Гудман (Howard), Мэри Элизабет Уинстэд (Michelle), Джон Галлахер мл. (Emmett), Дуглас М. Гриффин (Driver), Сюзанн Крайер (Leslie), Брэдли Купер (Ben, озвучка), Сумали Монтано (Voice on Radio, озвучка), Фрэнк Моттек (Radio Broadcaster, озвучка), Синди Хоган (Neighbor, в титрах не указана), Мат Ваиро (Jeremy, в титрах не указан)Описание: Проснувшись после автомобильной аварии, девушка оказывается в подвале человека, утверждающего, что он спас ей жизнь от химической атаки, которая сделала мир за пределами бункера непригодным для жизни.
  • Мировая премьера:8 марта 2016 ТЕХ.ДАННЫЕ: Качество: WEBRip Формат: AVI Видео: XviD, 720x304 (2.35:1), 1738 kbps, 29,970 fps, 0,265 bpp Аудио: AC3 / 2.0 / 48 kHz / 192 kbps / 16 bit GeneralComplete name : D:\Торент\KloveRR.10.2O16.D.WEBRip.1.46Gb_KOSHERA.aviFormat : AVIFormat/Info : Audio Video InterleaveFile size : 1.46 GiBDuration : 1h 43mnOverall bit rate : 2 020 KbpsWriting application : VirtualDubMod 1.5.10.2 (build 2540/release)Writing library : VirtualDubMod build 2540/release

    VideoID : 0Format : MPEG-4 VisualFormat profile : Advanced [email protected] settings, BVOP : 2Format settings, QPel : NoFormat settings, GMC : No warppointsFormat settings, Matrix : CustomCodec ID : XVIDCodec ID/Hint : XviDDuration : 1h 43mnBit rate : 1 739 KbpsWidth : 720 pixelsHeight : 304 pixelsDisplay aspect ratio : 2.35:1Frame rate : 29.970 fpsColor space : YUVChroma subsampling : 4:2:0Bit depth : 8 bitsScan type : ProgressiveCompression mode : LossyBits/(Pixel*Frame) : 0.265Stream size : 1.25 GiB (86%)Writing library : XviD 1.2.1 (UTC 2008-12-04)

    AudioID : 1Format : AC-3Format/Info : Audio Coding 3Mode extension : CM (complete main)Codec ID : 2000Duration : 1h 43mnBit rate mode : ConstantBit rate : 192 KbpsChannel(s) : 2 channelsChannel positions : Front: L RSampling rate : 48.0 KHzBit depth : 16 bitsCompression mode : LossyStream size : 142 MiB (10%)Alignment : Split accross interleaves

    Скриншоты: © Оформление by .::Ворон::.
  • !Ворон писал(а):

    Имеется реклама от спонсора показа.

    Скачать Кловерфилд, 10 через торрент http://pic.pb.wtf/images/6/ordi9.jpg Скачать фильм Кловерфилд, 10 через торрент бесплантно в хорошем качестве Описание: Проснувшись после автомобильной аварии, девушка оказывается в подвале человека, утверждающего, что он спас ей жизнь от химической ... 2016-05-05 02:22 8.7 10 12

    Loading...

    Loading...

    % Раздел Тема Автор DL S | L
    Фильмы (Blu-ray, BD-Remux, HDDVD) [ 22.23 GB ] Кловерфилд 10 / 10 Cloverfield Lane [2016 BD Remux 1080p] DUB [ Blu-Ray CEE] bober100 Скачать
    Фильмы [HD 720p, 1080p] (Хороший звук DUB, MVO) [ 4.37 GB ] Кловерфилд 10 / 10 Cloverfield Lane [2016 BDRip 720p] potroks Скачать
    Фильмы с авторской озвучкой [ 1.46 GB ] Кловерфилд 10 / 10 Cloverfield Lane [2016 BDRip] [AVO] killermax2013 Скачать
    Фильмы (Blu-ray, BD-Remux, HDDVD) [ 37.21 GB ] Кловерфилд 10 / 10 Cloverfield Lane [2016 Blu-Ray CEE] лицензия Russian Mafia Скачать
    R.G.Resident - Фильмы, Видео [ 2.24 GB ] Кловерфилд 10 / 10 Cloverfield Lane [2016 BDRip-AVC ] schultz Скачать
    Фильмы [HD 720p, 1080p] (Хороший звук DUB, MVO) [ 7.74 GB ] Кловерфилд 10 / 10 Cloverfield Lane [2016 BDRip 1080p от NNNB / ] Ворон Скачать
    Фильмы 2016 [DVDrip, WEB-DLRip, HDrip] (DUB, MVO) [ 1.46 GB ] Кловерфилд 10 / 10 Cloverfield Lane [2016 BDRip / ] Ворон Скачать

    Рекламный пират

    05-05-2016 02:27 Кловерфилд, 10 Скачать торрент  

    06-05-2016 08:49 Кловерфилд, 10 Скачать торрент  

    смотреть интересно первые 10 мин и последние,середина ни о чем!Тягомотина!!

    07-05-2016 04:41 Кловерфилд, 10 Скачать торрент  

    Adelus писал(а):

    смотреть интересно первые 10 мин и последние,середина ни о чем!Тягомотина!!Согласен, считаю рейтинг по кинопоиску завышенный максимум на 5 из 10

    07-05-2016 12:40 Кловерфилд, 10 Скачать торрент  

    фильм чёткий, по семплу звук гавёный...

    Дорогой пользователь! Огромная просьба, поблагодарите релизера, оцените раздачу и оставьте свои комментарий, если Вы скачали Кловерфилд, 10 через торрент бесплатно! Внесите свою лепту в развитие PiratBit!

    Комментировать посты могут только пользователи прошедшие не сложную регистрацию

    Кловерфилд, 10 через торрент Скачать бесплатно Кловерфилд, 10 Кловерфилд, 10 скачать торрент Кловерфилд, 10 смотреть онлайн Cкачать фильм Кловерфилд, 10 бесплатно Кловерфилд, 10 скачать торрент в хорошем качестве Кловерфилд, 10 смотреть онлайн бесплатно в хорошем качестве

    Вы можете начинать темыВы можете отвечать на сообщенияВы не можете редактировать свои сообщенияВы не можете удалять свои сообщенияВы не можете голосовать в опросахВы не можете прикреплять файлы к сообщениямВы можете скачивать файлы

    piratbit.ru


    Смотрите также