Скачать кикбоксер 1989 через торрент бесплатно в хорошем качестве


Скачать фильм Кикбоксер (1989) через торрент

gig-torrent.net

15 июля 2016 12:16 Кикбоксер / Kickboxer (1989) Blu-ray 1080p от BLUEBIRD | P, L, A .torrent   [Информация о файле (нажмите для просмотра)] Перевод: Профессиональный (многоголосый закадровый)[СТС] + Профессиональный (многоголосый закадровый)[НТВ] + Любительский (двухголосый закадровый)[Music-Traid] + Авторский (одноголосый закадровый)[А.Гаврилов] + Оригинал (Английский)Субтитры: Русские[PGS]Качество: Blu-ray 1080pФормат: BDMVВидео: 1920x1080 (16:9), 23.976 fps, VC-1 Video, ~18039 kbps, Advanced Profile 3Аудио#1: DTS-HD Audio English 2046 kbps 5.1 / 48 kHz / 2046 kbps / 24-bit (DTS Core: 5.1 / 48 kHz / 1509 kbps / 24-bit)Аудио#2: DTS-HD Audio Russian 2046 kbps 5.1 / 48 kHz / 2046 kbps / 24-bit (DTS Core: 5.1 / 48 kHz / 1509 kbps / 24-bit) |Любительский (двухголосый закадровый), Music-Traid|Аудио#3: DTS-HD Audio Russian 2046 kbps 5.1 / 48 kHz / 2046 kbps / 24-bit (DTS Core: 5.1 / 48 kHz / 1509 kbps / 24-bit) |Автоский (одноголосый закадровый), А.Гаврилов|Аудио#4: Dolby Digital Audio Russian 192 kbps 2.0 / 48 kHz / 192 kbps |Профессиональный (многоголосый закадровый), СТС|Аудио#5: Dolby Digital Audio Russian 192 kbps 2.0 / 48 kHz / 192 kbps |Профессиональный (многоголосый закадровый), НТВ| 19,44 Gb 4 6
15 июля 2016 12:16 Кикбоксер / Kickboxer (1989) BDRip-AVC от 0ptimus | P, P2, A .torrent   [Информация о файле (нажмите для просмотра)] Перевод: Профессиональный многоголосый, профессиональный двухголосый, авторскийКодек: h364Качество: BDRip-AVCВидео: 2762 Кбит/с, 1024x554, 23.976 кадр/сЗвук: • №1: Русский (AC3, 2 ch, 192 Кбит/с) Профессиональный многоголосый [CTC, студия "Нота"] • №2: Русский (AC3, 6 ch, 384 Кбит/с) Профессиональный двухголосый [Cental PartnerShip, студия "Инис"] • №3: Русский (AC3, 6 ch, 384 Кбит/с) Авторский [Андрей Гаврилов] • №4: Английский (AC3, 6 ch, 384 Кбит/с) Отдельно: • №5: Русский (AC3, 2 ch, 192 Кбит/с) Профессиональный двухголосый [Music Trade] • №6: Русский (AC3, 2 ch, 192 Кбит/с) Авторский [Вартан Дохалов] • №7: Русский (AC3, 2 ch, 192 Кбит/с) Авторский [Леонид Володарский] • №8: Русский (AC3, 2 ch, 192 Кбит/с) Авторский [Григорий Либергал]Субтитры: Русские (2 вида), английские (2 вида)Видео: Идентификатор : 1 Формат : AVC Формат/Информация : Advanced Video Codec Профиль формата : [email protected] Параметр CABAC формата : Да Параметр ReFrames формата : 9 кадров Идентификатор кодека : V_MPEG4/ISO/AVC Продолжительность : 1 ч. 37 м. Битрейт : 2762 Кбит/сек Ширина : 1024 пикселя Высота : 554 пикселя Соотношение сторон : 1,85:1 Режим частоты кадров : Постоянный Частота кадров : 23,976 кадра/сек Цветовое пространство : YUV Субдискретизация насыщенности : 4:2:0 Битовая глубина : 8 бит Тип развёртки : Прогрессивная Бит/(Пиксели*Кадры) : 0.203 Размер потока : 1,83 Гбайт (65%) Заголовок : Rip by 0ptimus Библиотека кодирования : x264 core 125 r2208 d9d2288 Настройки программы : cabac=1 / ref=9 / deblock=1:-3:-3 / analyse=0x3:0x113 / me=umh / subme=11 / psy=1 / psy_rd=1.00:0.20 / mixed_ref=1 / me_range=48 / chroma_me=1 / trellis=2 / 8x8dct=1 / cqm=0 / deadzone=21,11 / fast_pskip=0 / chroma_qp_offset=-3 / threads=4 / lookahead_threads=1 / sliced_threads=0 / nr=0 / decimate=0 / interlaced=0 / bluray_compat=0 / constrained_intra=0 / bframes=12 / b_pyramid=2 / b_adapt=2 / b_bias=0 / direct=3 / weightb=1 / open_gop=0 / weightp=2 / keyint=240 / keyint_min=23 / scenecut=40 / intra_refresh=0 / rc_lookahead=40 / rc=2pass / mbtree=0 / bitrate=2762 / ratetol=1.0 / qcomp=0.60 / qpmin=0 / qpmax=69 / qpstep=4 / cplxblur=20.0 / qblur=0.5 / vbv_maxrate=50000 / vbv_bufsize=50000 / nal_hrd=none / ip_ratio=1.40 / pb_ratio=1.30 / aq=1:1.00 Язык : English Default : Да Forced : ДаАудио #1: Идентификатор : 2 Формат : AC-3 Формат/Информация : Audio Coding 3 Расширение режима : CM (complete main) Параметр Endianness формата : Big Идентификатор кодека : A_AC3 Продолжительность : 1 ч. 37 м. Вид битрейта : Постоянный Битрейт : 192 Кбит/сек Каналы : 2 канала Расположение каналов : Front: L R Частота : 48,0 КГц Битовая глубина : 16 бит Метод сжатия : С потерями Размер потока : 134 Мбайт (5%) Заголовок : Многоголосый [CTC, студия "Нота"] AC3 2.0 @ 192 kbps Язык : Russian Default : Да Forced : ДаАудио #2: Идентификатор : 3 Формат : AC-3 Формат/Информация : Audio Coding 3 Расширение режима : CM (complete main) Параметр Endianness формата : Big Идентификатор кодека : A_AC3 Продолжительность : 1 ч. 37 м. Вид битрейта : Постоянный Битрейт : 384 Кбит/сек Каналы : 6 каналов Расположение каналов : Front: L C R, Side: L R, LFE Частота : 48,0 КГц Битовая глубина : 16 бит Метод сжатия : С потерями Размер потока : 268 Мбайт (9%) Заголовок : Двухголосый [Cental PartnerShip, студия "Инис"] AC3 5.1 @ 384 kbps Язык : Russian Default : Нет Forced : НетАудио #3: Идентификатор : 4 Формат : AC-3 Формат/Информация : Audio Coding 3 Расширение режима : CM (complete main) Параметр Endianness формата : Big Идентификатор кодека : A_AC3 Продолжительность : 1 ч. 37 м. Вид битрейта : Постоянный Битрейт : 384 Кбит/сек Каналы : 6 каналов Расположение каналов : Front: L C R, Side: L R, LFE Частота : 48,0 КГц Битовая глубина : 16 бит Метод сжатия : С потерями Размер потока : 268 Мбайт (9%) Заголовок : Авторский [Андрей Гаврилов] AC3 5.1 @ 384 kbps Язык : Russian Default : Нет Forced : НетАудио #4: Идентификатор : 5 Формат : AC-3 Формат/Информация : Audio Coding 3 Расширение режима : CM (complete main) Параметр Endianness формата : Big Идентификатор кодека : A_AC3 Продолжительность : 1 ч. 37 м. Вид битрейта : Постоянный Битрейт : 384 Кбит/сек Каналы : 6 каналов Расположение каналов : Front: L C R, Side: L R, LFE Частота : 48,0 КГц Битовая глубина : 16 бит Метод сжатия : С потерями Размер потока : 268 Мбайт (9%) Заголовок : AC3 5.1 @ 384 kbps Язык : English Default : Нет Forced : Нет 3,32 Gb 4 3
15 июля 2016 12:16 Кикбоксёр / Kickboxer (1989) BDRip 1080p by msltel | P, P2, A, L1 .torrent   [Информация о файле (нажмите для просмотра)] Перевод: Профессиональный многоголосый, профессиональный двухголосый, авторский, любительский одноголосыйСубтитры: русские (2 варианта), английские (2 варианта) (все отдельно)Качество: BDRip 1080pСравнение с исходникомФормат: MKVВидео: 1920x1040, 13.6 M kbps, 23.976 кадра/с, 0.283 bppАудио 1: русский, AC3, 192 kbps, 2 ch, 48 kHz [профессиональный многоголосый, студия Нота по заказу CTC]Аудио 2: русский, DTS, 1509 kbps, 6 ch, 48 kHz [профессиональный двухголосый, Music-Traid]Аудио 3: русский, AC3, 192 kbps, 2 ch, 48 kHz [авторский, Леонид Володарский]Аудио 4: русский, DTS, 1509 kbps, 6 ch, 48 kHz [авторский, Андрей Гаврилов]Аудио: русский, AC3, 448 kbps, 6 ch, 48 kHz [профессиональный двухголосый, Music-Traid]Аудио: русский, AC3, 192 kbps, 2 ch, 48 kHz [профессиональный двухголосый, Инис]Аудио: русский, AC3, 448 kbps, 6 ch, 48 kHz [авторский, Андрей Гаврилов]Аудио: русский, AC3, 192 kbps, 2 ch, 48 kHz [авторский, Вартан Дохалов]Аудио: русский, AC3, 448 kbps, 6 ch, 48 kHz [авторский, Григорий Либергал]Аудио: русский, AC3, 192 kbps, 2 ch, 48 kHz [одноголосый закадровый, вариант 1, неопределён]Аудио: русский, AC3, 192 kbps, 2 ch, 48 kHz [одноголосый закадровый, вариант 2, неопределён]Аудио: русский, AC3, 192 kbps, 2 ch, 48 kHz [одноголосый закадровый, вариант 3, неопределён]Аудио: английский, DTS, 1509 kbps, 6 ch, 48 kHz [оригинал]Аудио: Формат : AC-3 Формат/Информация : Audio Coding 3 Расширение режима : CM (complete main) Параметр Endianness формата : Big Продолжительность : 1 ч. 37 м. Вид битрейта : Постоянный Битрейт : 448 Кбит/сек Каналы : 6 каналов Расположение каналов : Front: L C R, Side: L R, LFE Частота : 48,0 КГц Битовая глубина : 16 бит Метод сжатия : С потерями Размер потока : 312 Мбайт (100%)Аудио: Формат : AC-3 Формат/Информация : Audio Coding 3 Расширение режима : CM (complete main) Параметр Endianness формата : Big Продолжительность : 1 ч. 37 м. Вид битрейта : Постоянный Битрейт : 192 Кбит/сек Каналы : 2 канала Расположение каналов : Front: L R Частота : 48,0 КГц Битовая глубина : 16 бит Метод сжатия : С потерями Размер потока : 134 Мбайт (100%)Аудио: Формат : AC-3 Формат/Информация : Audio Coding 3 Расширение режима : CM (complete main) Параметр Endianness формата : Big Продолжительность : 1 ч. 37 м. Вид битрейта : Постоянный Битрейт : 192 Кбит/сек Каналы : 2 канала Расположение каналов : Front: L R Частота : 48,0 КГц Битовая глубина : 16 бит Метод сжатия : С потерями Размер потока : 134 Мбайт (100%)Видео: Идентификатор : 1 Формат : AVC Формат/Информация : Advanced Video Codec Профиль формата : [email protected] Параметр CABAC формата : Да Параметр ReFrames формата : 4 кадра Идентификатор кодека : V_MPEG4/ISO/AVC Продолжительность : 1 ч. 37 м. Битрейт : 13,6 Мбит/сек Ширина : 1920 пикселей Высота : 1040 пикселей Соотношение сторон : 1,85:1 Режим частоты кадров : Постоянный Частота кадров : 23,976 кадра/сек Цветовое пространство : YUV Субдискретизация насыщенности : 4:2:0 Битовая глубина : 8 бит Тип развёртки : Прогрессивная Бит/(Пиксели*Кадры) : 0.283 Размер потока : 9,24 Гбайт (78%) Заголовок : BDRip -- STarankov Библиотека кодирования : x264 core 142 r2431 ac76440 Настройки программы : cabac=1 / ref=4 / deblock=1:-1:-1 / analyse=0x3:0x113 / me=umh / subme=10 / psy=1 / psy_rd=1.00:0.15 / mixed_ref=1 / me_range=32 / chroma_me=1 / trellis=2 / 8x8dct=1 / cqm=0 / deadzone=21,11 / fast_pskip=0 / chroma_qp_offset=-3 / threads=6 / lookahead_threads=1 / sliced_threads=0 / nr=0 / decimate=1 / interlaced=0 / bluray_compat=0 / constrained_intra=0 / bframes=8 / b_pyramid=2 / b_adapt=2 / b_bias=0 / direct=1 / weightb=1 / open_gop=0 / weightp=2 / keyint=230 / keyint_min=23 / scenecut=40 / intra_refresh=0 / rc_lookahead=40 / rc=crf / mbtree=0 / crf=19.0 / qcomp=0.60 / qpmin=0 / qpmax=69 / qpstep=4 / vbv_maxrate=40000 / vbv_bufsize=50000 / crf_max=0.0 / nal_hrd=none / filler=0 / ip_ratio=1.40 / pb_ratio=1.30 / aq=1:1.00 Язык : English Default : Да Forced : НетАудио #1: Идентификатор : 2 Формат : AC-3 Формат/Информация : Audio Coding 3 Расширение режима : CM (complete main) Параметр Endianness формата : Big Идентификатор кодека : A_AC3 Продолжительность : 1 ч. 37 м. Вид битрейта : Постоянный Битрейт : 192 Кбит/сек Каналы : 2 канала Расположение каналов : Front: L R Частота : 48,0 КГц Битовая глубина : 16 бит Метод сжатия : С потерями Размер потока : 134 Мбайт (1%) Заголовок : MVO (студия Нота по заказу CTC) Язык : Russian Default : Да Forced : НетАудио #2: Идентификатор : 3 Формат : DTS Формат/Информация : Digital Theater Systems Режим : 16 Параметр Endianness формата : Big Идентификатор кодека : A_DTS Продолжительность : 1 ч. 37 м. Вид битрейта : Постоянный Битрейт : 1509 Кбит/сек Каналы : 6 каналов Расположение каналов : Front: L C R, Side: L R, LFE Частота : 48,0 КГц Битовая глубина : 24 бит Метод сжатия : С потерями Размер потока : 1,03 Гбайт (9%) Заголовок : DVO (Music-Traid) Язык : Russian Default : Нет Forced : НетАудио #3: Идентификатор : 4 Формат : AC-3 Формат/Информация : Audio Coding 3 Расширение режима : CM (complete main) Параметр Endianness формата : Big Идентификатор кодека : A_AC3 Продолжительность : 1 ч. 37 м. Вид битрейта : Постоянный Битрейт : 192 Кбит/сек Каналы : 2 канала Расположение каналов : Front: L R Частота : 48,0 КГц Битовая глубина : 16 бит Метод сжатия : С потерями Размер потока : 134 Мбайт (1%) Заголовок : AVO (Леонид Володарский) Язык : Russian Default : Нет Forced : НетАудио #4: Идентификатор : 5 Формат : DTS Формат/Информация : Digital Theater Systems Режим : 16 Параметр Endianness формата : Big Идентификатор кодека : A_DTS Продолжительность : 1 ч. 37 м. Вид битрейта : Постоянный Битрейт : 1509 Кбит/сек Каналы : 6 каналов Расположение каналов : Front: L C R, Side: L R, LFE Частота : 48,0 КГц Битовая глубина : 24 бит Метод сжатия : С потерями Размер потока : 1,03 Гбайт (9%) Заголовок : AVO (Андрей Гаврилов) Язык : Russian Default : Нет Forced : НетАудио: Формат : AC-3 Формат/Информация : Audio Coding 3 Расширение режима : CM (complete main) Параметр Endianness формата : Big Продолжительность : 1 ч. 37 м. Вид битрейта : Постоянный Битрейт : 448 Кбит/сек Каналы : 6 каналов Расположение каналов : Front: L C R, Side: L R, LFE Частота : 48,0 КГц Битовая глубина : 16 бит Метод сжатия : С потерями Размер потока : 312 Мбайт (100%)Аудио: Формат : AC-3 Формат/Информация : Audio Coding 3 Расширение режима : CM (complete main) Параметр Endianness формата : Big Продолжительность : 1 ч. 37 м. Вид битрейта : Постоянный Битрейт : 192 Кбит/сек Каналы : 2 канала Расположение каналов : Front: L R Частота : 48,0 КГц Битовая глубина : 16 бит Метод сжатия : С потерями Размер потока : 134 Мбайт (100%)Аудио: Формат : DTS Формат/Информация : Digital Theater Systems Режим : 16 Параметр Endianness формата : Big Продолжительность : 1 ч. 37 м. Вид битрейта : Постоянный Битрейт : 1509 Кбит/сек Каналы : 6 каналов Расположение каналов : Front: L C R, Side: L R, LFE Частота : 48,0 КГц Битовая глубина : 24 бит Метод сжатия : С потерями Размер потока : 1,03 Гбайт (100%)Аудио: Формат : AC-3 Формат/Информация : Audio Coding 3 Расширение режима : CM (complete main) Параметр Endianness формата : Big Продолжительность : 1 ч. 37 м. Вид битрейта : Постоянный Битрейт : 192 Кбит/сек Каналы : 2 канала Расположение каналов : Front: L R Частота : 48,0 КГц Битовая глубина : 16 бит Метод сжатия : С потерями Размер потока : 134 Мбайт (100%)Аудио: Формат : AC-3 Формат/Информация : Audio Coding 3 Расширение режима : CM (complete main) Параметр Endianness формата : Big Продолжительность : 1 ч. 37 м. Вид битрейта : Постоянный Битрейт : 192 Кбит/сек Каналы : 2 канала Расположение каналов : Front: L R Частота : 48,0 КГц Битовая глубина : 16 бит Метод сжатия : С потерями Размер потока : 134 Мбайт (100%)Аудио: Формат : AC-3 Формат/Информация : Audio Coding 3 Расширение режима : CM (complete main) Параметр Endianness формата : Big Продолжительность : 1 ч. 37 м. Вид битрейта : Постоянный Битрейт : 192 Кбит/сек Каналы : 2 канала Расположение каналов : Front: L R Частота : 48,0 КГц Битовая глубина : 16 бит Метод сжатия : С потерями Размер потока : 134 Мбайт (100%)Скриншоты 14,21 Gb 3 4
15 июля 2016 12:16 Кикбоксёр / Kickboxer (1989) BDRip 720p by msltel | P, P2, A, L1 .torrent   [Информация о файле (нажмите для просмотра)] Качество: BDRip 720pСравнение с исходникомВидео: MPEG-4 AVC, 6056 Кбит/с, 1280x694, 23,976 кадра/с, 0.284 bppАудио 1: русский, AC3, 192 kbps, 2 ch, 48 kHz [профессиональный многоголосый, студия Нота по заказу CTC]Аудио 2: русский, AC3, 448 kbps, 6 ch, 48 kHz [профессиональный двухголосый, Music-Traid]Аудио 3: русский, AC3, 192 kbps, 2 ch, 48 kHz [авторский, Леонид Володарский]Аудио 4: русский, AC3, 448 kbps, 6 ch, 48 kHz [авторский, Андрей Гаврилов]Аудио: русский, DTS, 1509 kbps, 6 ch, 48 kHz [профессиональный двухголосый, Music-Traid]Аудио: русский, AC3, 192 kbps, 2 ch, 48 kHz [профессиональный двухголосый, Инис]Аудио: русский, DTS, 1509 kbps, 6 ch, 48 kHz [авторский, Андрей Гаврилов]Аудио: русский, AC3, 192 kbps, 2 ch, 48 kHz [авторский, Вартан Дохалов]Аудио: русский, AC3, 448 kbps, 6 ch, 48 kHz [авторский, Григорий Либергал]Аудио: русский, AC3, 192 kbps, 2 ch, 48 kHz [одноголосый закадровый, вариант 1, неопределён]Аудио: русский, AC3, 192 kbps, 2 ch, 48 kHz [одноголосый закадровый, вариант 2, неопределён]Аудио: русский, AC3, 192 kbps, 2 ch, 48 kHz [одноголосый закадровый, вариант 3, неопределён]Аудио: английский, AC3, 448 kbps, 6 ch, 48 kHz [оригинал]Субтитры: русские (2 варианта)Субтитры: английские (2 варианта)Аудио: Формат : DTS Формат/Информация : Digital Theater Systems Режим : 16 Параметр Endianness формата : Big Продолжительность : 1 ч. 37 м. Вид битрейта : Постоянный Битрейт : 1509 Кбит/сек Каналы : 6 каналов Расположение каналов : Front: L C R, Side: L R, LFE Частота : 48,0 КГц Битовая глубина : 24 бит Метод сжатия : С потерями Размер потока : 1,03 Гбайт (100%)Аудио: Формат : AC-3 Формат/Информация : Audio Coding 3 Расширение режима : CM (complete main) Параметр Endianness формата : Big Продолжительность : 1 ч. 37 м. Вид битрейта : Постоянный Битрейт : 192 Кбит/сек Каналы : 2 канала Расположение каналов : Front: L R Частота : 48,0 КГц Битовая глубина : 16 бит Метод сжатия : С потерями Размер потока : 134 Мбайт (100%)Аудио: Формат : AC-3 Формат/Информация : Audio Coding 3 Расширение режима : CM (complete main) Параметр Endianness формата : Big Продолжительность : 1 ч. 37 м. Вид битрейта : Постоянный Битрейт : 192 Кбит/сек Каналы : 2 канала Расположение каналов : Front: L R Частота : 48,0 КГц Битовая глубина : 16 бит Метод сжатия : С потерями Размер потока : 134 Мбайт (100%)Видео: Идентификатор : 1 Формат : AVC Формат/Информация : Advanced Video Codec Профиль формата : [email protected] Параметр CABAC формата : Да Параметр ReFrames формата : 9 кадров Идентификатор кодека : V_MPEG4/ISO/AVC Продолжительность : 1 ч. 37 м. Битрейт : 6056 Кбит/сек Ширина : 1280 пикселей Высота : 694 пикселя Соотношение сторон : 1,85:1 Режим частоты кадров : Постоянный Частота кадров : 23,976 кадра/сек Цветовое пространство : YUV Субдискретизация насыщенности : 4:2:0 Битовая глубина : 8 бит Тип развёртки : Прогрессивная Бит/(Пиксели*Кадры) : 0.284 Размер потока : 4,12 Гбайт (81%) Заголовок : BDRip -- STarankov Библиотека кодирования : x264 core 142 r2431 ac76440 Настройки программы : cabac=1 / ref=9 / deblock=1:-1:-1 / analyse=0x3:0x113 / me=umh / subme=10 / psy=1 / psy_rd=1.00:0.15 / mixed_ref=1 / me_range=32 / chroma_me=1 / trellis=2 / 8x8dct=1 / cqm=0 / deadzone=21,11 / fast_pskip=0 / chroma_qp_offset=-3 / threads=6 / lookahead_threads=1 / sliced_threads=0 / nr=0 / decimate=1 / interlaced=0 / bluray_compat=0 / constrained_intra=0 / bframes=8 / b_pyramid=2 / b_adapt=2 / b_bias=0 / direct=1 / weightb=1 / open_gop=0 / weightp=2 / keyint=230 / keyint_min=23 / scenecut=40 / intra_refresh=0 / rc_lookahead=40 / rc=crf / mbtree=0 / crf=19.0 / qcomp=0.60 / qpmin=0 / qpmax=69 / qpstep=4 / vbv_maxrate=40000 / vbv_bufsize=50000 / crf_max=0.0 / nal_hrd=none / filler=0 / ip_ratio=1.40 / pb_ratio=1.30 / aq=1:1.00 Язык : English Default : Да Forced : НетАудио #1: Идентификатор : 2 Формат : AC-3 Формат/Информация : Audio Coding 3 Расширение режима : CM (complete main) Параметр Endianness формата : Big Идентификатор кодека : A_AC3 Продолжительность : 1 ч. 37 м. Вид битрейта : Постоянный Битрейт : 192 Кбит/сек Каналы : 2 канала Расположение каналов : Front: L R Частота : 48,0 КГц Битовая глубина : 16 бит Метод сжатия : С потерями Размер потока : 134 Мбайт (3%) Заголовок : MVO (студия Нота по заказу CTC) Язык : Russian Default : Да Forced : НетАудио #2: Идентификатор : 3 Формат : AC-3 Формат/Информация : Audio Coding 3 Расширение режима : CM (complete main) Параметр Endianness формата : Big Идентификатор кодека : A_AC3 Продолжительность : 1 ч. 37 м. Вид битрейта : Постоянный Битрейт : 448 Кбит/сек Каналы : 6 каналов Расположение каналов : Front: L C R, Side: L R, LFE Частота : 48,0 КГц Битовая глубина : 16 бит Метод сжатия : С потерями Размер потока : 312 Мбайт (6%) Заголовок : DVO (Music-Traid) Язык : Russian Default : Нет Forced : НетАудио #3: Идентификатор : 4 Формат : AC-3 Формат/Информация : Audio Coding 3 Расширение режима : CM (complete main) Параметр Endianness формата : Big Идентификатор кодека : A_AC3 Продолжительность : 1 ч. 37 м. Вид битрейта : Постоянный Битрейт : 192 Кбит/сек Каналы : 2 канала Расположение каналов : Front: L R Частота : 48,0 КГц Битовая глубина : 16 бит Метод сжатия : С потерями Размер потока : 134 Мбайт (3%) Заголовок : AVO (Леонид Володарский) Язык : Russian Default : Нет Forced : НетАудио #4: Идентификатор : 5 Формат : AC-3 Формат/Информация : Audio Coding 3 Расширение режима : CM (complete main) Параметр Endianness формата : Big Идентификатор кодека : A_AC3 Продолжительность : 1 ч. 37 м. Вид битрейта : Постоянный Битрейт : 448 Кбит/сек Каналы : 6 каналов Расположение каналов : Front: L C R, Side: L R, LFE Частота : 48,0 КГц Битовая глубина : 16 бит Метод сжатия : С потерями Размер потока : 312 Мбайт (6%) Заголовок : AVO (Андрей Гаврилов) Язык : Russian Default : Нет Forced : НетАудио: Формат : DTS Формат/Информация : Digital Theater Systems Режим : 16 Параметр Endianness формата : Big Продолжительность : 1 ч. 37 м. Вид битрейта : Постоянный Битрейт : 1509 Кбит/сек Каналы : 6 каналов Расположение каналов : Front: L C R, Side: L R, LFE Частота : 48,0 КГц Битовая глубина : 24 бит Метод сжатия : С потерями Размер потока : 1,03 Гбайт (100%)Аудио: Формат : AC-3 Формат/Информация : Audio Coding 3 Расширение режима : CM (complete main) Параметр Endianness формата : Big Продолжительность : 1 ч. 37 м. Вид битрейта : Постоянный Битрейт : 192 Кбит/сек Каналы : 2 канала Расположение каналов : Front: L R Частота : 48,0 КГц Битовая глубина : 16 бит Метод сжатия : С потерями Размер потока : 134 Мбайт (100%)Аудио: Формат : AC-3 Формат/Информация : Audio Coding 3 Расширение режима : CM (complete main) Параметр Endianness формата : Big Продолжительность : 1 ч. 37 м. Вид битрейта : Постоянный Битрейт : 448 Кбит/сек Каналы : 6 каналов Расположение каналов : Front: L C R, Side: L R, LFE Частота : 48,0 КГц Битовая глубина : 16 бит Метод сжатия : С потерями Размер потока : 312 Мбайт (100%)Аудио: Формат : AC-3 Формат/Информация : Audio Coding 3 Расширение режима : CM (complete main) Параметр Endianness формата : Big Продолжительность : 1 ч. 37 м. Вид битрейта : Постоянный Битрейт : 192 Кбит/сек Каналы : 2 канала Расположение каналов : Front: L R Частота : 48,0 КГц Битовая глубина : 16 бит Метод сжатия : С потерями Размер потока : 134 Мбайт (100%)Аудио: Формат : AC-3 Формат/Информация : Audio Coding 3 Расширение режима : CM (complete main) Параметр Endianness формата : Big Продолжительность : 1 ч. 37 м. Вид битрейта : Постоянный Битрейт : 192 Кбит/сек Каналы : 2 канала Расположение каналов : Front: L R Частота : 48,0 КГц Битовая глубина : 16 бит Метод сжатия : С потерями Размер потока : 134 Мбайт (100%)Аудио: Формат : AC-3 Формат/Информация : Audio Coding 3 Расширение режима : CM (complete main) Параметр Endianness формата : Big Продолжительность : 1 ч. 37 м. Вид битрейта : Постоянный Битрейт : 192 Кбит/сек Каналы : 2 канала Расположение каналов : Front: L R Частота : 48,0 КГц Битовая глубина : 16 бит Метод сжатия : С потерями Размер потока : 134 Мбайт (100%)Скриншоты 8,24 Gb 3 2
15 июля 2016 12:16 Кикбоксер / Kickboxer (1989) BDRip 1080p | P, P1, P2 .torrent   [Информация о файле (нажмите для просмотра)] Перевод: Профессиональный многоголосый закадровый + Профессиональный двухголосый закадровый + Профессиональный одноголосый закадровый + ОригиналКодек: x264Качество: BDRip (источник: BD-Remux)Видео: 1920x1040 (1,85:1), 23.976 fps, 9982 kbpsАудио #1: AC-3, 2 ch, 192 kbps (Rus) MVO СТСАудио #2: AC-3, 2 ch, 192 kbps (Rus) MVO НТВАудио #3: AC-3, 2 ch, 192 kbps (Rus) DVO Music TraidАудио #4: AC-3, 2 ch, 192 kbps (Rus) Андрей ГавриловАудио #5: AC-3, 6 ch, 640 kbps (Eng) ОригиналСубтитры: Русские, АнглийскиеВидео: Идентификатор : 1 Формат : AVC Формат/Информация : Advanced Video Codec Профиль формата : [email protected] Параметр CABAC формата : Да Параметр ReFrames формата : 4 кадра Идентификатор кодека : V_MPEG4/ISO/AVC Продолжительность : 1 ч. 37 м. Битрейт : 9982 Кбит/сек Ширина : 1920 пикселей Высота : 1040 пикселей Соотношение сторон : 1,85:1 Режим частоты кадров : Постоянный Частота кадров : 23,976 кадра/сек Цветовое пространство : YUV Субдискретизация насыщенности : 4:2:0 Битовая глубина : 8 бит Тип развёртки : Прогрессивная Бит/(Пиксели*Кадры) : 0.209 Размер потока : 6,64 Гбайт (86%) Заголовок : Release by N1NT3NDO Библиотека кодирования : x264 core 130 r2273 b3065e6 Настройки программы : cabac=1 / ref=4 / deblock=1:-3:-3 / analyse=0x3:0x113 / me=umh / subme=10 / psy=1 / psy_rd=1.00:0.00 / mixed_ref=1 / me_range=32 / chroma_me=1 / trellis=2 / 8x8dct=1 / cqm=0 / deadzone=21,11 / fast_pskip=0 / chroma_qp_offset=-2 / threads=12 / lookahead_threads=1 / sliced_threads=0 / nr=0 / decimate=0 / interlaced=0 / bluray_compat=0 / constrained_intra=0 / bframes=5 / b_pyramid=2 / b_adapt=2 / b_bias=0 / direct=2 / weightb=1 / open_gop=0 / weightp=2 / keyint=240 / keyint_min=23 / scenecut=40 / intra_refresh=0 / rc_lookahead=80 / rc=2pass / mbtree=1 / bitrate=9982 / ratetol=1.0 / qcomp=0.60 / qpmin=0 / qpmax=69 / qpstep=4 / cplxblur=20.0 / qblur=0.5 / ip_ratio=1.40 / aq=1:0.70 Язык : English Default : Да Forced : НетАудио #1: Идентификатор : 2 Формат : AC-3 Формат/Информация : Audio Coding 3 Расширение режима : CM (complete main) Параметр Endianness формата : Big Идентификатор кодека : A_AC3 Продолжительность : 1 ч. 37 м. Вид битрейта : Постоянный Битрейт : 192 Кбит/сек Каналы : 2 канала Расположение каналов : Front: L R Частота : 48,0 КГц Битовая глубина : 16 бит Метод сжатия : С потерями Размер потока : 134 Мбайт (2%) Заголовок : Rus (СТС) Язык : Russian Default : Да Forced : НетАудио #2: Идентификатор : 3 Формат : AC-3 Формат/Информация : Audio Coding 3 Расширение режима : CM (complete main) Параметр Endianness формата : Big Идентификатор кодека : A_AC3 Продолжительность : 1 ч. 37 м. Вид битрейта : Постоянный Битрейт : 192 Кбит/сек Каналы : 2 канала Расположение каналов : Front: L R Частота : 48,0 КГц Битовая глубина : 16 бит Метод сжатия : С потерями Размер потока : 134 Мбайт (2%) Заголовок : Rus (НТВ) Язык : Russian Default : Нет Forced : НетАудио #3: Идентификатор : 4 Формат : AC-3 Формат/Информация : Audio Coding 3 Расширение режима : CM (complete main) Параметр Endianness формата : Big Идентификатор кодека : A_AC3 Продолжительность : 1 ч. 37 м. Вид битрейта : Постоянный Битрейт : 192 Кбит/сек Каналы : 2 канала Расположение каналов : Front: L R Частота : 48,0 КГц Битовая глубина : 16 бит Метод сжатия : С потерями Размер потока : 134 Мбайт (2%) Заголовок : Rus (Music Traid) Язык : Russian Default : Нет Forced : НетАудио #4: Идентификатор : 5 Формат : AC-3 Формат/Информация : Audio Coding 3 Расширение режима : CM (complete main) Параметр Endianness формата : Big Идентификатор кодека : A_AC3 Продолжительность : 1 ч. 37 м. Вид битрейта : Постоянный Битрейт : 192 Кбит/сек Каналы : 2 канала Расположение каналов : Front: L R Частота : 48,0 КГц Битовая глубина : 16 бит Метод сжатия : С потерями Размер потока : 134 Мбайт (2%) Заголовок : Rus (Гаврилов) Язык : Russian Default : Нет Forced : НетАудио #5: Идентификатор : 6 Формат : AC-3 Формат/Информация : Audio Coding 3 Расширение режима : CM (complete main) Параметр Endianness формата : Big Идентификатор кодека : A_AC3 Продолжительность : 1 ч. 37 м. Вид битрейта : Постоянный Битрейт : 640 Кбит/сек Каналы : 6 каналов Расположение каналов : Front: L C R, Side: L R, LFE Частота : 48,0 КГц Битовая глубина : 16 бит Метод сжатия : С потерями Размер потока : 446 Мбайт (6%) Заголовок : Eng Язык : English Default : Нет Forced : Нет 7,76 Gb 7 3
15 июля 2016 12:16 Кикбоксер / Kickboxer (1989) BDRip-AVC .torrent   [Информация о файле (нажмите для просмотра)] Перевод: Профессиональный (многоголосый, закадровый)Кодек: H.264Качество: BDRip-AVC - исх. Blu-ray 1080pВидео: 752x408 (16:9), 23.976 fps, ~1 018 kbps avg, 0.138 bit/pixelЗвук: 48.0 KHz / 24.0 KHz, HE-AAC, 2 channels (Front: L R), ~72 kbps 745,35 Mb 3 1
15 июля 2016 12:16 Кикбоксер / Kickboxer (1989) HDRip от Scarabey | Р .torrent   [Информация о файле (нажмите для просмотра)] Перевод: Профессиональный (многоголосый, закадровый)Субтитры: нетКачество: HDRipФормат: AVIВидео: 624x336 (1.86:1), 23.976 fps, XviD build 73 ~924 kbps avg, 0.18 bit/pixelАудио: 48 kHz, MPEG Layer 3, 2 ch, ~128.00 kbps avg 745,68 Mb 33 4
15 июля 2016 12:16 Кикбоксер / Kickboxer (1989) BDRip 720p от Media-Torrent .torrent   [Информация о файле (нажмите для просмотра)] Перевод: Качество: Формат: Видео: Аудио: #1Аудио: #2Субтитры: 3,34 Gb 3 3
15 июля 2016 12:16 Кикбоксёр / Kickboxer (1989) DVDRip .torrent   [Информация о файле (нажмите для просмотра)] Перевод: двухголосыйКодек: XviDКачество: DVDRipВидео: 640x355, 1405 kbps, 23 fpsЗвук: 48000 Hz, 384 kbps, ac3 1,46 Gb 4 1
15 июля 2016 12:16 Кикбоксер / Kickboxer (1989) BDRip 1080p .torrent   [Информация о файле (нажмите для просмотра)] Перевод: Профессиональный (Многоголосный закадровый)Качество: BDRipФормат: MKVВидео: 1920x1040 at 23.976 fps, x264, ~11,700 kbpsАудио#1: Russian: 48 kHz, AC3 2.0 192 Kbps [Многоголосный закадровый]Аудио#2: English: 48 kHz, DTS 5.1 1536 Kbps [Одноголосый закадровый А.Гаврилов]Аудио#3: English: 48 KHz, DTS 5.1 1536 KbpsСубтитры: Russian, English 10,21 Gb 3 2
15 июля 2016 12:16 Кикбоксер / Kickboxer (1989) BDRip 720p .torrent   [Информация о файле (нажмите для просмотра)] Перевод: Любительский (двухголосый) + Профессиональный (одноголосый) Гаврилов + ОригиналКачество: BDRip|0day team|Формат: MKVВидео: 1280*720, NTSC 16/9, MPEG 4, 23,976 кадр/сек, 4 561 Кбит/секАудио#1: AC-3 Постоянный, 6 канала(ов) (L, C, R, Ls, Rs +LFE), 48,0 КГц, 384 Кбит/секАудио#2: AC-3 Постоянный, 6 канала(ов) (L, C, R, Ls, Rs +LFE), 48,0 КГц, 384 Кбит/секАудио#3: DTS Постоянный, 6 канала(ов) (L, C, R, Ls, Rs +LFE), 48,0 КГц, 1 536 Кбит/секСубтитры: Английский 4,88 Gb 3 3
15 июля 2016 12:16 Кикбоксер / Kickboxer (1989) BDRip от HQCLUB .torrent   [Информация о файле (нажмите для просмотра)] Перевод: Профессиональный (многоголосый, закадровый) Music Trade + Профессиональный (двухголосый, закадровый) Cental PartnerShip, студия "Инис" + Оригинальная звуковая дорожка + Авторский одноголосый А. Гаврилова(отдельно) + Профессиональный (многоголосый, закадровый) СТС/НТВ, студия "Нота"Субтитры: Русские, английские (внешние srt*)Формат: AVIКачество: BDRip (источник: Striker /Blu-ray Remux / 1080p)Видео: 704x384 (1.83:1), 23,976 fps, XviD build 50 ~ 2173 kbps avg, ~ 0.34 bit/pixelАудио #01: 48 kHz, AC3 Dolby Digital, 2/0 (L,R), ~192.00 kbps avgАудио #02: 48 kHz, AC3 Dolby Digital, 3/2 (L,C,R,l,r) + LFE ch, ~384.00 kbps avgАудио #03: 48 kHz, AC3 Dolby Digital, 3/2 (L,C,R,l,r) + LFE ch, ~448.00 kbps avgАудио #04: 48 kHz, AC3 Dolby Digital, 3/2 (L,C,R,l,r) + LFE ch, ~448.00 kbps avg(отдельно)Аудио #05: 48 kHz, AC3 Dolby Digital, 2/0 (L,R), ~192.00 kbps avg(отдельно, http)Аудио #06: 48 kHz, AC3 Dolby Digital, 2/0 (L,R), ~192.00 kbps avg(отдельно, http)Аудио #07: 48 kHz, AC3 Dolby Digital, 2/0 (L,R), ~192.00 kbps avg(отдельно, http)Аудио #08: 48 kHz, AC3 Dolby Digital, 2/0 (L,R), ~192.00 kbps avg(отдельно, http)Аудио #09: 48 kHz, AC3 Dolby Digital, 2/0 (L,R), ~192.00 kbps avg(отдельно, http)Аудио #10: 48 kHz, AC3 Dolby Digital, 2/0 (L,R), ~192.00 kbps avg(отдельно, http)Аудио #11: 48 kHz, AC3 Dolby Digital, 2/0 (L,R), ~192.00 kbps avg(отдельно, http)Аудио #12: 48 kHz, AC3 Dolby Digital, 3/2 (L,C,R,l,r) + LFE ch, ~448.00 kbps avg(отдельно, http)Аудио #13: 48 kHz, AC3 Dolby Digital, 3/2 (L,C,R,l,r) + LFE ch, ~448.00 kbps avg(отдельно, http) 2,49 Gb 6 3
15 июля 2016 12:16 Кикбоксер / Kickboxer (1989) BDRip .torrent   [Информация о файле (нажмите для просмотра)] Перевод: Профессиональный (двухголосый) + Авторский (Гаврилов)Кодек: XviDКачество: BDRipВидео: 720x384 (1.88:1), 23.976 fps, XviD build 50 ~1646 kbps avg, 0.25 bit/pixel 1,49 Gb 29 5
15 июля 2016 12:16 Кикбоксер / Kickboxer (1989) BDRip от HQ-ViDEO .torrent   1,46 Gb 5 2

Кикбоксер 1989 - скачать бесплатно через торрент в хорошем качестве. Без регистрации

www.kinovit.net

Название: Кикбоксер / Kickboxer (1989) BDRip-AVC от 0ptimus | P, P2, A
Качество видео: BDRip-AVC
Перевод: Профессиональный (многоголосый закадровый), профессиональный (двухголосый закадровый), авторский (одноголосый закадровый)
Видео: h364 2762 Кбит/с, 1024x554, 23.976 кадр/с
Аудио: • №1: Русский (AC3, 2 ch, 192 Кбит/с) Профессиональный многоголосый [CTC, студия "Нота"]
Скачать

Загрузка начнется в течение 5 сек.

3.32 GB

Название: Кикбоксер / Kickboxer (1989) BDRip 1080p | P, P1, P2
Качество видео: BDRip (источник: BD-Remux)
Перевод: Профессиональный многоголосый закадровый + Профессиональный двухголосый закадровый + Профессиональный одноголосый закадровый + Оригинал
Видео: x264 1920x1040 (1,85:1), 23.976 fps, 9982 kbps
Аудио: AC-3, 2 ch, 192 kbps (Rus) MVO СТСAC-3, 2 ch, 192 kbps (Rus) MVO НТВAC-3, 2 ch, 192 kbps (Rus) DVO Music TraidAC-3, 2 ch, 192 kbps (Rus) Андрей ГавриловAC-3, 6 ch, 640 kbps (Eng) Оригинал
Скачать

Загрузка начнется в течение 5 сек.

7.76 GB

Название: Кикбоксер / Kickboxer (1989) BDRip-AVC
Качество видео: BDRip-AVC - исх. Blu-ray 1080p
Перевод: Профессиональный (многоголосый, закадровый)
Видео: H.264 752x408 (16:9), 23.976 fps, ~1 018 kbps avg, 0.138 bit/pixel
Аудио: 48.0 KHz / 24.0 KHz, HE-AAC, 2 channels (Front: L R), ~72 kbps
Скачать

Загрузка начнется в течение 5 сек.

745.35 MB

Название: Кикбоксер / Kickboxer (1989) BDRip-AVC от 0ptimus | P, P2, A
Качество видео: BDRip-AVC
Перевод: Профессиональный (многоголосый закадровый), профессиональный (двухголосый закадровый), авторский (одноголосый закадровый)
Видео: h364 MPEG-4 AVC, 2762 Кбит/с, 1024x554, 23.976 кадр/с
Аудио: • №1: Русский (AC3, 2 ch, 192 Кбит/с) Профессиональный многоголосый [CTC, студия "Нота"]
Скачать

Загрузка начнется в течение 5 сек.

3.01 GB

Дорога назад (1990) через торрент

gig-torrent.net

15 июля 2016 12:18 Кикбоксер 2: Дорога назад / Kickboxer 2: The Road Back (1990) WEB-DL 1080p от Freak Chaos | P, P2, A .torrent   [Информация о файле (нажмите для просмотра)] Перевод 1: Профессиональный многоголосый закадровый (РТР)Перевод 2: Профессиональный двухголосый закадровый (НТВ)Перевод 3: Авторский одноголосый закадровый (Гаврилов)Кодек: AVC, x264Качество: WEB-DL 1080pВидео: 1908x1072 (16:9), 4900 kbps, 23,976 fpsЗвук: 1. AC-3, 192 kbps, 48 KHz, 2 channels 2. AC-3, 192 kbps, 48 KHz, 2 channels 3. AC-3, 192 kbps, 48 KHz, 2 channelsВидео: Идентификатор : 1 Формат : AVC Формат/Информация : Advanced Video Codec Профайл формата : [email protected] Параметры CABAC формата : Да Параметры ReFrames формата : 4 кадры Режим смешивания : Container [email protected] Идентификатор кодека : V_MPEG4/ISO/AVC Продолжительность : 1 ч. 30 м. Битрейт : 4900 Кбит/сек Ширина : 1908 пикс. Высота : 1072 пикс. Соотношение кадра : 16:9 Частота кадров : 23,976 кадр/сек Разрешение : 8 бит Колориметрия : 4:2:0 Тип развёртки : Прогрессивная Бит/(Пиксели*Кадры) : 0.100 Размер потока : 3,11 ГиБ (88%) Заголовок : Kickboxer.2.The.Road.Back.1991.1080p.WEB-DL.AAC2.0.h364-FGT Основные цвета : BT.709-5, BT.1361, IEC 61966-2-4, SMPTE RP177 Характеристики трансфера : BT.709-5, BT.1361 Коэффициенты матрицы : BT.709-5, BT.1361, IEC 61966-2-4 709, SMPTE RP177Аудио #1: Идентификатор : 2 Формат : AC-3 Формат/Информация : Audio Coding 3 Идентификатор кодека : A_AC3 Продолжительность : 1 ч. 30 м. Вид битрейта : Постоянный Битрейт : 192 Кбит/сек Канал(ы) : 2 канала(ов) Расположение каналов : Front: L R Частота : 48,0 КГц Задержка видео : 10 с. Размер потока : 125 МиБ (3%) Заголовок : Многоголосый (РТР) Язык : RussianАудио #2: Идентификатор : 3 Формат : AC-3 Формат/Информация : Audio Coding 3 Идентификатор кодека : A_AC3 Продолжительность : 1 ч. 30 м. Вид битрейта : Постоянный Битрейт : 192 Кбит/сек Канал(ы) : 2 канала(ов) Расположение каналов : Front: L R Частота : 48,0 КГц Задержка видео : 10 с. Размер потока : 125 МиБ (3%) Заголовок : Двухголосый (НТВ) Язык : RussianАудио #3: Идентификатор : 4 Формат : AC-3 Формат/Информация : Audio Coding 3 Идентификатор кодека : A_AC3 Продолжительность : 1 ч. 30 м. Вид битрейта : Постоянный Битрейт : 192 Кбит/сек Канал(ы) : 2 канала(ов) Расположение каналов : Front: L R Частота : 48,0 КГц Задержка видео : 10 с. Размер потока : 125 МиБ (3%) Заголовок : Авторский А.Гаврилов Язык : Russian 3,54 Gb 3 16
15 июля 2016 12:18 Кикбоксер 2: Дорога Назад / Kickboxer 2: The Road Back (1990) WEB-DLRip-AVC | P2, Р .torrent   [Информация о файле (нажмите для просмотра)] Перевод: Профессиональный (двухголосый, закадровый), профессиональный (многоголосый, закадровый), авторский (одноголосый, закадровый) А.ГавриловСубтитры: ОтсутствуютКачество: WEB-DLRip-AVCВидео: AVC, 1024x576 (16:9), 23.976 fps, 2 095 Kbps (0.148 bit/pixel)Аудио #1: AC-3, 48.0 KHz, 2 ch, 192 Kbps, CBR (Russian) - двухголосый (НТВ)Аудио #2: AC-3, 48.0 KHz, 2 ch, 192 Kbps, CBR (Russian) - многоголосый (РТР)Аудио #3: AC-3, 48.0 KHz, 2 ch, 192 Kbps, CBR (Russian) - авторский А.Гаврилов 1,69 Gb 19 10
15 июля 2016 12:18 Кикбоксер 2: Дорога Назад / Kickboxer 2: The Road Back (1990) DVDRip | P2, Р .torrent   [Информация о файле (нажмите для просмотра)] Перевод: Профессиональный (двухголосый закадровый) НТВ, Профессиональный (многоголосый закадровый) РТРВидео: XviD, 720x544 (4:3), 23.976 fps, 2090 kbps avgАудио: AC3, 48.0 khz, 2 ch, 192 kbps (НТВ VHS от серый75)Аудио 2: AC3, 48.0 khz, 2 ch, 192 kbps (РТР IPTV от ActaBiZz) отдельно 1,57 Gb 3 3
15 июля 2016 12:18 Кикбоксер 2: Дорога назад / Kickboxer 2: The Road Back (1990) DVDRip | P .torrent   [Информация о файле (нажмите для просмотра)] Перевод: Профессиональный (многоголосый, закадровый)Кодек: XviDКачество: DVDRip - рип с DVD5Видео: 688x512, 23.976 fps, XviD build 55 ~1017 kbps avg, 0.120 bit/pixelЗвук: 48.0 kHz, MPEG Layer 3, 2 ch, ~128 kbps 747,06 Mb 8 1

Искусство войны (1992) через торрент

gig-torrent.net

15 июля 2016 12:20 Кикбоксер 3: Искусство войны / Kickboxer 3: The Art of War (1992) WEB-DL 1080p от Freak Chaos | A .torrent   [Информация о файле (нажмите для просмотра)] Перевод: Авторский одноголосый закадровый (Гаврилов)Кодек: AVC, x264Качество: WEB-DL 1080pВидео: 1920x1080 (16:9), 5124 kbps, 24,000 fpsЗвук: AC-3, 192 kbps, 48 KHz, 2 channelsВидео: Идентификатор : 1 Формат : AVC Формат/Информация : Advanced Video Codec Профайл формата : [email protected] Параметры CABAC формата : Да Параметры ReFrames формата : 4 кадры Режим смешивания : Container [email protected] Идентификатор кодека : V_MPEG4/ISO/AVC Продолжительность : 1 ч. 32 м. Битрейт : 5124 Кбит/сек Ширина : 1920 пикс. Высота : 1080 пикс. Соотношение кадра : 16:9 Частота кадров : 24,000 кадр/сек Разрешение : 8 бит Колориметрия : 4:2:0 Тип развёртки : Прогрессивная Бит/(Пиксели*Кадры) : 0.103 Размер потока : 3,29 ГиБ (94%) Заголовок : Kickboxer.3.The.Art.of.War.1992.1080p.WEB-DL.AAC2.0.h364-FGT Основные цвета : BT.709-5, BT.1361, IEC 61966-2-4, SMPTE RP177 Характеристики трансфера : BT.709-5, BT.1361 Коэффициенты матрицы : BT.709-5, BT.1361, IEC 61966-2-4 709, SMPTE RP177Аудио: Идентификатор : 2 Формат : AC-3 Формат/Информация : Audio Coding 3 Идентификатор кодека : A_AC3 Продолжительность : 1 ч. 32 м. Вид битрейта : Постоянный Битрейт : 192 Кбит/сек Канал(ы) : 2 канала(ов) Расположение каналов : Front: L R Частота : 48,0 КГц Задержка видео : 11 с. Размер потока : 126 МиБ (4%) Заголовок : Авторски А.Гаврилов Язык : Russian 3,49 Gb 5 3
15 июля 2016 12:20 Кикбоксер 3: Искусство войны / Kickboxer 3: The Art of War (1992) WEB-DLRip-AVC от NNM-CLUB | A .torrent   [Информация о файле (нажмите для просмотра)] Перевод: Авторский (одноголосый, закадровый)А.ГавриловСубтитры: отсутствуютВидео: AVC, 1024x576 (16:9), 24.000 fps, 2 071 Kbps (0.146 bit/pixel)Аудио: AC-3, 48.0 KHz, 2 ch, 192 Kbps, CBR (Russian)Видео: Идентификатор : 1 Формат : AVC Формат/Информация : Advanced Video Codec Профиль формата : [email protected] Параметр CABAC формата : Да Параметр ReFrames формата : 10 кадров Идентификатор кодека : V_MPEG4/ISO/AVC Продолжительность : 1 ч. 32 м. Битрейт : 2071 Кбит/сек Ширина : 1024 пикселя Высота : 576 пикселей Соотношение сторон : 16:9 Режим частоты кадров : Постоянный Частота кадров : 24,000 кадра/сек Цветовое пространство : YUV Субдискретизация насыщенности : 4:2:0 Битовая глубина : 8 бит Тип развёртки : Прогрессивная Бит/(Пиксели*Кадры) : 0.146 Размер потока : 1,30 Гбайт (90%) Библиотека кодирования : x264 core 146 r2538 121396c Настройки программы : cabac=1 / ref=10 / deblock=1:-3:-3 / analyse=0x3:0x133 / me=umh / subme=10 / psy=1 / psy_rd=1.00:0.05 / mixed_ref=1 / me_range=32 / chroma_me=1 / trellis=2 / 8x8dct=1 / cqm=0 / deadzone=21,11 / fast_pskip=0 / chroma_qp_offset=-3 / threads=12 / lookahead_threads=1 / sliced_threads=0 / nr=0 / decimate=0 / interlaced=0 / bluray_compat=0 / constrained_intra=0 / bframes=6 / b_pyramid=2 / b_adapt=2 / b_bias=0 / direct=3 / weightb=1 / open_gop=0 / weightp=2 / keyint=240 / keyint_min=24 / scenecut=40 / intra_refresh=0 / rc=2pass / mbtree=0 / bitrate=2071 / ratetol=1.0 / qcomp=0.60 / qpmin=0 / qpmax=69 / qpstep=4 / cplxblur=20.0 / qblur=0.5 / ip_ratio=1.40 / pb_ratio=1.30 / aq=1:1.00 Язык : English Default : Да Forced : НетАудио: Идентификатор : 2 Формат : AC-3 Формат/Информация : Audio Coding 3 Расширение режима : CM (complete main) Параметр Endianness формата : Big Идентификатор кодека : A_AC3 Продолжительность : 1 ч. 32 м. Вид битрейта : Постоянный Битрейт : 192 Кбит/сек Каналы : 2 канала Расположение каналов : Front: L R Частота : 48,0 КГц Битовая глубина : 16 бит Метод сжатия : С потерями Задержка видео : 11 с. Размер потока : 126 Мбайт (8%) Заголовок : Авторски А.Гаврилов Язык : Russian Default : Да Forced : Нет 1,45 Gb 7 3
15 июля 2016 12:20 Кикбоксер 3: Искусство Войны / Kickboxer 3: The Art of War (1992) DVDRip | P2, Р, A .torrent   [Информация о файле (нажмите для просмотра)] Перевод: Профессиональный (двухголосый закадровый) НТВ, Профессиональный (многоголосый закадровый) РТР, Авторский (одноголосый закадровый) Юрий ЖивовВидео: XviD, 720x528 (4:3), 23.976 fps, 2082 kbps avgАудио: AC3, 48.0 khz, 2 ch, 192 kbps (НТВ)Аудио 2: AC3, 48.0 khz, 2 ch, 192 kbps (РТР) отдельноАудио 3: AC3, 48.0 khz, 2 ch, 192 kbps (Живов) отдельно 1,71 Gb 5 3
15 июля 2016 12:20 Кикбоксер 3: Искусство войны / Kickboxer 3: The Art of War (1992) DVDRip .torrent   [Информация о файле (нажмите для просмотра)] Перевод: Профессиональный (двухголосый) Ren-tvКодек: XviDКачество: DVDRipВидео: 512x400; 23.976 fps; 934 Кбит/сЗвук: 44kHz; стерео; mp3, 96 kbit/sСубтитры: Отсутствуют 679,03 Mb 2 1

Смотрите также