Скачать капитан фантастик через торрент бесплатно в хорошем качестве


2016 hd 720, 1080

vtorrents.net

!

: : Captain Fantastic : 2016: , : : , , , , , , , , ,

IMDB: 7.9/10 (108 769 ) : 7.5/10 (45 192 )

:, . . . . , , ?

: : 1 58 : (, ) | iTunes

528

332

udp://shubt.net:2710

24 1 89

udp://bt.megapeer.org:6969

58 45 55

udp://explodie.org:6969

4 1 61

udp://tracker.coppersurfer.tk:6969

14 1 9565

udp://tracker.leechers-paradise.org:6969

13 1 173

udp://tracker.opentrackr.org:1337

11 1 339

udp://tracker.zer0day.to:1337

12 1 44

udp://ipv6.leechers-paradise.org:6969

91 83 36

udp://tracker.sktorrent.net:6969

97 55 38

http://mgtracker.org:2710/announce

43 17 24

http://open.touki.ru/announce.php

47 44 65

http://p4p.arenabg.ch:1337/announce

13 1 1184

http://torrentsmd.com:8080/announce

26 58 61

udp://tracker.kuroy.me:5944

64 22 89

udp://open.stealth.si:80

11 1 54

1,41 Gb

1156

Captain.Fantastic.2016.BDRip.1.41Gb.MegaPeer.avi (1,41 Gb)

789

788

udp://shubt.net:2710

2 18 8

udp://tracker.openbittorrent.com:80/announce

70 45 98

udp://tracker.publicbt.com:80/announce

47 25 27

udp://tracker.leechers-paradise.org:6969

3 18 12

udp://tracker.coppersurfer.tk:6969

3 28 1519

udp://ipv6.leechers-paradise.org:6969

69 31 98

udp://explodie.org:6969

91 57 85

udp://tracker.zer0day.to:1337

81 91 62

udp://tracker.opentrackr.org:1337

42 33 3

udp://tracker.sktorrent.net:6969

63 11 14

http://mgtracker.org:2710/announce

26 63 81

http://open.touki.ru/announce.php

66 52 74

http://p4p.arenabg.ch:1337/announce

99 25 7

http://torrentsmd.com:8080/announce

38 97 87

udp://tracker.kuroy.me:5944

49 97 43

udp://open.stealth.si:80

40 97 85

5,79 Gb

48

Captain.Fantastic.2016.BDRip.720p.ExKinoRay.mkv (5,79 Gb)

628

986

udp://shubt.net:2710

21 65 27

http://bt.new-team.org:2710/000272179057472991de2418e4b3fab2/announce

14 84 39

http://bt2.new-team.org:2710/000272179057472991de2418e4b3fab2/announce

14 86 31

udp://tracker.leechers-paradise.org:6969

12 16 32

udp://tracker.coppersurfer.tk:6969

8 39 3755

udp://ipv6.leechers-paradise.org:6969

46 99 49

udp://explodie.org:6969

50 77 46

udp://tracker.zer0day.to:1337

91 86 1

udp://tracker.opentrackr.org:1337

5 51 23

udp://tracker.sktorrent.net:6969

44 60 14

http://mgtracker.org:2710/announce

62 72 27

http://open.touki.ru/announce.php

55 77 13

http://p4p.arenabg.ch:1337/announce

49 79 12

http://torrentsmd.com:8080/announce

81 53 40

udp://tracker.kuroy.me:5944

46 41 77

udp://open.stealth.si:80

30 1 1

7,53 Gb

56

Captain.Fantastic.(2016).BDRip1080p.(qqss44).mkv (7,53 Gb)

Скачать фильм Капитан Фантастик через торрент в хорошем качестве бесплатно 1080p

GeneralUnique ID Kap1taH.FaHtast1k.2016.P.WEB-DL.1080p.mkvFormat : MatroskaFormat version : Version 4 / Version 2File size : 4.09 GiBDuration : 1 h 58 minOverall bit rate : 4 919 kb/sEncoded date : UTC 2016-08-22 18:31:07Writing application : mkvmerge v8.3.0 ('Over the Horizon') 64bitWriting library : libebml v1.3.1 + libmatroska v1.4.2

VideoID : 1Format : AVCFormat/Info : Advanced Video CodecFormat profile : [email protected] settings, CABAC : YesFormat settings, ReFrames : 5 framesCodec ID : V_MPEG4/ISO/AVCDuration : 1 h 58 minBit rate : 4 533 kb/sWidth : 1 920 pixelsHeight : 804 pixelsDisplay aspect ratio : 2.40:1Frame rate mode : ConstantFrame rate : 24.000 FPSColor space : YUVChroma subsampling : 4:2:0Bit depth : 8 bitsScan type : ProgressiveBits/(Pixel*Frame) : 0.122Stream size : 3.76 GiB (92%)Language : EnglishDefault : YesForced : NoColor range : LimitedColor primaries : BT.709Transfer characteristics : BT.709Matrix coefficients : BT.709

AudioID : 2Format : AC-3Format/Info : Audio Coding 3Mode extension : CM (complete main)Format settings, Endianness : BigCodec ID : A_AC3Duration : 1 h 58 minBit rate mode : ConstantBit rate : 384 kb/sChannel(s) : 6 channelsChannel positions : Front: L C R, Side: L R, LFESampling rate : 48.0 kHzFrame rate : 31.250 FPS (1536 spf)Compression mode : LossyStream size : 327 MiB (8%)Language : RussianDefault : YesForced : No

Menu00:00:00.000 : en:Глава 100:06:49.416 : en:Глава 200:12:48.082 : en:Глава 300:19:37.748 : en:Глава 400:24:51.998 : en:Глава 500:30:18.748 : en:Глава 600:35:25.164 : en:Глава 700:42:09.747 : en:Глава 800:47:54.330 : en:Глава 900:53:32.913 : en:Глава 1000:59:03.829 : en:Глава 1101:05:33.329 : en:Глава 1201:11:37.537 : en:Глава 1301:17:08.620 : en:Глава 1401:23:58.245 : en:Глава 1501:29:59.536 : en:Глава 1601:36:19.494 : en:Глава 1701:42:24.494 : en:Глава 1801:49:32.785 : en:Глава 19

piratbit.ru

Скачать фильм Капитан Фантастик через торрент в хорошем качестве бесплатно WEB-DLRip

piratbit.ru

Раздают: 2 [ 0 KB/s ]
Размер: 1.37 GB | Добавлен: 1 год 2 мес. назад | Торрент скачан:1348 раз
Реклама Дарим 3000 рублей за регистрацию, не упусти свой шанс получить шикарный бонус!!!

19-08-2016 13:06 Капитан Фантастик Скачать торрент  

Капитан Фантастик / Captain Fantastic

Год выпуска: 2016Страна: СШАЖанр: драма, мелодрама, комедияПродолжительность: 01:59:33Перевод: Профессиональное (многоголосое) [Официальный звук] Субтитры: Отсутствуют

Режиссер: Мэтт РоссПродюссер: Деклан Болдуин, Саманта Хаусман, Моника ЛевинсонСценарий: Мэтт Росс

Премьера в мире: 23 января 2016

лицам до 17 лет обязательно присутствие взрослогоhttp://www.imdb.com/title/tt3553976/

В ролях: Вигго Мортенсен, Джордж МакКэй, Саманта Ислер, Анналиса Бассо, Николас Хэмилтон, Шри Крукс, Чарли Шотуэлл, Трин Миллер, Кэтрин Хан, Стив Зан

Описание: Они говорят на нескольких языках, знают квантовую физику и разбираются в философии. Они умеют охотиться и обращаться с оружием. Они живут в лесу в полной гармонии с природой. Лишь стечение обстоятельств заставляет их покинуть родной дом и отправиться в большой город. Что будет, когда они столкнутся с цивилизацией, когда на них обрушится первая любовь и мир гаджетов и социальных сетей?

Доп. информация: Присутствует Реклама!

Качество: WEB-DLRipФормат: AVIВидео кодек: XviDАудио кодек: AC3Видео: XviD,1436 Kb/s, (2.35:1) 720x304, 24.000 fpsАудио#1: AC3, 192 Kb/s (2 ch),48 kHz,16 bits

GeneralComplete name : E:\Капитан_Фантастик.aviFormat : AVIFormat/Info : Audio Video InterleaveFile size : 1.37 GiBDuration : 1h 59mnOverall bit rate : 1 637 KbpsWriting application : VirtualDubMod 1.5.10.2 (build 2540/release)Writing library : VirtualDubMod build 2540/release

VideoID : 0Format : MPEG-4 VisualFormat profile : Advanced [email protected] settings, BVOP : 2Format settings, QPel : NoFormat settings, GMC : No warppointsFormat settings, Matrix : CustomCodec ID : XVIDCodec ID/Hint : XviDDuration : 1h 59mnBit rate : 1 436 KbpsWidth : 720 pixelsHeight : 304 pixelsDisplay aspect ratio : 2.35:1Frame rate : 24.000 fpsColor space : YUVChroma subsampling : 4:2:0Bit depth : 8 bitsScan type : ProgressiveCompression mode : LossyBits/(Pixel*Frame) : 0.273Stream size : 1.20 GiB (88%)Writing library : XviD 1.2.1 (UTC 2008-12-04)

AudioID : 1Format : AC-3Format/Info : Audio Coding 3Mode extension : CM (complete main)Format settings, Endianness : BigCodec ID : 2000Duration : 1h 59mnBit rate mode : ConstantBit rate : 192 KbpsChannel count : 2 channelsChannel positions : Front: L RSampling rate : 48.0 KHzBit depth : 16 bitsCompression mode : LossyStream size : 164 MiB (12%)Alignment : Split accross interleavesInterleave, duration : 42 ms (1.00 video frame)Interleave, preload duration : 500 ms

Скачать Капитан Фантастик через торрент http://s019.radikal.ru/i631/1608/9c/ef52112c9f6c.png Скачать фильм Капитан Фантастик через торрент бесплантно в хорошем качестве Описание: Они говорят на нескольких языках, знают квантовую физику и разбираются в философии. Они умеют охотиться и обращаться с оружием. ... 2016-08-19 13:06 9.9 10 41

Loading...

Loading...

% Раздел Тема Автор DL S | L
Фильмы 2016 [DVDrip, WEB-DLRip, HDrip] (DUB, MVO) [ 1.46 GB ] Капитан Фантастик / Captain Fantastic [2016 BDRip-AVC] MVO potroks Скачать
Фильмы 2016 [DVDrip, WEB-DLRip, HDrip] (DUB, MVO) [ 1.41 GB ] Капитан Фантастик / Captain Fantastic [2016 BDRip] MVO Twi7ter Скачать
Фильмы (Blu-ray, BD-Remux, HDDVD) [ 25.24 GB ] Капитан Фантастик / Captain Fantastic [2016 BD Remux] многоголосый -Lexx- Скачать
R.G.Resident - Фильмы, Видео [ 3.06 GB ] Капитан Фантастик / Captain Fantastic [2016 BDRip-AVC] MVO R.G.Resident schultz Скачать
Фильмы 2016 [DVDrip, WEB-DLRip, HDrip] (DUB, MVO) [ 1.45 GB ] Капитан Фантастик / Captain Fantastic [2016 HDRip] MVO bober100 Скачать
Фильмы 2016 [DVDrip, WEB-DLRip, HDrip] (DUB, MVO) [ 2.05 GB ] Капитан Фантастик / Captain Fantastic [2016 WEB-DLRip] MVO smaster Скачать
Фильмы (WEB-DL 720p, 1080p) [ 4.09 GB ] Капитан Фантастик / Captain Fantastic [2016 WEB-DL 1080p] MVO smaster Скачать

Рекламный пират

19-08-2016 14:11 Капитан Фантастик Скачать торрент  

афигенский фильм!

19-08-2016 16:03 Капитан Фантастик Скачать торрент  

Уважуха за сэмпл

19-08-2016 16:27 Капитан Фантастик Скачать торрент  

лучше что я смотрел за последние два года. фильм не жесткий,не тяжелый (хотя в некоторых местах так кажется),не жестокий,он КРЕПКИЙ! достоин для просмотра.

19-08-2016 16:29 Капитан Фантастик Скачать торрент  

Ладно посмотрим.

21-08-2016 10:44 Капитан Фантастик Скачать торрент  

Неинтересная фигня

Дорогой пользователь! Огромная просьба, поблагодарите релизера, оцените раздачу и оставьте свои комментарий, если Вы скачали Капитан Фантастик через торрент бесплатно! Внесите свою лепту в развитие PiratBit!

Комментировать посты могут только пользователи прошедшие не сложную регистрацию

Капитан Фантастик через торрент Скачать бесплатно Капитан Фантастик Капитан Фантастик скачать торрент Капитан Фантастик смотреть онлайн Cкачать фильм Капитан Фантастик бесплатно Капитан Фантастик скачать торрент в хорошем качестве Капитан Фантастик смотреть онлайн бесплатно в хорошем качестве

Вы можете начинать темыВы можете отвечать на сообщенияВы не можете редактировать свои сообщенияВы не можете удалять свои сообщенияВы не можете голосовать в опросахВы не можете прикреплять файлы к сообщениямВы можете скачивать файлы

Скачать фильм Капитан Фантастик через торрент в хорошем качестве бесплатно Капитан Фантастик / Captain Fantastic (Мэтт Росс) [2016

GeneralUnique ID : 191506261356176171289047537345887184565 (0x9012C3AB05D6048DBDFD9D8B13EFA6B5)Complete name : E:\Captain.Fantastic.2016.BDREMUX.1080p.ExKinoRay.mkvFormat : MatroskaFormat version : Version 4 / Version 2File size : 25.2 GiBDuration : 1 h 59 minOverall bit rate mode : VariableOverall bit rate : 30.2 Mb/sMovie name : build by ***селезень***Encoded date : UTC 2016-10-16 15:43:25Writing application : mkvmerge v8.3.0 ('Over the Horizon') 64bitWriting library : libebml v1.3.1 + libmatroska v1.4.2

VideoID : 1Format : AVCFormat/Info : Advanced Video CodecFormat profile : [email protected] settings, CABAC : YesFormat settings, ReFrames : 2 framesCodec ID : V_MPEG4/ISO/AVCDuration : 1 h 59 minBit rate mode : VariableWidth : 1 920 pixelsHeight : 1 080 pixelsDisplay aspect ratio : 16:9Frame rate mode : ConstantFrame rate : 23.976 (24000/1001) FPSColor space : YUVChroma subsampling : 4:2:0Bit depth : 8 bitsScan type : ProgressiveTitle : build by ***селезень***Language : EnglishDefault : YesForced : No

Audio #1ID : 2Format : AC-3Format/Info : Audio Coding 3Mode extension : CM (complete main)Format settings, Endianness : BigCodec ID : A_AC3Duration : 1 h 59 minBit rate mode : ConstantBit rate : 384 kb/sChannel(s) : 6 channelsChannel positions : Front: L C R, Side: L R, LFESampling rate : 48.0 kHzFrame rate : 31.250 FPS (1536 spf)Compression mode : LossyStream size : 328 MiB (1%)Title : MVO [iTunes]Language : RussianDefault : YesForced : No

Audio #2ID : 3Format : DTSFormat/Info : Digital Theater SystemsFormat profile : MA / CoreMode : 16Format settings, Endianness : BigCodec ID : A_DTSDuration : 1 h 59 minBit rate mode : Variable / ConstantBit rate : Unknown / 1 509 kb/sChannel(s) : 6 channelsChannel positions : Front: L C R, Side: L R, LFESampling rate : 48.0 kHzFrame rate : 93.750 FPS (512 spf)Bit depth : 24 bitsCompression mode : Lossless / LossyTitle : OriginalLanguage : EnglishDefault : NoForced : No

TextID : 4Format : UTF-8Codec ID : S_TEXT/UTF8Codec ID/Info : UTF-8 Plain TextTitle : FullLanguage : EnglishDefault : NoForced : No

Menu00:00:00.000 : en:00:00:00.00000:05:14.272 : en:00:05:14.27200:11:12.046 : en:00:11:12.04600:17:34.220 : en:00:17:34.22000:25:20.728 : en:00:25:20.72800:31:37.187 : en:00:31:37.18700:37:41.509 : en:00:37:41.50900:40:25.548 : en:00:40:25.54800:46:10.601 : en:00:46:10.60100:54:03.449 : en:00:54:03.44900:59:34.696 : en:00:59:34.69601:08:21.431 : en:01:08:21.43101:14:08.486 : en:01:14:08.48601:20:18.647 : en:01:20:18.64701:24:30.774 : en:01:24:30.77401:30:19.331 : en:01:30:19.33101:36:52.807 : en:01:36:52.80701:43:03.719 : en:01:43:03.71901:48:23.163 : en:01:48:23.16301:52:47.344 : en:01:52:47.344

piratbit.ru

Скачать фильм Капитан Фантастик через торрент в хорошем качестве бесплатно HDRip

piratbit.ru

Размер: 1.45 GB | Добавлен: 1 год назад | Торрент скачан:368 раз
Реклама Дарим 3000 рублей за регистрацию, не упусти свой шанс получить шикарный бонус!!!

14-10-2016 11:39 Капитан Фантастик Скачать торрент  

Капитан Фантастик / Captain Fantastic

Год выпуска: 2016Страна: СШАЖанр: драма, мелодрама, комедияПродолжительность: 01:59:29Перевод: Профессиональный (многоголосый, закадровый) iTunesСубтитры: отсутствуют

Режиссер: Мэтт Росс

В ролях:

Вигго Мортенсен, Джордж МакКэй, Саманта Ислер, Анналиса Бассо, Николас Хэмилтон, Шри Крукс, Чарли Шотуэлл, Трин Миллер

Описание:

Они говорят на нескольких языках, знают квантовую физику и разбираются в философии. Они умеют охотиться и обращаться с оружием. Они живут в лесу в полной гармонии с природой. Лишь стечение обстоятельств заставляет их покинуть родной дом и отправиться в большой город. Что будет, когда они столкнутся с цивилизацией, когда на них обрушится первая любовь и мир гаджетов и социальных сетей?

Качество: HDRipФормат: AVIВидео кодек: XviDАудио кодек: AC3Видео: 720x304 (2.37:1), 23,976 fps, XviD build 65 ~1350 kbps avg, 0.34 bit/pixelАудио#1: 48 kHz, AC3 Dolby Digital, 3/2 (L,C,R,l,r) + LFE ch, ~384 kbps avg

Скачать Капитан Фантастик через торрент https://st.kp.yandex.net/images/film_iphone/iphone360_841147.jpg Скачать фильм Капитан Фантастик через торрент бесплантно в хорошем качестве Описание: Они говорят на нескольких языках, знают квантовую физику и разбираются в философии. Они умеют охотиться и обращаться с оружием. ... 2016-10-14 11:39 9.6 10 18

Loading...

Loading...

% Раздел Тема Автор DL S | L
Фильмы 2016 [DVDrip, WEB-DLRip, HDrip] (DUB, MVO) [ 1.46 GB ] Капитан Фантастик / Captain Fantastic [2016 BDRip-AVC] MVO potroks Скачать
Фильмы 2016 [DVDrip, WEB-DLRip, HDrip] (DUB, MVO) [ 1.41 GB ] Капитан Фантастик / Captain Fantastic [2016 BDRip] MVO Twi7ter Скачать
Фильмы (Blu-ray, BD-Remux, HDDVD) [ 25.24 GB ] Капитан Фантастик / Captain Fantastic [2016 BD Remux] многоголосый -Lexx- Скачать
R.G.Resident - Фильмы, Видео [ 3.06 GB ] Капитан Фантастик / Captain Fantastic [2016 BDRip-AVC] MVO R.G.Resident schultz Скачать
Фильмы 2016 [DVDrip, WEB-DLRip, HDrip] (DUB, MVO) [ 2.05 GB ] Капитан Фантастик / Captain Fantastic [2016 WEB-DLRip] MVO smaster Скачать
Фильмы (WEB-DL 720p, 1080p) [ 4.09 GB ] Капитан Фантастик / Captain Fantastic [2016 WEB-DL 1080p] MVO smaster Скачать
Фильмы (WEB-DL 720p, 1080p) [ 3.67 GB ] Капитан Фантастик / Captain Fantastic [2016 WEB-DL 720p] MVO smaster Скачать

Рекламный пират

14-10-2016 15:13 Капитан Фантастик Скачать торрент  

и как вам фильм ?

14-10-2016 17:28 Капитан Фантастик Скачать торрент  

хрень сектантская

15-10-2016 08:01 Капитан Фантастик Скачать торрент  

15-10-2016 14:01 Капитан Фантастик Скачать торрент  

что то попахивает мормонами или нет?

Дорогой пользователь! Огромная просьба, поблагодарите релизера, оцените раздачу и оставьте свои комментарий, если Вы скачали Капитан Фантастик через торрент бесплатно! Внесите свою лепту в развитие PiratBit!

Комментировать посты могут только пользователи прошедшие не сложную регистрацию

Капитан Фантастик через торрент Скачать бесплатно Капитан Фантастик Капитан Фантастик скачать торрент Капитан Фантастик смотреть онлайн Cкачать фильм Капитан Фантастик бесплатно Капитан Фантастик скачать торрент в хорошем качестве Капитан Фантастик смотреть онлайн бесплатно в хорошем качестве

Вы не можете начинать темыВы не можете отвечать на сообщенияВы не можете редактировать свои сообщенияВы не можете удалять свои сообщенияВы не можете голосовать в опросахВы не можете прикреплять файлы к сообщениямВы можете скачивать файлы

Скачать Капитан Фантастик (2016) через торрент

Категория: Фильмы 695 0 Торрент добавлен: 2-09-2016 Рейтинг:

2016 / драма, мелодрама, комедия / 118 мин. Название: Капитан Фантастик / Captain FantasticСтрана: СШАРежиссер: Мэтт Росс Роли сыграли: Вигго Мортенсен, Джордж МакКэй, Саманта Ислер, Анналиса Бассо, Николас Хэмилтон, Шри Крукс, Чарли Шотуэлл, Трин Миллер, Кэтрин Хан, Стив Зан

Где-то в глубине густых лесов, там где полностью отсутствует любой признак цивилизации, проживает удивительная семейка, в которой воспитываются шестеро детишек. Папа и мама всю молодость были хиппи и именно поэтому такой образ жизни для них является самым привычным, а отсутствие таких вещей, как телефоны или средства передвижения, а также шумные компании несколько не смущают пару и их чад. К тому же воспитание детей осуществляется по особой методике, которую лично разработал глава семейства.

Дети понятия не имеют что такое интернет, игры со сверстниками в различные командные игры, вкус пива или других напитков, и все это не чуть не мешает им быть жизнерадостными. Однако эту семью все-таки находит несчастье — у супруги главного героя начинается серьезная, практически неизлечимая болезнь. Так как они живут весьма далеко от цивилизации, где бесспорно есть все необходимые структуры по оказанию быстрой медицинской помощи, состояние здоровья жены сильно ухудшилось.

В конечном итоге мужу пришлось везти ее в ближайший населенный пункт, но к сожалению было уже слишком поздно, она скончалась. Похоронами будет заниматься ее отец, который после такого вопиющего случая категорически запретил ее супругу, а соответственно своему зятю, приближаться к ней и участвовать в церемонии погребения. Однако отцу семейства и его детям не могут помешать такие запреты поприсутствовать на церемонии, связанной с прощанием с их любимым человеком. Вместе с детьми он отправляется в мир, от которого он когда-то отказался, прожив большую часть жизни вдали от цивилизации. Этот мир заставит его и детей задуматься — так ли правильно они поступили, уехав так далеко от общества?

Трейлер к фильму Капитан Фантастик (2016)

 

Капитан Фантастик (2016) скачать торрент

Качество: BDRipВидео: X264/MPEG4-AVC | 1920x800 (2.40:1) | ~8008 kbps | 23.976 fpsЗвук: AC3 | 48 KHz | 5.1 (Front: L С R Side: L R) + LFE | ~384 kbps | профессиональный (многоголосый, закадровый) - iTunes

7,53 Gb

Качество видео: HDRipФормат видео: AVI (XviD)Видео: 720x304 (2.37:1), 24 fps, XviD build 73 ~1351 kbps avg, 0.26 bit/pixelАудио: 48 kHz, AC3 Dolby Digital, 3/2 (L,C,R,l,r) + LFE ch, ~384.00 kbps avg, Профессиональный (полное дублирование) | iTunes

1,45 Gb

psp-gu.ru

Скачать фильм Капитан Фантастик через торрент в хорошем качестве бесплатно WEB-DLRip

piratbit.ru

Раздают: 2 [ 0 KB/s ]
Размер: 2.05 GB | Добавлен: 1 год 1 мес. назад | Торрент скачан:1058 раз
Реклама Дарим 3000 рублей за регистрацию, не упусти свой шанс получить шикарный бонус!!!

02-09-2016 05:20 Капитан Фантастик Скачать торрент  

Капитан Фантастик / Captain Fantastic Год выпуска: 2016Страна: СШАЖанр: драма, мелодрама, комедия

Продолжительность: 01:58:54Перевод: Профессиональный (многоголосый, закадровый) [iTunes]

Режиссер: Мэтт РоссВ ролях: Вигго Мортенсен (Ben), Джордж МакКэй (Bo), Саманта Ислер (Kielyr), Анналиса Бассо (Vespyr), Николас Хэмилтон (Rellian), Шри Крукс (Zaja), Чарли Шотуэлл (Nai), Трин Миллер (Leslie), Кэтрин Хан (Harper), Стив Зан (Dave), Элайджа Стивенсон (Justin), Тедди Ван Ии (Jackson)Описание: Они говорят на нескольких языках, знают квантовую физику и разбираются в философии. Они умеют охотиться и обращаться с оружием. Они живут в лесу в полной гармонии с природой. Лишь стечение обстоятельств заставляет их покинуть родной дом и отправиться в большой город. Что будет, когда они столкнутся с цивилизацией, когда на них обрушится первая любовь и мир гаджетов и социальных сетей?Рейтинг: MPAA: R - Лицам до 17 лет обязательно присутствие взрослогоКачество: WEB-DLRipФормат: AVIВидео: XviD, 720x304 (2.35:1), 2074 kbps, 24 fps, 0,395 bppАудио: AC3 / 5.1 / 48 kHz / 384 kbps / GeneralComplete name Kapitan.Fantastik.2016.P.WEB-DLRip.2100MB.aviFormat : AVIFormat/Info : Audio Video InterleaveFormat profile : OpenDMLFile size : 2.05 GiBDuration : 1 h 58 minOverall bit rate : 2 471 kb/sWriting application : VirtualDubMod 1.5.10.2 (build 2540/release)Writing library : VirtualDubMod build 2540/release

VideoID : 0Format : MPEG-4 VisualFormat profile : Advanced [email protected] settings, BVOP : 2Format settings, QPel : NoFormat settings, GMC : No warppointsFormat settings, Matrix : Default (MPEG)Codec ID : XVIDCodec ID/Hint : XviDDuration : 1 h 58 minBit rate : 2 075 kb/sWidth : 720 pixelsHeight : 304 pixelsDisplay aspect ratio : 2.35:1Frame rate : 24.000 FPSColor space : YUVChroma subsampling : 4:2:0Bit depth : 8 bitsScan type : ProgressiveCompression mode : LossyBits/(Pixel*Frame) : 0.395Stream size : 1.72 GiB (84%)Writing library : XviD 1.2.1 (UTC 2008-12-04)

AudioID : 1Format : AC-3Format/Info : Audio Coding 3Mode extension : CM (complete main)Format settings, Endianness : BigCodec ID : 2000Duration : 1 h 58 minBit rate mode : ConstantBit rate : 384 kb/sChannel(s) : 6 channelsChannel positions : Front: L C R, Side: L R, LFESampling rate : 48.0 kHzFrame rate : 31.250 FPS (1536 spf)Compression mode : LossyStream size : 327 MiB (16%)Alignment : Split accross interleavesInterleave, duration : 42 ms (1.00 video frame)Interleave, preload duration : 500 ms

Скриншоты: Скачать Капитан Фантастик через торрент http://i6.imageban.ru/out/2016/09/02/0d8061b54ccb879d96b69b50d1b93d54.jpg Скачать фильм Капитан Фантастик через торрент бесплантно в хорошем качестве Описание: Они говорят на нескольких языках, знают квантовую физику и разбираются в философии. Они умеют охотиться и обращаться с оружием. ... 2016-09-02 05:20 8.5 10 19

Loading...

Loading...

% Раздел Тема Автор DL S | L
Фильмы 2016 [DVDrip, WEB-DLRip, HDrip] (DUB, MVO) [ 1.46 GB ] Капитан Фантастик / Captain Fantastic [2016 BDRip-AVC] MVO potroks Скачать
Фильмы 2016 [DVDrip, WEB-DLRip, HDrip] (DUB, MVO) [ 1.41 GB ] Капитан Фантастик / Captain Fantastic [2016 BDRip] MVO Twi7ter Скачать
Фильмы (Blu-ray, BD-Remux, HDDVD) [ 25.24 GB ] Капитан Фантастик / Captain Fantastic [2016 BD Remux] многоголосый -Lexx- Скачать
R.G.Resident - Фильмы, Видео [ 3.06 GB ] Капитан Фантастик / Captain Fantastic [2016 BDRip-AVC] MVO R.G.Resident schultz Скачать
Фильмы 2016 [DVDrip, WEB-DLRip, HDrip] (DUB, MVO) [ 1.45 GB ] Капитан Фантастик / Captain Fantastic [2016 HDRip] MVO bober100 Скачать
Фильмы (WEB-DL 720p, 1080p) [ 4.09 GB ] Капитан Фантастик / Captain Fantastic [2016 WEB-DL 1080p] MVO smaster Скачать
Фильмы (WEB-DL 720p, 1080p) [ 3.67 GB ] Капитан Фантастик / Captain Fantastic [2016 WEB-DL 720p] MVO smaster Скачать

Рекламный пират

02-09-2016 06:48 Капитан Фантастик Скачать торрент  

Рейтинг крутоват надо посмотреть

02-09-2016 06:57 Капитан Фантастик Скачать торрент  

Название как у порнофильма.

02-09-2016 13:48 Капитан Фантастик Скачать торрент  

Дубляж ожидается?

02-09-2016 16:48 Капитан Фантастик Скачать торрент  

Когда читал про описание фильма, подумал что фильм про семью Хогбенов, кто не в курсе вам к Шекли. Прикольный был бы фильм если бы про них.

02-09-2016 19:55 Капитан Фантастик Скачать торрент  

Фильм бредовый! не о чем.

02-09-2016 20:23 Капитан Фантастик Скачать торрент  

Murokki писал(а):

Когда читал про описание фильма, подумал что фильм про семью Хогбенов, кто не в курсе вам к Шекли. Прикольный был бы фильм если бы про них.

в курсе, прикольный цикл произведений, про малыша)))

03-09-2016 06:03 Капитан Фантастик Скачать торрент  

Фильм не плох но в некоторых местах туповат и рейтинг явно завышен 6 голых мужиков из 10

03-09-2016 15:11 Капитан Фантастик Скачать торрент  

Дизлайк фильму! Хосту респект!

Pекламный агент PB

03-10-2016 16:44 Капитан Фантастик Скачать торрент  

Evgeniy 23 писал(а):

Название как у порнофильма.

Дорогой пользователь! Огромная просьба, поблагодарите релизера, оцените раздачу и оставьте свои комментарий, если Вы скачали Капитан Фантастик через торрент бесплатно! Внесите свою лепту в развитие PiratBit!

Комментировать посты могут только пользователи прошедшие не сложную регистрацию

Капитан Фантастик через торрент Скачать бесплатно Капитан Фантастик Капитан Фантастик скачать торрент Капитан Фантастик смотреть онлайн Cкачать фильм Капитан Фантастик бесплатно Капитан Фантастик скачать торрент в хорошем качестве Капитан Фантастик смотреть онлайн бесплатно в хорошем качестве

Вы не можете начинать темыВы не можете отвечать на сообщенияВы не можете редактировать свои сообщенияВы не можете удалять свои сообщенияВы не можете голосовать в опросахВы не можете прикреплять файлы к сообщениямВы можете скачивать файлы


Смотрите также