Скачать как выйти замуж за 3 дня торрент в хорошем качестве


Скачать фильм Как выйти замуж за 3 дня (2009) через торрент

gig-torrent.net

12 июля 2016 08:08 Как выйти замуж за 3 дня / Leap Year (2010) BDRip 1080p .torrent   [Информация о файле (нажмите для просмотра)] Перевод: дублированный, профессиональный двухголосый, авторский, любительский одноголосыйКачество: BDRip 1080pСравнение с исходникомФормат: MKVВидео: MPEG-4 AVC, 10.2 Mбит/с, 1920x800, 23,976 кадра/сАудио 1: русский, AC3, 384 kbps, 6 ch, 48 kHz [дублированный, R5]Аудио 2: русский, AC3, 448 kbps, 6 ch, 48 kHz [профессиональный двухголосый, R2]Аудио 3: русский, DTS, 1509 kbps, 6 ch, 48 kHz [авторский, Михаил Иванов]Аудио 4: русский, DTS, 1509 kbps, 6 ch, 48 kHz [авторский, Юрий Сербин]Аудио 5: русский, AC3, 192 kbps, 2 ch, 48 kHz [любительский одноголосый, R1shpil]Аудио 6: английский, DTS, 1509 kbps, 6 ch, 48 kHz [оригинал]Субтитры 1: русскиеСубтитры 2: английскиеВидео: Идентификатор : 1 Формат : AVC Формат/Информация : Advanced Video Codec Профиль формата : [email protected] Параметр CABAC формата : Да Параметр ReFrames формата : 4 кадра Идентификатор кодека : V_MPEG4/ISO/AVC Продолжительность : 1 ч. 40 м. Битрейт : 10,2 Мбит/сек Ширина : 1920 пикселей Высота : 800 пикселей Соотношение сторон : 2,40:1 Режим частоты кадров : Постоянный Частота кадров : 23,976 кадра/сек Цветовое пространство : YUV Субдискретизация насыщенности : 4:2:0 Битовая глубина : 8 бит Тип развёртки : Прогрессивная Бит/(Пиксели*Кадры) : 0.278 Размер потока : 7,17 Гбайт (64%) Библиотека кодирования : x264 core 146 r2538 121396c Настройки программы : cabac=1 / ref=4 / deblock=1:-1:-1 / analyse=0x3:0x113 / me=umh / subme=10 / psy=1 / psy_rd=1.00:0.15 / mixed_ref=1 / me_range=32 / chroma_me=1 / trellis=2 / 8x8dct=1 / cqm=0 / deadzone=21,11 / fast_pskip=1 / chroma_qp_offset=-3 / threads=6 / lookahead_threads=1 / sliced_threads=0 / nr=0 / decimate=1 / interlaced=0 / bluray_compat=0 / constrained_intra=0 / bframes=9 / b_pyramid=2 / b_adapt=2 / b_bias=0 / direct=1 / weightb=1 / open_gop=0 / weightp=2 / keyint=230 / keyint_min=23 / scenecut=40 / intra_refresh=0 / rc_lookahead=40 / rc=crf / mbtree=0 / crf=17.8 / qcomp=0.60 / qpmin=0 / qpmax=69 / qpstep=4 / vbv_maxrate=40000 / vbv_bufsize=50000 / crf_max=0.0 / nal_hrd=none / filler=0 / ip_ratio=1.40 / pb_ratio=1.30 / aq=1:1.00 Язык : English Default : Да Forced : Нет DURATION : 01:40:16.010000000 NUMBER_OF_FRAMES : 144240 NUMBER_OF_BYTES : 7940128792 _STATISTICS_WRITING_APP : mkvmerge v7.9.0 ('Birds') 64bit _STATISTICS_WRITING_DATE_UTC : 2015-06-28 04:22:11 _STATISTICS_TAGS : BPS DURATION NUMBER_OF_FRAMES NUMBER_OF_BYTESАудио #1: Идентификатор : 2 Формат : AC-3 Формат/Информация : Audio Coding 3 Расширение режима : CM (complete main) Параметр Endianness формата : Big Идентификатор кодека : A_AC3 Продолжительность : 1 ч. 40 м. Вид битрейта : Постоянный Битрейт : 384 Кбит/сек Каналы : 6 каналов Расположение каналов : Front: L C R, Side: L R, LFE Частота : 48,0 КГц Битовая глубина : 16 бит Метод сжатия : С потерями Размер потока : 275 Мбайт (2%) Заголовок : DUB (R5) Язык : Russian Default : Да Forced : НетАудио #2: Идентификатор : 3 Формат : AC-3 Формат/Информация : Audio Coding 3 Расширение режима : CM (complete main) Параметр Endianness формата : Big Идентификатор кодека : A_AC3 Продолжительность : 1 ч. 40 м. Вид битрейта : Постоянный Битрейт : 448 Кбит/сек Каналы : 6 каналов Расположение каналов : Front: L C R, Side: L R, LFE Частота : 48,0 КГц Битовая глубина : 16 бит Метод сжатия : С потерями Размер потока : 321 Мбайт (3%) Заголовок : DVO (R2) Язык : Russian Default : Нет Forced : НетАудио #3: Идентификатор : 4 Формат : DTS Формат/Информация : Digital Theater Systems Режим : 16 Параметр Endianness формата : Big Идентификатор кодека : A_DTS Продолжительность : 1 ч. 40 м. Вид битрейта : Постоянный Битрейт : 1509 Кбит/сек Каналы : 6 каналов Расположение каналов : Front: L C R, Side: L R, LFE Частота : 48,0 КГц Битовая глубина : 24 бит Метод сжатия : С потерями Размер потока : 1,06 Гбайт (9%) Заголовок : AVO (Михаил Иванов) Язык : Russian Default : Нет Forced : НетАудио #4: Идентификатор : 5 Формат : DTS Формат/Информация : Digital Theater Systems Режим : 16 Параметр Endianness формата : Big Идентификатор кодека : A_DTS Продолжительность : 1 ч. 40 м. Вид битрейта : Постоянный Битрейт : 1509 Кбит/сек Каналы : 6 каналов Расположение каналов : Front: L C R, Side: L R, LFE Частота : 48,0 КГц Битовая глубина : 24 бит Метод сжатия : С потерями Размер потока : 1,06 Гбайт (9%) Заголовок : AVO (Юрий Сербин) Язык : Russian Default : Нет Forced : НетАудио #5: Идентификатор : 6 Формат : AC-3 Формат/Информация : Audio Coding 3 Расширение режима : CM (complete main) Параметр Endianness формата : Big Идентификатор кодека : A_AC3 Продолжительность : 1 ч. 40 м. Вид битрейта : Постоянный Битрейт : 192 Кбит/сек Каналы : 2 канала Расположение каналов : Front: L R Частота : 48,0 КГц Битовая глубина : 16 бит Метод сжатия : С потерями Размер потока : 138 Мбайт (1%) Заголовок : VO (R1shpil, любительский одноголосый) Язык : Russian Default : Нет Forced : НетАудио #6: Идентификатор : 7 Формат : DTS Формат/Информация : Digital Theater Systems Режим : 16 Параметр Endianness формата : Big Идентификатор кодека : A_DTS Продолжительность : 1 ч. 40 м. Вид битрейта : Постоянный Битрейт : 1509 Кбит/сек Каналы : 6 каналов Расположение каналов : Front: L C R, Side: L R, LFE Частота : 48,0 КГц Битовая глубина : 24 бит Метод сжатия : С потерями Размер потока : 1,06 Гбайт (9%) Заголовок : Original Язык : English Default : Нет Forced : Нет 11,29 Gb 11 3
12 июля 2016 08:08 Как выйти замуж за 3 дня / Leap Year (2010) HDRip | A .torrent   [Информация о файле (нажмите для просмотра)] Перевод: Авторский (одноголосый закадровый)Юрий Сербин, Авторский (одноголосый закадровый) Михаил ИвановКодек: XviDКачество: HDRipВидео: 720x304 (2.37:1), 23.976 fps, XviD build 62 ~2278 kbps avg, 0.43 bit/pixelАудио 1: 48 kHz, AC3 Dolby Digital, 3/2 (L,C,R,l,r) + LFE ch, ~384 kbpsСербинАудио 2: 48 kHz, AC3 Dolby Digital, 3/2 (L,C,R,l,r) + LFE ch, ~448 kbpsИвановСубтитры: нет 2,18 Gb 8 6
12 июля 2016 08:08 Как выйти замуж за 3 дня / Leap Year (2010) BDRip 720p от NNNB | D,P2,A,L1 .torrent   [Информация о файле (нажмите для просмотра)] Перевод: Дублированный, Профессиональный (двухголосый), Авторский (одноголосый), Любительский (одноголосый)Качество: BDRip 720pФормат: AVC (библиотека кодирования x.264)Видео: 1280x534, 3568 Кбит/сек, 23,976 кадр/сек, 0,210 Бит/[Пиксели*Кадры]Аудио №1: русский / AC3 / 5.1 / 48 kHz / 384 kbps / 16 bit|Дублированный, R5| Аудио №2: русский / AC3 / 5.1 / 48 kHz / 448 kbps / 16 bit|Двухголосый закадровый, R2| Аудио №3: русский / AC3 / 5.1 / 48 kHz / 640 kbps / 16 bit|Авторский, Юрий Сербин| Аудио №4: русский / AC3 / 5.1 / 48 kHz / 640 kbps / 16 bit|Авторский, Михаил Иванов| Аудио №5: русский / AC3 / 2.0 / 48 kHz / 192 kbps / 16 bit|Любительский одноголосый, R1shpil| Аудио №6: английский / AC3 / 5.1 / 48 kHz / 640 kbps /Субтитры: русские, английские 4,56 Gb 4 5
12 июля 2016 08:08 Как выйти замуж за 3 дня / Leap Year (2010) BDRip 720p .torrent   [Информация о файле (нажмите для просмотра)] Перевод: дублированный, профессиональный двухголосый, авторский, любительский одноголосыйКачество: BDRip 720pСравнение с исходникомФормат: MKVВидео: MPEG-4 AVC, 3566 Кбит/с, 1280x534, 23,976 кадра/сАудио 1: русский, AC3, 384 kbps, 6 ch, 48 kHz [дублированный, R5]Аудио 2: русский, AC3, 448 kbps, 6 ch, 48 kHz [профессиональный двухголосый, R2]Аудио 3: русский, AC3, 448 kbps, 6 ch, 48 kHz [авторский, Михаил Иванов]Аудио 4: русский, AC3, 448 kbps, 6 ch, 48 kHz [авторский, Юрий Сербин]Аудио 5: русский, AC3, 192 kbps, 2 ch, 48 kHz [любительский одноголосый, R1shpil]Аудио 6: английский, AC3, 448 kbps, 6 ch, 48 kHz [оригинал]Субтитры 1: русскиеСубтитры 2: английскиеВидео: Идентификатор : 1 Формат : AVC Формат/Информация : Advanced Video Codec Профиль формата : [email protected] Параметр CABAC формата : Да Параметр ReFrames формата : 9 кадров Идентификатор кодека : V_MPEG4/ISO/AVC Продолжительность : 1 ч. 40 м. Битрейт : 3566 Кбит/сек Ширина : 1280 пикселей Высота : 534 пикселя Соотношение сторон : 2,40:1 Режим частоты кадров : Постоянный Частота кадров : 23,976 кадра/сек Цветовое пространство : YUV Субдискретизация насыщенности : 4:2:0 Битовая глубина : 8 бит Тип развёртки : Прогрессивная Бит/(Пиксели*Кадры) : 0.218 Размер потока : 2,50 Гбайт (59%) Библиотека кодирования : x264 core 146 r2538 121396c Настройки программы : cabac=1 / ref=9 / deblock=1:-1:-1 / analyse=0x3:0x113 / me=umh / subme=10 / psy=1 / psy_rd=1.00:0.15 / mixed_ref=1 / me_range=32 / chroma_me=1 / trellis=2 / 8x8dct=1 / cqm=0 / deadzone=21,11 / fast_pskip=1 / chroma_qp_offset=-3 / threads=6 / lookahead_threads=1 / sliced_threads=0 / nr=0 / decimate=1 / interlaced=0 / bluray_compat=0 / constrained_intra=0 / bframes=9 / b_pyramid=2 / b_adapt=2 / b_bias=0 / direct=1 / weightb=1 / open_gop=0 / weightp=2 / keyint=230 / keyint_min=23 / scenecut=40 / intra_refresh=0 / rc_lookahead=40 / rc=crf / mbtree=0 / crf=17.8 / qcomp=0.60 / qpmin=0 / qpmax=69 / qpstep=4 / vbv_maxrate=40000 / vbv_bufsize=50000 / crf_max=0.0 / nal_hrd=none / filler=0 / ip_ratio=1.40 / pb_ratio=1.30 / aq=1:1.00 Язык : English Default : Да Forced : Нет DURATION : 01:40:16.010000000 NUMBER_OF_FRAMES : 144240 NUMBER_OF_BYTES : 2769380178 _STATISTICS_WRITING_APP : mkvmerge v7.9.0 ('Birds') 64bit _STATISTICS_WRITING_DATE_UTC : 2015-06-25 07:15:43 _STATISTICS_TAGS : BPS DURATION NUMBER_OF_FRAMES NUMBER_OF_BYTESАудио #1: Идентификатор : 2 Формат : AC-3 Формат/Информация : Audio Coding 3 Расширение режима : CM (complete main) Параметр Endianness формата : Big Идентификатор кодека : A_AC3 Продолжительность : 1 ч. 40 м. Вид битрейта : Постоянный Битрейт : 384 Кбит/сек Каналы : 6 каналов Расположение каналов : Front: L C R, Side: L R, LFE Частота : 48,0 КГц Битовая глубина : 16 бит Метод сжатия : С потерями Размер потока : 275 Мбайт (6%) Заголовок : DUB (R5) Язык : Russian Default : Да Forced : НетАудио #2: Идентификатор : 3 Формат : AC-3 Формат/Информация : Audio Coding 3 Расширение режима : CM (complete main) Параметр Endianness формата : Big Идентификатор кодека : A_AC3 Продолжительность : 1 ч. 40 м. Вид битрейта : Постоянный Битрейт : 448 Кбит/сек Каналы : 6 каналов Расположение каналов : Front: L C R, Side: L R, LFE Частота : 48,0 КГц Битовая глубина : 16 бит Метод сжатия : С потерями Размер потока : 321 Мбайт (7%) Заголовок : DVO (R2) Язык : Russian Default : Нет Forced : НетАудио #3: Идентификатор : 4 Формат : AC-3 Формат/Информация : Audio Coding 3 Расширение режима : CM (complete main) Параметр Endianness формата : Big Идентификатор кодека : A_AC3 Продолжительность : 1 ч. 40 м. Вид битрейта : Постоянный Битрейт : 448 Кбит/сек Каналы : 6 каналов Расположение каналов : Front: L C R, Side: L R, LFE Частота : 48,0 КГц Битовая глубина : 16 бит Метод сжатия : С потерями Размер потока : 321 Мбайт (7%) Заголовок : AVO (Михаил Иванов) Язык : Russian Default : Нет Forced : НетАудио #4: Идентификатор : 5 Формат : AC-3 Формат/Информация : Audio Coding 3 Расширение режима : CM (complete main) Параметр Endianness формата : Big Идентификатор кодека : A_AC3 Продолжительность : 1 ч. 40 м. Вид битрейта : Постоянный Битрейт : 448 Кбит/сек Каналы : 6 каналов Расположение каналов : Front: L C R, Side: L R, LFE Частота : 48,0 КГц Битовая глубина : 16 бит Метод сжатия : С потерями Размер потока : 321 Мбайт (7%) Заголовок : AVO (Юрий Сербин) Язык : Russian Default : Нет Forced : НетАудио #5: Идентификатор : 6 Формат : AC-3 Формат/Информация : Audio Coding 3 Расширение режима : CM (complete main) Параметр Endianness формата : Big Идентификатор кодека : A_AC3 Продолжительность : 1 ч. 40 м. Вид битрейта : Постоянный Битрейт : 192 Кбит/сек Каналы : 2 канала Расположение каналов : Front: L R Частота : 48,0 КГц Битовая глубина : 16 бит Метод сжатия : С потерями Размер потока : 138 Мбайт (3%) Заголовок : VO (R1shpil, любительский одноголосый) Язык : Russian Default : Нет Forced : НетАудио #6: Идентификатор : 7 Формат : AC-3 Формат/Информация : Audio Coding 3 Расширение режима : CM (complete main) Параметр Endianness формата : Big Идентификатор кодека : A_AC3 Продолжительность : 1 ч. 40 м. Вид битрейта : Постоянный Битрейт : 448 Кбит/сек Каналы : 6 каналов Расположение каналов : Front: L C R, Side: L R, LFE Частота : 48,0 КГц Битовая глубина : 16 бит Метод сжатия : С потерями Размер потока : 321 Мбайт (7%) Заголовок : Original Язык : English Default : Нет Forced : Нет 4,24 Gb 90 14
12 июля 2016 08:08 Как выйти замуж за 3 дня / Leap Year (2010) BDRip AVC .torrent   [Информация о файле (нажмите для просмотра)] Перевод: дублированный, профессиональный двухголосый, авторский, любительский одноголосыйКачество: BDRip AVCСравнение с исходникомФормат: MKVВидео: MPEG-4 AVC, 1959 Кбит/с, 1024x426, 23,976 кадра/сАудио 1: русский, AC3, 384 kbps, 6 ch, 48 kHz [дублированный, R5]Аудио 2: русский, AC3, 448 kbps, 6 ch, 48 kHz [профессиональный двухголосый, R2]Аудио 3: русский, AC3, 448 kbps, 6 ch, 48 kHz [авторский, Михаил Иванов]Аудио 4: русский, AC3, 448 kbps, 6 ch, 48 kHz [авторский, Юрий Сербин]Аудио 5: русский, AC3, 192 kbps, 2 ch, 48 kHz [любительский одноголосый, R1shpil]Аудио 6: английский, AC3, 448 kbps, 6 ch, 48 kHz [оригинал]Субтитры 1: русскиеСубтитры 2: английскиеВидео: Идентификатор : 1 Формат : AVC Формат/Информация : Advanced Video Codec Профиль формата : [email protected] Параметр CABAC формата : Да Параметр ReFrames формата : 9 кадров Идентификатор кодека : V_MPEG4/ISO/AVC Продолжительность : 1 ч. 40 м. Битрейт : 1959 Кбит/сек Ширина : 1024 пикселя Высота : 426 пикселей Соотношение сторон : 2,40:1 Режим частоты кадров : Постоянный Частота кадров : 23,976 кадра/сек Цветовое пространство : YUV Субдискретизация насыщенности : 4:2:0 Битовая глубина : 8 бит Тип развёртки : Прогрессивная Бит/(Пиксели*Кадры) : 0.187 Размер потока : 1,37 Гбайт (44%) Библиотека кодирования : x264 core 146 r2538 121396c Настройки программы : cabac=1 / ref=9 / deblock=1:-1:-1 / analyse=0x3:0x113 / me=umh / subme=10 / psy=1 / psy_rd=1.00:0.15 / mixed_ref=1 / me_range=32 / chroma_me=1 / trellis=2 / 8x8dct=1 / cqm=0 / deadzone=21,11 / fast_pskip=1 / chroma_qp_offset=-3 / threads=6 / lookahead_threads=1 / sliced_threads=0 / nr=0 / decimate=1 / interlaced=0 / bluray_compat=0 / constrained_intra=0 / bframes=9 / b_pyramid=2 / b_adapt=2 / b_bias=0 / direct=1 / weightb=1 / open_gop=0 / weightp=2 / keyint=230 / keyint_min=23 / scenecut=40 / intra_refresh=0 / rc_lookahead=40 / rc=crf / mbtree=0 / crf=17.8 / qcomp=0.60 / qpmin=0 / qpmax=69 / qpstep=4 / vbv_maxrate=40000 / vbv_bufsize=50000 / crf_max=0.0 / nal_hrd=none / filler=0 / ip_ratio=1.40 / pb_ratio=1.30 / aq=1:1.00 Язык : English Default : Да Forced : Нет DURATION : 01:40:16.010000000 NUMBER_OF_FRAMES : 144240 NUMBER_OF_BYTES : 1536580694 _STATISTICS_WRITING_APP : mkvmerge v7.9.0 ('Birds') 64bit _STATISTICS_WRITING_DATE_UTC : 2015-06-25 02:25:55 _STATISTICS_TAGS : BPS DURATION NUMBER_OF_FRAMES NUMBER_OF_BYTESАудио #1: Идентификатор : 2 Формат : AC-3 Формат/Информация : Audio Coding 3 Расширение режима : CM (complete main) Параметр Endianness формата : Big Идентификатор кодека : A_AC3 Продолжительность : 1 ч. 40 м. Вид битрейта : Постоянный Битрейт : 384 Кбит/сек Каналы : 6 каналов Расположение каналов : Front: L C R, Side: L R, LFE Частота : 48,0 КГц Битовая глубина : 16 бит Метод сжатия : С потерями Размер потока : 275 Мбайт (9%) Заголовок : DUB (R5) Язык : Russian Default : Да Forced : НетАудио #2: Идентификатор : 3 Формат : AC-3 Формат/Информация : Audio Coding 3 Расширение режима : CM (complete main) Параметр Endianness формата : Big Идентификатор кодека : A_AC3 Продолжительность : 1 ч. 40 м. Вид битрейта : Постоянный Битрейт : 448 Кбит/сек Каналы : 6 каналов Расположение каналов : Front: L C R, Side: L R, LFE Частота : 48,0 КГц Битовая глубина : 16 бит Метод сжатия : С потерями Размер потока : 321 Мбайт (10%) Заголовок : DVO (R2) Язык : Russian Default : Нет Forced : НетАудио #3: Идентификатор : 4 Формат : AC-3 Формат/Информация : Audio Coding 3 Расширение режима : CM (complete main) Параметр Endianness формата : Big Идентификатор кодека : A_AC3 Продолжительность : 1 ч. 40 м. Вид битрейта : Постоянный Битрейт : 448 Кбит/сек Каналы : 6 каналов Расположение каналов : Front: L C R, Side: L R, LFE Частота : 48,0 КГц Битовая глубина : 16 бит Метод сжатия : С потерями Размер потока : 321 Мбайт (10%) Заголовок : AVO (Михаил Иванов) Язык : Russian Default : Нет Forced : НетАудио #4: Идентификатор : 5 Формат : AC-3 Формат/Информация : Audio Coding 3 Расширение режима : CM (complete main) Параметр Endianness формата : Big Идентификатор кодека : A_AC3 Продолжительность : 1 ч. 40 м. Вид битрейта : Постоянный Битрейт : 448 Кбит/сек Каналы : 6 каналов Расположение каналов : Front: L C R, Side: L R, LFE Частота : 48,0 КГц Битовая глубина : 16 бит Метод сжатия : С потерями Размер потока : 321 Мбайт (10%) Заголовок : AVO (Юрий Сербин) Язык : Russian Default : Нет Forced : НетАудио #5: Идентификатор : 6 Формат : AC-3 Формат/Информация : Audio Coding 3 Расширение режима : CM (complete main) Параметр Endianness формата : Big Идентификатор кодека : A_AC3 Продолжительность : 1 ч. 40 м. Вид битрейта : Постоянный Битрейт : 192 Кбит/сек Каналы : 2 канала Расположение каналов : Front: L R Частота : 48,0 КГц Битовая глубина : 16 бит Метод сжатия : С потерями Размер потока : 138 Мбайт (4%) Заголовок : VO (R1shpil, любительский одноголосый) Язык : Russian Default : Нет Forced : НетАудио #6: Идентификатор : 7 Формат : AC-3 Формат/Информация : Audio Coding 3 Расширение режима : CM (complete main) Параметр Endianness формата : Big Идентификатор кодека : A_AC3 Продолжительность : 1 ч. 40 м. Вид битрейта : Постоянный Битрейт : 448 Кбит/сек Каналы : 6 каналов Расположение каналов : Front: L C R, Side: L R, LFE Частота : 48,0 КГц Битовая глубина : 16 бит Метод сжатия : С потерями Размер потока : 321 Мбайт (10%) Заголовок : Original Язык : English Default : Нет Forced : Нет 3,09 Gb 10 4
12 июля 2016 08:08 Как выйти замуж за 3 дня / Високосный год / Leap Year (2010) HDRip от Scarabey .torrent   [Информация о файле (нажмите для просмотра)] Перевод: Профессиональный (дублированный)Видео: 640x272 (2.35:1), 23.976 fps, XviD build 50 ~903 kbps avg, 0.22 bit/pixelАудио: 48 kHz, MPEG Layer 3, 2 ch, ~128.00 kbps avg 746,3 Mb 5 1
12 июля 2016 08:08 Как выйти замуж за 3 дня / Високосный год / Leap Year (2010) HDRip от Scarabey .torrent   [Информация о файле (нажмите для просмотра)] Перевод: Профессиональный (дублированный)Видео: 720x304 (2.37:1), 23.976 fps, XviD build 50 ~1677 kbps avg, 0.32 bit/pixelАудио: 48 kHz, AC3 Dolby Digital, 3/2 (L,C,R,l,r) + LFE ch, ~384.00 kbps avg 1,45 Gb 62 6
12 июля 2016 08:08 Как выйти замуж за 3 дня / Leap Year (2010) HDRip | КПК от Generalfilm .torrent   [Информация о файле (нажмите для просмотра)] Качество: HDRip | КПКВидео: кодеккодек: x264,формат: mp4,размер кадра: 480x208, битрейт: 350 кб/сАудио: языкрусский, перевод: дублированный (дубляж), 326,76 Mb 3 2
12 июля 2016 08:08 Как выйти замуж за 3 дня / Leap Year (2010) BDRip от HELLYWOOD .torrent   [Информация о файле (нажмите для просмотра)] Перевод: Профессиональный (полное дублирование) + Оригинальная дорожкаСубтитры: Русские, английские (внешние, srt*)Формат: AVIКачество: BDRip (источникВидео: 720x304 (2.37:1), 23.976 fps, XviD MPEG-4 ~2278 kbps avg, 0.43 bit/pixelАудио №1: 48 kHz, AC3 Dolby Digital, 3/2 (L,C,R,l,r) + LFE ch, ~384 kbps|DUB|Аудио №2: 48 kHz, AC3 Dolby Digital, 3/2 (L,C,R,l,r) + LFE ch, ~448 kbps|ENG| 2,18 Gb 3 2
12 июля 2016 08:08 Как выйти замуж за 3 дня / Leap Year (2010) HDRip .torrent   [Информация о файле (нажмите для просмотра)] Перевод: Профессиональный (полное дублирование)Кодек: XviD / MP3Качество: HDRipВидео: XviD, 688x288 (2.39:1), 23.976 fps, ~902 kbps, 0.19 bit/pixelЗвук: MP3, 48 kHz, 2 ch, ~128 kbps 746,17 Mb 3 2
12 июля 2016 08:08 Как выйти замуж за 3 дня / Leap Year (2010) BDRip от HQ-ViDEO .torrent   1,46 Gb 5 2
12 июля 2016 08:08 Как выйти замуж за 3 дня / Leap Year (2010) BDRip от HQCLUB .torrent   [Информация о файле (нажмите для просмотра)] Перевод: Профессиональный (Дублированный) R5 + Профессиональный (Двухголосый) + Оригинал (Английский)Субтитры: Русские, Английские (внешние,srt)Формат: AVIКачество: BDRip (источник:Видео: 720x304 (2.37:1), 23.976 fps, XviD build 50 ~1955 kbps avg, 0.37 bit/pixelАудио #1: 48 kHz, AC3 Dolby Digital, 3/2 (L,C,R,l,r) + LFE ch, ~384 kbps (DUB)Аудио #2: 48 kHz, AC3 Dolby Digital, 3/2 (L,C,R,l,r) + LFE ch, ~384 kbps (DVO)Аудио #3: 48 kHz, AC3 Dolby Digital, 3/2 (L,C,R,l,r) + LFE ch, ~384 kbps (ENG) 2,18 Gb 3 4
12 июля 2016 08:08 Как выйти замуж за 3 дня / Leap Year (2010) DVD5 .torrent   [Информация о файле (нажмите для просмотра)] Перевод: профессиональный (дублированный)Качество: DVD5 (от vadi)Контейнер: DVD VideoВидео: PAL 16:9 (720x576) VBRАудио: Pyccкuй (Dolby AC3, 6 ch, 384Kbps)Аудио 2: English (Dolby AC3, 6 ch, 384Kbps) - оригинальная звуковая дорожкаВидео: Идентификатор : 224 (0xE0) Формат : MPEG Video Версия формата : Version 2 Профайл формата : [email protected] Параметры BVOP формата : Да Параметры матрицы формата : По умолчанию Продолжительность : 22 м. Вид битрейта : Переменный Битрейт : 5452 Кбит/сек Номинальный битрейт : 7962 Кбит/сек Ширина : 720 пикс. Высота : 576 пикс. Соотношение кадра : 16:9 Частота кадров : 25,000 кадр/сек Стандарт вещания : PAL Разрешение : 8 бит Колориметрия : 4:2:0 Тип развёртки : Чересстрочная Порядок развёртки : Верхнее поле первое Бит/(Пиксели*Кадры) : 0.526 Размер потока : 880 МиБ (86%)Аудио #1: Идентификатор : 128 (0x80) Формат : AC-3 Формат/Информация : Audio Coding 3 Format_Settings_ModeExtension : CM (complete main) Продолжительность : 22 м. Вид битрейта : Постоянный Битрейт : 384 Кбит/сек Канал(ы) : 6 канала(ов) Расположение каналов : Front: L C R, Side: L R, LFE Частота : 48,0 КГц Размер потока : 61,9 МиБ (6%)Аудио #2: Идентификатор : 129 (0x81) Формат : AC-3 Формат/Информация : Audio Coding 3 Format_Settings_ModeExtension : CM (complete main) Продолжительность : 22 м. Вид битрейта : Постоянный Битрейт : 384 Кбит/сек Канал(ы) : 6 канала(ов) Расположение каналов : Front: L C R, Side: L R, LFE Частота : 48,0 КГц Размер потока : 61,9 МиБ (6%) 4,37 Gb 1 1

Как выйти замуж за 3 дня через торрент

piratbit.ru

Размер: 1.36 GB | Добавлен: 6 лет 11 мес. назад | Торрент скачан:1367 раз
Реклама Дарим 3000 рублей за регистрацию, не упусти свой шанс получить шикарный бонус!!!

27-10-2010 16:41 Как выйти замуж за 3 дня Скачать торрент  

Как выйти замуж за 3 дня / Високосный год / Leap YearГод выпуска: 2010Страна: США, ИрландияЖанр: комедия, мелодрамаПродолжительность: 01:40:16Перевод: Профессиональный (полное дублирование)Тип релиза: Лицензия

Режиссер: Ананд Такер

В ролях: Эми Адамс, Мэттью Гуд, Адам Скотт, Джон Литгоу, Ноэль О`Донован, Тони Рор, Пэт Лаффан, Алан Девлин, Йен МакЭлхинни, Доминик МакЭллигот

Описание: В англоязычных странах есть традиция - 29 февраля женщина может сделать предложение мужчине, и он не имеет права отказаться. И вот чопорная дама едет в Дублин, чтобы именно в этот день попробовать сделать предложение своему бойфренду.Но погода меняет её планы, и чтобы осуществить задуманное, ей приходится прибегнуть к помощи ворчливого ирландца - хозяина гостиницы. Вместе с ним героиня вынуждена путешествовать через всю страну, чтобы успеть вовремя сделать предложение.

Качество: HDRip [Рип с BDRip 720p]Формат: AVIВидео кодек: XviDАудио кодек: AC3Видео: 720x304 (2.37:1), 23.976 fps, XviD build 50 ~1490 kbps avg, 0.28 bit/pixelАудио: 48 kHz, AC3 Dolby Digital, 3/2 (L,C,R,l,r) + LFE ch, ~448 kbps

Скачать Как выйти замуж за 3 дня через торрент http://s013.radikal.ru/i324/1010/a3/dbf8cbd621dd.jpg Скачать фильм Как выйти замуж за 3 дня через торрент бесплантно в хорошем качестве Описание: В англоязычных странах есть традиция - 29 февраля женщина может сделать предложение мужчине, и он не имеет права отказаться. И ... 2010-10-27 16:41 9.6 10 5

Loading...

Loading...

Рекламный пират

27-10-2010 16:46 Как выйти замуж за 3 дня Скачать торрент  

27-10-2010 16:53 Как выйти замуж за 3 дня Скачать торрент  

Хороший фильм Местами, от души посмеявши

27-10-2010 17:07 Как выйти замуж за 3 дня Скачать торрент  

"Я потрясен, как бегло ты говоришь на коровьем языке!" Уже за одну эту фразу я полюбил этот фильм! Спасибо за раздачу! Я в сидах. :good2:

Последний раз редактировалось: Monarch (2010-10-27 17:13), всего редактировалось 1 раз

27-10-2010 17:12 Как выйти замуж за 3 дня Скачать торрент  

Аригато! Глянем)

27-10-2010 17:15 Как выйти замуж за 3 дня Скачать торрент  

спасибо за релиз

27-10-2010 17:52 Как выйти замуж за 3 дня Скачать торрент  

29-10-2010 06:04 Как выйти замуж за 3 дня Скачать торрент  

08-11-2010 18:08 Как выйти замуж за 3 дня Скачать торрент  

Глянем что за фильм

Pекламный агент PB

06-05-2011 22:05 Как выйти замуж за 3 дня Скачать торрент  

Кхм)) прежде всего, спасибо за раздачу, замечательно всё) во-вторых, конечно, местами смешно, местами очень, а местами трогательно - ну, всё для хорошего вечера с улыбкой перед экраном, что тут говорить)

Просто те, кто интересуется или даже любит кино, не удивляйтесь, что перед вами торжественным маршем пройдут все известные штампы и приёмы из любого мало-мальски честного учебника режиссерского и сценарного мастерства)) а кто давно и с удовольствием просто смотрит кино, не пугайтесь, если у вас возникнут ассоциации - у кого с "Романом о камне", у кого с "Певцом на свадьбе", а то и того раньше, с "Римскими каникулами", например))))

Но посмотреть однажды - безболезненно, картинка хорошая, актёры забавные, кто знает, что у них впереди) Качайте и радуйтесь, жалеть особенно не придётся. В кино не пошел бы, а скачал - посмеялся)

Автору раздачи ещё раз спасибо.

Дорогой пользователь! Огромная просьба, поблагодарите релизера, оцените раздачу и оставьте свои комментарий, если Вы скачали Как выйти замуж за 3 дня через торрент бесплатно! Внесите свою лепту в развитие PiratBit!

Комментировать посты могут только пользователи прошедшие не сложную регистрацию

Как выйти замуж за 3 дня через торрент Скачать бесплатно Как выйти замуж за 3 дня Как выйти замуж за 3 дня скачать торрент Как выйти замуж за 3 дня смотреть онлайн Cкачать фильм Как выйти замуж за 3 дня бесплатно Как выйти замуж за 3 дня скачать торрент в хорошем качестве Как выйти замуж за 3 дня смотреть онлайн бесплатно в хорошем качестве

Вы не можете начинать темыВы не можете отвечать на сообщенияВы не можете редактировать свои сообщенияВы не можете удалять свои сообщенияВы не можете голосовать в опросахВы не можете прикреплять файлы к сообщениямВы можете скачивать файлы

Как выйти замуж за 3 дня через торрент

piratbit.ru

Размер: 5.22 GB | Добавлен: 6 лет 11 мес. назад | Торрент скачан:83 раза
Реклама Дарим 3000 рублей за регистрацию, не упусти свой шанс получить шикарный бонус!!!

03-11-2010 09:25 Как выйти замуж за 3 дня Скачать торрент  

Как выйти замуж за 3 дня / Високосный год / Leap Year«Anna planned to propose to her boyfriend on February 29th. This is not her boyfriend.»[img=left]http:// СПАМГод выпуска: 2010Страна: США, ИрландияЖанр: Комедия, мелодраммаПродолжительность: 01:40:16Субтитры: Русские, АнглийскиеПеревод:Профессиональный (дублированный)Оригинальная аудиодорожка: английскаяРежиссер: Ананд ТакерСценарий: Дебора Каплан, Гарри ЭлфонтПродюсер: Су Армстронг, Дж.С. Спинк, Джэйк УэйнерОператор Ньютон Томас СигелКомпозитор: Рэнди ЭделменБюджет: $19 000 000 | Сборы в мире: $32 607 316IMDB: 6.1 (8,812) | КиноПоиск: 7.151 (3 284)КиноПоиск.Ru | IMDb.comВ ролях: Эми Адамс, Мэттью Гуд, Адам Скотт, Джон Литгоу, Ноэль О`Донован, Тони Рор, Пэт Лаффан, Алан Девлин, Йен МакЭлхинни, Доминик МакЭллиготОписание:В англоязычных странах есть традиция — 29 февраля женщина может сделать предложение мужчине, и он не имеет права отказаться. И вот чопорная дама едет в Дублин, чтобы именно в этот день попробовать сделать предложение своему бойфренду. Но погода меняет её планы, и чтобы осуществить задуманное, ей приходится прибегнуть к помощи ворчливого ирландца — хозяина гостиницы. Вместе с ним героиня вынуждена путешествовать через всю страну, чтобы успеть вовремя сделать предложение.Качество: BDRip | [img]http:// СПАМ |Контейнер: MKVФормат: AVC | Аудио кодек: AC3, DTSВидео: MPEG-4 AVC, 5555 Кбит/с, 1280x534, 23.976 кадр/сАудио:1. RUSSIAN AC3, 48,0 КГц, 6 ch, 384 Кбит/с2. English DTS, 48,0 КГц, 6 ch, 1536 Кбит/сСубтитры:softsub (SRT)SampleОбщееПолное имя : L:\Kak.vyjti.zamuzh.za.tri.dnja.2010.x264.BDRip(720p).mkvФормат : MatroskaРазмер файла : 5,22 ГигабайтПродолжительность : 1 ч. 40 м.Общий поток : 7450 Кбит/секФильм : --SCHUMAHER--Дата кодирования : UTC 2010-10-30 06:45:40Программа-кодировщик : mkvmerge v2.3.0 ('Freak U') built on Sep 8 2008 18:32:16Библиотека кодирования : libebml v0.7.7 libmatroska v0.8.1

ВидеоИдентификатор : 1Формат : AVCФормат/Информация : Advanced Video CodecПрофайл формата : [email protected]Параметры CABAC формата : ДаПараметры ReFrames формата : 12 кадрыРежим смешивания : Container [email protected]Идентификатор кодека : V_MPEG4/ISO/AVCПродолжительность : 1 ч. 40 м.Битрейт : 5406 Кбит/секНоминальный битрейт : 5555 Кбит/секШирина : 1280 пикс.Высота : 534 пикс.Соотношение кадра : 2.35Частота кадров : 23,976 кадр/секРазрешение : 24 битКолориметрия : 4:2:0Тип развёртки : ПрогрессивнаяБит/(Пиксели*Кадры) : 0.330Размер потока : 3,78 Гигабайт (72%)Библиотека кодирования : x264 core 100 r1659 57b2e56Настройки программы : cabac=1 / ref=12 / deblock=1:-3:-3 / analyse=0x3:0x113 / me=tesa / subme=10 / psy=1 / psy_rd=1.00:0.00 / mixed_ref=1 / me_range=32 / chroma_me=1 / trellis=2 / 8x8dct=1 / cqm=0 / deadzone=21,11 / fast_pskip=0 / chroma_qp_offset=-2 / threads=6 / sliced_threads=0 / nr=0 / decimate=0 / interlaced=0 / constrained_intra=0 / bframes=5 / b_pyramid=2 / b_adapt=2 / b_bias=0 / direct=3 / weightb=1 / open_gop=0 / weightp=2 / keyint=250 / keyint_min=25 / scenecut=40 / intra_refresh=0 / rc=2pass / mbtree=0 / bitrate=5555 / ratetol=1.0 / qcomp=0.60 / qpmin=10 / qpmax=51 / qpstep=4 / cplxblur=20.0 / qblur=0.5 / ip_ratio=1.40 / pb_ratio=1.30 / aq=1:0.80Язык : English

Аудио #1Идентификатор : 2Формат : AC-3Формат/Информация : Audio Coding 3Идентификатор кодека : A_AC3Продолжительность : 1 ч. 40 м.Вид битрейта : ПостоянныйБитрейт : 384 Кбит/секКанал(ы) : 6 канала(ов)Расположение каналов : Front: L C R, Surround: L R, LFEЧастота : 48,0 КГцЗадержка видео : 28 мс.Размер потока : 275 Мегабайт (5%)Язык : Russian

Аудио #2Идентификатор : 3Формат : DTSФормат/Информация : Digital Theater SystemsИдентификатор кодека : A_DTSПродолжительность : 1 ч. 40 м.Вид битрейта : ПостоянныйБитрейт : 1510 Кбит/секКанал(ы) : 6 канала(ов)Расположение каналов : Front: L C R, Surround: L R, LFEЧастота : 48,0 КГцРазрешение : 24 битРазмер потока : 1,06 Гигабайт (20%)Язык : English

Текст #1Идентификатор : 4Формат : UTF-8Идентификатор кодека : S_TEXT/UTF8Идентификатор кодека/Информация : UTF-8 Plain TextЯзык : English

Текст #2Идентификатор : 5Формат : UTF-8Идентификатор кодека : S_TEXT/UTF8Идентификатор кодека/Информация : UTF-8 Plain Text

Меню00:00:00.000 : en:00:00:00.00000:05:01.384 : en:00:05:01.38400:09:21.477 : en:00:09:21.47700:13:55.501 : en:00:13:55.50100:20:45.744 : en:00:20:45.74400:24:58.622 : en:00:24:58.62200:30:36.000 : en:00:30:36.00000:35:46.769 : en:00:35:46.76900:40:15.788 : en:00:40:15.78800:44:46.642 : en:00:44:46.64200:51:41.056 : en:00:51:41.05600:56:27.050 : en:00:56:27.05000:58:47.315 : en:00:58:47.31501:02:10.727 : en:01:02:10.72701:06:46.085 : en:01:06:46.08501:11:49.096 : en:01:11:49.09601:18:11.478 : en:01:18:11.47801:21:58.496 : en:01:21:58.49601:26:56.502 : en:01:26:56.50201:34:24.992 : en:01:34:24.992

Скриншоты:[th]http:// СПАМ Скачать Как выйти замуж за 3 дня через торрент http://pic.pb.wtf/images/6/gbzkm.jpg Скачать фильм Как выйти замуж за 3 дня через торрент бесплантно в хорошем качестве Описание:В англоязычных странах есть традиция — 29 февраля женщина может сделать предложение мужчине, и он не имеет права отказаться. И вот ... 2010-11-03 09:25 5 10 4

Loading...

Loading...

Рекламный пират

03-11-2010 13:13 Как выйти замуж за 3 дня Скачать торрент  

проверит может кто нибудь?

03-11-2010 16:22 Как выйти замуж за 3 дня Скачать торрент  

diletantА без эмоций можно?

03-11-2010 16:31 Как выйти замуж за 3 дня Скачать торрент  

конечно можно, особенно когда раздача по 6 часов висеть не будет)

Дорогой пользователь! Огромная просьба, поблагодарите релизера, оцените раздачу и оставьте свои комментарий, если Вы скачали Как выйти замуж за 3 дня через торрент бесплатно! Внесите свою лепту в развитие PiratBit!

Комментировать посты могут только пользователи прошедшие не сложную регистрацию

Как выйти замуж за 3 дня через торрент Скачать бесплатно Как выйти замуж за 3 дня Как выйти замуж за 3 дня скачать торрент Как выйти замуж за 3 дня смотреть онлайн Cкачать фильм Как выйти замуж за 3 дня бесплатно Как выйти замуж за 3 дня скачать торрент в хорошем качестве Как выйти замуж за 3 дня смотреть онлайн бесплатно в хорошем качестве

Вы не можете начинать темыВы не можете отвечать на сообщенияВы не можете редактировать свои сообщенияВы не можете удалять свои сообщенияВы не можете голосовать в опросахВы не можете прикреплять файлы к сообщениямВы можете скачивать файлы

Как выйти замуж за 3 дня 2010

www.kinovit.net

Название: Как выйти замуж за 3 дня / Leap Year (2010) BDRip 1080p
Качество видео: BDRip 1080p Сравнение с исходником
Перевод: дублированный, профессиональный двухголосый, авторский, любительский одноголосый
Формат видео: MKV
Видео: MPEG-4 AVC, 10.2 Mбит/с, 1920x800, 23,976 кадра/с
Аудио: русский, AC3, 384 kbps, 6 ch, 48 kHz [дублированный, R5]русский, AC3, 448 kbps, 6 ch, 48 kHz [профессиональный двухголосый, R2]русский, DTS, 1509 kbps, 6 ch, 48 kHz [авторский, Михаил Иванов]русский, DTS, 1509 kbps, 6 ch, 48 kHz [авторский, Юрий Сербин]русский, AC3, 192 kbps, 2 ch, 48 kHz [любительский одноголосый, R1shpil]английский, DTS, 1509 kbps, 6 ch, 48 kHz [оригинал]
Скачать

Загрузка начнется в течение 5 сек.

11.29 GB

Название: Как выйти замуж за 3 дня / Leap Year (2010) HDRip | A
Качество видео: HDRip
Перевод: Авторский (одноголосый закадровый) Юрий Сербин, Авторский (одноголосый закадровый) Михаил Иванов
Видео: XviD 720x304 (2.37:1), 23.976 fps, XviD build 62 ~2278 kbps avg, 0.43 bit/pixel
Аудио: 48 kHz, AC3 Dolby Digital, 3/2 (L,C,R,l,r) + LFE ch, ~384 kbps Сербин48 kHz, AC3 Dolby Digital, 3/2 (L,C,R,l,r) + LFE ch, ~448 kbps Иванов
Скачать

Загрузка начнется в течение 5 сек.

2.18 GB

Название: Как выйти замуж за 3 дня / Leap Year (2010) BDRip 720p от NNNB | D,P2,A,L1
Качество видео: BDRip 720p
Перевод: Дублированный, Профессиональный (двухголосый), Авторский (одноголосый), Любительский (одноголосый)
Формат видео: AVC (библиотека кодирования x.264)
Видео: 1280x534, 3568 Кбит/сек, 23,976 кадр/сек, 0,210 Бит/[Пиксели*Кадры]
Аудио: русский / AC3 / 5.1 / 48 kHz / 384 kbps / 16 bit |Дублированный, R5|русский / AC3 / 5.1 / 48 kHz / 448 kbps / 16 bit |Двухголосый закадровый, R2|русский / AC3 / 5.1 / 48 kHz / 640 kbps / 16 bit |Авторский, Юрий Сербин|русский / AC3 / 5.1 / 48 kHz / 640 kbps / 16 bit |Авторский, Михаил Иванов|русский / AC3 / 2.0 / 48 kHz / 192 kbps / 16 bit |Любительский одноголосый, R1shpil|английский / AC3 / 5.1 / 48 kHz / 640 kbps /
Скачать

Загрузка начнется в течение 5 сек.

4.56 GB

Название: Как выйти замуж за 3 дня / Leap Year (2010) BDRip 720p
Качество видео: BDRip 720p Сравнение с исходником
Перевод: дублированный, профессиональный двухголосый, авторский, любительский одноголосый
Формат видео: MKV
Видео: MPEG-4 AVC, 3566 Кбит/с, 1280x720, 23,976 кадра/с
Аудио: русский, AC3, 384 kbps, 6 ch, 48 kHz [дублированный, R5]русский, AC3, 448 kbps, 6 ch, 48 kHz [профессиональный двухголосый, R2]русский, AC3, 448 kbps, 6 ch, 48 kHz [авторский, Михаил Иванов]русский, AC3, 448 kbps, 6 ch, 48 kHz [авторский, Юрий Сербин]русский, AC3, 192 kbps, 2 ch, 48 kHz [любительский одноголосый, R1shpil]английский, AC3, 448 kbps, 6 ch, 48 kHz [оригинал]
Скачать

Загрузка начнется в течение 5 сек.

4.24 GB

Название: Как выйти замуж за 3 дня / Leap Year (2010) BDRip AVC
Качество видео: BDRip AVC Сравнение с исходником
Перевод: дублированный, профессиональный двухголосый, авторский, любительский одноголосый
Формат видео: MKV
Видео: MPEG-4 AVC, 1959 Кбит/с, 1024x426, 23,976 кадра/с
Аудио: русский, AC3, 384 kbps, 6 ch, 48 kHz [дублированный, R5]русский, AC3, 448 kbps, 6 ch, 48 kHz [профессиональный двухголосый, R2]русский, AC3, 448 kbps, 6 ch, 48 kHz [авторский, Михаил Иванов]русский, AC3, 448 kbps, 6 ch, 48 kHz [авторский, Юрий Сербин]русский, AC3, 192 kbps, 2 ch, 48 kHz [любительский одноголосый, R1shpil]английский, AC3, 448 kbps, 6 ch, 48 kHz [оригинал]
Скачать

Загрузка начнется в течение 5 сек.

3.09 GB

Название: Как выйти замуж за 3 дня / Leap Year (2010) HDRip | КПК от Generalfilm
Качество видео: HDRip | КПК
Видео: кодек: x264, формат: mp4, размер кадра: 480x208, битрейт: 350 кб/с
Аудио: язык: русский, перевод: дублированный (дубляж), кодек: AAC LC 2.0, битрейт: 103 кб/с
Скачать

Загрузка начнется в течение 5 сек.

326.76 MB

Как выйти замуж за 3 дня через торрент

Format                                   : MatroskaFormat version                           : Version 2File size                                : 4.56 GiBDuration                                 : 1h 40mnOverall bit rate                         : 6 515 KbpsMovie name                               : Leap Year.(2010).BDRip.720p.[denis100]Encoded date                             : UTC 2015-06-25 19:30:09Writing application                      : mkvmerge v5.8.0 ('No Sleep / Pillow') built on Sep  2 2012 15:37:04Writing library                          : libebml v1.2.3 + libmatroska v1.3.0

VideoID                                       : 1Format                                   : AVCFormat/Info                              : Advanced Video CodecFormat profile                           : [email protected] settings, CABAC                   : YesFormat settings, ReFrames                : 11 framesCodec ID                                 : V_MPEG4/ISO/AVCDuration                                 : 1h 40mnBit rate                                 : 3 441 KbpsWidth                                    : 1 280 pixelsHeight                                   : 534 pixelsDisplay aspect ratio                     : 2.40:1Frame rate                               : 23.976 fpsColor space                              : YUVChroma subsampling                       : 4:2:0Bit depth                                : 8 bitsScan type                                : ProgressiveBits/(Pixel*Frame)                       : 0.210Stream size                              : 2.41 GiB (53%)Title                                    : Leap Year.(2010).BDRip.720p.[denis100]Writing library                          : x264 core 146 r2538 121396cEncoding settings                        : cabac=1 / ref=11 / deblock=1:-3:-3 / analyse=0x3:0x133 / me=umh / subme=11 / psy=1 / psy_rd=1.00:0.00 / mixed_ref=1 / me_range=32 / chroma_me=1 / trellis=2 / 8x8dct=1 / cqm=0 / deadzone=21,11 / fast_pskip=0 / chroma_qp_offset=-2 / threads=6 / lookahead_threads=1 / sliced_threads=0 / nr=0 / decimate=1 / interlaced=0 / bluray_compat=0 / constrained_intra=0 / bframes=9 / b_pyramid=2 / b_adapt=2 / b_bias=0 / direct=3 / weightb=1 / open_gop=0 / weightp=2 / keyint=240 / keyint_min=23 / scenecut=40 / intra_refresh=0 / rc=crf / mbtree=0 / crf=17.5 / qcomp=0.60 / qpmin=0 / qpmax=69 / qpstep=4 / ip_ratio=1.40 / pb_ratio=1.30 / aq=1:1.00Language                                 : EnglishDefault                                  : YesForced                                   : No

Audio #1ID                                       : 2Format                                   : AC-3Format/Info                              : Audio Coding 3Mode extension                           : CM (complete main)Codec ID                                 : A_AC3Duration                                 : 1h 40mnBit rate mode                            : ConstantBit rate                                 : 384 KbpsChannel(s)                               : 6 channelsChannel positions                        : Front: L C R, Side: L R, LFESampling rate                            : 48.0 KHzBit depth                                : 16 bitsCompression mode                         : LossyStream size                              : 275 MiB (6%)Title                                    : Дубляж, R5Language                                 : RussianDefault                                  : YesForced                                   : No

Audio #2ID                                       : 3Format                                   : AC-3Format/Info                              : Audio Coding 3Mode extension                           : CM (complete main)Codec ID                                 : A_AC3Duration                                 : 1h 40mnBit rate mode                            : ConstantBit rate                                 : 448 KbpsChannel(s)                               : 6 channelsChannel positions                        : Front: L C R, Side: L R, LFESampling rate                            : 48.0 KHzBit depth                                : 16 bitsCompression mode                         : LossyStream size                              : 321 MiB (7%)Title                                    : Двухголосый закадровый, R2Language                                 : RussianDefault                                  : NoForced                                   : No

Audio #3ID                                       : 4Format                                   : AC-3Format/Info                              : Audio Coding 3Mode extension                           : CM (complete main)Codec ID                                 : A_AC3Duration                                 : 1h 40mnBit rate mode                            : ConstantBit rate                                 : 640 KbpsChannel(s)                               : 6 channelsChannel positions                        : Front: L C R, Side: L R, LFESampling rate                            : 48.0 KHzBit depth                                : 16 bitsCompression mode                         : LossyStream size                              : 459 MiB (10%)Title                                    : Авторский, Юрий СербинLanguage                                 : RussianDefault                                  : NoForced                                   : No

Audio #4ID                                       : 5Format                                   : AC-3Format/Info                              : Audio Coding 3Mode extension                           : CM (complete main)Codec ID                                 : A_AC3Duration                                 : 1h 40mnBit rate mode                            : ConstantBit rate                                 : 640 KbpsChannel(s)                               : 6 channelsChannel positions                        : Front: L C R, Side: L R, LFESampling rate                            : 48.0 KHzBit depth                                : 16 bitsCompression mode                         : LossyStream size                              : 459 MiB (10%)Title                                    : Авторский, Михаил ИвановLanguage                                 : RussianDefault                                  : NoForced                                   : No

Audio #5ID                                       : 6Format                                   : AC-3Format/Info                              : Audio Coding 3Mode extension                           : CM (complete main)Codec ID                                 : A_AC3Duration                                 : 1h 40mnBit rate mode                            : ConstantBit rate                                 : 192 KbpsChannel(s)                               : 2 channelsChannel positions                        : Front: L RSampling rate                            : 48.0 KHzBit depth                                : 16 bitsCompression mode                         : LossyStream size                              : 138 MiB (3%)Title                                    : любительский одноголосый, R1shpilLanguage                                 : RussianDefault                                  : NoForced                                   : No

Audio #6ID                                       : 7Format                                   : AC-3Format/Info                              : Audio Coding 3Mode extension                           : CM (complete main)Codec ID                                 : A_AC3Duration                                 : 1h 40mnBit rate mode                            : ConstantBit rate                                 : 640 KbpsChannel(s)                               : 6 channelsChannel positions                        : Front: L C R, Side: L R, LFESampling rate                            : 48.0 KHzBit depth                                : 16 bitsCompression mode                         : LossyStream size                              : 459 MiB (10%)Language                                 : EnglishDefault                                  : NoForced                                   : No

Text #1ID                                       : 8Format                                   : UTF-8Codec ID                                 : S_TEXT/UTF8Codec ID/Info                            : UTF-8 Plain TextLanguage                                 : RussianDefault                                  : NoForced                                   : No

Text #2ID                                       : 9Format                                   : UTF-8Codec ID                                 : S_TEXT/UTF8Codec ID/Info                            : UTF-8 Plain TextLanguage                                 : EnglishDefault                                  : NoForced                                   : No

Menu00:00:00.000                             : en:00:00:00.00000:05:00.000                             : en:00:05:00.00000:05:01.384                             : en:00:05:01.38400:09:21.475                             : en:00:09:21.47500:10:00.000                             : en:00:10:00.00000:13:55.500                             : en:00:13:55.50000:15:00.000                             : en:00:15:00.00000:20:00.000                             : en:00:20:00.00000:20:45.741                             : en:00:20:45.74100:24:58.622                             : en:00:24:58.62200:25:00.000                             : en:00:25:00.00000:30:00.000                             : en:00:30:00.00000:30:36.000                             : en:00:30:36.00000:35:00.000                             : en:00:35:00.00000:35:46.768                             : en:00:35:46.76800:40:00.000                             : en:00:40:00.00000:40:15.788                             : en:00:40:15.78800:44:46.641                             : en:00:44:46.64100:45:00.000                             : en:00:45:00.00000:50:00.000                             : en:00:50:00.00000:51:41.056                             : en:00:51:41.05600:55:00.000                             : en:00:55:00.00000:56:27.050                             : en:00:56:27.05000:58:47.315                             : en:00:58:47.31501:00:00.000                             : en:01:00:00.00001:02:10.726                             : en:01:02:10.72601:05:00.000                             : en:01:05:00.00001:06:46.085                             : en:01:06:46.08501:10:00.000                             : en:01:10:00.00001:11:49.095                             : en:01:11:49.09501:15:00.000                             : en:01:15:00.00001:18:11.478                             : en:01:18:11.47801:20:00.000                             : en:01:20:00.00001:21:58.497                             : en:01:21:58.49701:25:00.000                             : en:01:25:00.00001:26:56.502                             : en:01:26:56.50201:30:00.000                             : en:01:30:00.00001:34:24.993                             : en:01:34:24.99301:35:00.000                             : en:01:35:00.00001:40:00.000                             : en:01:40:00.000

piratbit.ru

Как выйти замуж за 3 дня через торрент

ОбщееУникальный идентификатор : 172218221123301503216497779055431392276 (0x819005DCF95D4EAA858367EE8D5E1C14)Полное имя : D:VideoКак выйти замуж за 3 дня.2009.BDRip.AVC.mkvФормат : MatroskaВерсия формата : Version 4 / Version 2Размер файла : 3,09 ГбайтПродолжительность : 1 ч. 40 м.Общий поток : 4415 Кбит/секНазвание фильма : BDRip -- STarankovДата кодирования : UTC 2015-06-25 02:25:55Программа кодирования : mkvmerge v7.9.0 ('Birds') 64bitБиблиотека кодирования : libebml v1.3.1 + libmatroska v1.4.2DURATION : 01:34:23.830000000NUMBER_OF_FRAMES : 1325NUMBER_OF_BYTES : 39976_STATISTICS_WRITING_APP : mkvmerge v7.9.0 ('Birds') 64bit_STATISTICS_WRITING_DATE_UTC : 2015-06-25 02:25:55_STATISTICS_TAGS : BPS DURATION NUMBER_OF_FRAMES NUMBER_OF_BYTES

ВидеоИдентификатор : 1Формат : AVCФормат/Информация : Advanced Video CodecПрофиль формата : [email protected]Параметр CABAC формата : ДаПараметр ReFrames формата : 9 кадровИдентификатор кодека : V_MPEG4/ISO/AVCПродолжительность : 1 ч. 40 м.Битрейт : 1959 Кбит/секШирина : 1024 пикселяВысота : 426 пикселейСоотношение сторон : 2,40:1Режим частоты кадров : ПостоянныйЧастота кадров : 23,976 кадра/секЦветовое пространство : YUVСубдискретизация насыщенности : 4:2:0Битовая глубина : 8 битТип развёртки : ПрогрессивнаяБит/(Пиксели*Кадры) : 0.187Размер потока : 1,37 Гбайт (44%)Библиотека кодирования : x264 core 146 r2538 121396cНастройки программы : cabac=1 / ref=9 / deblock=1:-1:-1 / analyse=0x3:0x113 / me=umh / subme=10 / psy=1 / psy_rd=1.00:0.15 / mixed_ref=1 / me_range=32 / chroma_me=1 / trellis=2 / 8x8dct=1 / cqm=0 / deadzone=21,11 / fast_pskip=1 / chroma_qp_offset=-3 / threads=6 / lookahead_threads=1 / sliced_threads=0 / nr=0 / decimate=1 / interlaced=0 / bluray_compat=0 / constrained_intra=0 / bframes=9 / b_pyramid=2 / b_adapt=2 / b_bias=0 / direct=1 / weightb=1 / open_gop=0 / weightp=2 / keyint=230 / keyint_min=23 / scenecut=40 / intra_refresh=0 / rc_lookahead=40 / rc=crf / mbtree=0 / crf=17.8 / qcomp=0.60 / qpmin=0 / qpmax=69 / qpstep=4 / vbv_maxrate=40000 / vbv_bufsize=50000 / crf_max=0.0 / nal_hrd=none / filler=0 / ip_ratio=1.40 / pb_ratio=1.30 / aq=1:1.00Язык : EnglishDefault : ДаForced : НетDURATION : 01:40:16.010000000NUMBER_OF_FRAMES : 144240NUMBER_OF_BYTES : 1536580694_STATISTICS_WRITING_APP : mkvmerge v7.9.0 ('Birds') 64bit_STATISTICS_WRITING_DATE_UTC : 2015-06-25 02:25:55_STATISTICS_TAGS : BPS DURATION NUMBER_OF_FRAMES NUMBER_OF_BYTES

Аудио #1Идентификатор : 2Формат : AC-3Формат/Информация : Audio Coding 3Расширение режима : CM (complete main)Параметр Endianness формата : BigИдентификатор кодека : A_AC3Продолжительность : 1 ч. 40 м.Вид битрейта : ПостоянныйБитрейт : 384 Кбит/секКаналы : 6 каналовРасположение каналов : Front: L C R, Side: L R, LFEЧастота : 48,0 КГцБитовая глубина : 16 битМетод сжатия : С потерямиРазмер потока : 275 Мбайт (9%)Заголовок : DUB (R5)Язык : RussianDefault : ДаForced : Нет

Аудио #2Идентификатор : 3Формат : AC-3Формат/Информация : Audio Coding 3Расширение режима : CM (complete main)Параметр Endianness формата : BigИдентификатор кодека : A_AC3Продолжительность : 1 ч. 40 м.Вид битрейта : ПостоянныйБитрейт : 448 Кбит/секКаналы : 6 каналовРасположение каналов : Front: L C R, Side: L R, LFEЧастота : 48,0 КГцБитовая глубина : 16 битМетод сжатия : С потерямиРазмер потока : 321 Мбайт (10%)Заголовок : DVO (R2)Язык : RussianDefault : НетForced : Нет

Аудио #3Идентификатор : 4Формат : AC-3Формат/Информация : Audio Coding 3Расширение режима : CM (complete main)Параметр Endianness формата : BigИдентификатор кодека : A_AC3Продолжительность : 1 ч. 40 м.Вид битрейта : ПостоянныйБитрейт : 448 Кбит/секКаналы : 6 каналовРасположение каналов : Front: L C R, Side: L R, LFEЧастота : 48,0 КГцБитовая глубина : 16 битМетод сжатия : С потерямиРазмер потока : 321 Мбайт (10%)Заголовок : AVO (Михаил Иванов)Язык : RussianDefault : НетForced : Нет

Аудио #4Идентификатор : 5Формат : AC-3Формат/Информация : Audio Coding 3Расширение режима : CM (complete main)Параметр Endianness формата : BigИдентификатор кодека : A_AC3Продолжительность : 1 ч. 40 м.Вид битрейта : ПостоянныйБитрейт : 448 Кбит/секКаналы : 6 каналовРасположение каналов : Front: L C R, Side: L R, LFEЧастота : 48,0 КГцБитовая глубина : 16 битМетод сжатия : С потерямиРазмер потока : 321 Мбайт (10%)Заголовок : AVO (Юрий Сербин)Язык : RussianDefault : НетForced : Нет

Аудио #5Идентификатор : 6Формат : AC-3Формат/Информация : Audio Coding 3Расширение режима : CM (complete main)Параметр Endianness формата : BigИдентификатор кодека : A_AC3Продолжительность : 1 ч. 40 м.Вид битрейта : ПостоянныйБитрейт : 192 Кбит/секКаналы : 2 каналаРасположение каналов : Front: L RЧастота : 48,0 КГцБитовая глубина : 16 битМетод сжатия : С потерямиРазмер потока : 138 Мбайт (4%)Заголовок : VO (R1shpil, любительский одноголосый)Язык : RussianDefault : НетForced : Нет

Аудио #6Идентификатор : 7Формат : AC-3Формат/Информация : Audio Coding 3Расширение режима : CM (complete main)Параметр Endianness формата : BigИдентификатор кодека : A_AC3Продолжительность : 1 ч. 40 м.Вид битрейта : ПостоянныйБитрейт : 448 Кбит/секКаналы : 6 каналовРасположение каналов : Front: L C R, Side: L R, LFEЧастота : 48,0 КГцБитовая глубина : 16 битМетод сжатия : С потерямиРазмер потока : 321 Мбайт (10%)Заголовок : OriginalЯзык : EnglishDefault : НетForced : Нет

Текст #1Идентификатор : 8Формат : UTF-8Идентификатор кодека : S_TEXT/UTF8Идентификатор кодека/Информация : UTF-8 Plain TextЗаголовок : русскийЯзык : RussianDefault : НетForced : Нет

Текст #2Идентификатор : 9Формат : UTF-8Идентификатор кодека : S_TEXT/UTF8Идентификатор кодека/Информация : UTF-8 Plain TextЗаголовок : английскийDefault : НетForced : Нет

piratbit.ru

Как выйти замуж за 3 дня через торрент

ОбщееУникальный идентификатор : 238353537179295471241254297807864860973 (0xB35138B1A1567BED926D73247576112D)Полное имя : D:VideoКак выйти замуж за 3 дня.2009.BDRip.720p.mkvФормат : MatroskaВерсия формата : Version 4 / Version 2Размер файла : 4,24 ГбайтПродолжительность : 1 ч. 40 м.Общий поток : 6054 Кбит/секНазвание фильма : BDRip -- STarankovДата кодирования : UTC 2015-06-25 07:15:43Программа кодирования : mkvmerge v7.9.0 ('Birds') 64bitБиблиотека кодирования : libebml v1.3.1 + libmatroska v1.4.2_STATISTICS_WRITING_APP : mkvmerge v7.9.0 ('Birds') 64bit_STATISTICS_WRITING_DATE_UTC : 2015-06-25 07:15:43_STATISTICS_TAGS : BPS DURATION NUMBER_OF_FRAMES NUMBER_OF_BYTESDURATION : 01:34:23.830000000NUMBER_OF_FRAMES : 1325NUMBER_OF_BYTES : 39976

ВидеоИдентификатор : 1Формат : AVCФормат/Информация : Advanced Video CodecПрофиль формата : [email protected]Параметр CABAC формата : ДаПараметр ReFrames формата : 9 кадровИдентификатор кодека : V_MPEG4/ISO/AVCПродолжительность : 1 ч. 40 м.Битрейт : 3566 Кбит/секШирина : 1280 пикселейВысота : 534 пикселяСоотношение сторон : 2,40:1Режим частоты кадров : ПостоянныйЧастота кадров : 23,976 кадра/секЦветовое пространство : YUVСубдискретизация насыщенности : 4:2:0Битовая глубина : 8 битТип развёртки : ПрогрессивнаяБит/(Пиксели*Кадры) : 0.218Размер потока : 2,50 Гбайт (59%)Библиотека кодирования : x264 core 146 r2538 121396cНастройки программы : cabac=1 / ref=9 / deblock=1:-1:-1 / analyse=0x3:0x113 / me=umh / subme=10 / psy=1 / psy_rd=1.00:0.15 / mixed_ref=1 / me_range=32 / chroma_me=1 / trellis=2 / 8x8dct=1 / cqm=0 / deadzone=21,11 / fast_pskip=1 / chroma_qp_offset=-3 / threads=6 / lookahead_threads=1 / sliced_threads=0 / nr=0 / decimate=1 / interlaced=0 / bluray_compat=0 / constrained_intra=0 / bframes=9 / b_pyramid=2 / b_adapt=2 / b_bias=0 / direct=1 / weightb=1 / open_gop=0 / weightp=2 / keyint=230 / keyint_min=23 / scenecut=40 / intra_refresh=0 / rc_lookahead=40 / rc=crf / mbtree=0 / crf=17.8 / qcomp=0.60 / qpmin=0 / qpmax=69 / qpstep=4 / vbv_maxrate=40000 / vbv_bufsize=50000 / crf_max=0.0 / nal_hrd=none / filler=0 / ip_ratio=1.40 / pb_ratio=1.30 / aq=1:1.00Язык : EnglishDefault : ДаForced : НетDURATION : 01:40:16.010000000NUMBER_OF_FRAMES : 144240NUMBER_OF_BYTES : 2769380178_STATISTICS_WRITING_APP : mkvmerge v7.9.0 ('Birds') 64bit_STATISTICS_WRITING_DATE_UTC : 2015-06-25 07:15:43_STATISTICS_TAGS : BPS DURATION NUMBER_OF_FRAMES NUMBER_OF_BYTES

Аудио #1Идентификатор : 2Формат : AC-3Формат/Информация : Audio Coding 3Расширение режима : CM (complete main)Параметр Endianness формата : BigИдентификатор кодека : A_AC3Продолжительность : 1 ч. 40 м.Вид битрейта : ПостоянныйБитрейт : 384 Кбит/секКаналы : 6 каналовРасположение каналов : Front: L C R, Side: L R, LFEЧастота : 48,0 КГцБитовая глубина : 16 битМетод сжатия : С потерямиРазмер потока : 275 Мбайт (6%)Заголовок : DUB (R5)Язык : RussianDefault : ДаForced : Нет

Аудио #2Идентификатор : 3Формат : AC-3Формат/Информация : Audio Coding 3Расширение режима : CM (complete main)Параметр Endianness формата : BigИдентификатор кодека : A_AC3Продолжительность : 1 ч. 40 м.Вид битрейта : ПостоянныйБитрейт : 448 Кбит/секКаналы : 6 каналовРасположение каналов : Front: L C R, Side: L R, LFEЧастота : 48,0 КГцБитовая глубина : 16 битМетод сжатия : С потерямиРазмер потока : 321 Мбайт (7%)Заголовок : DVO (R2)Язык : RussianDefault : НетForced : Нет

Аудио #3Идентификатор : 4Формат : AC-3Формат/Информация : Audio Coding 3Расширение режима : CM (complete main)Параметр Endianness формата : BigИдентификатор кодека : A_AC3Продолжительность : 1 ч. 40 м.Вид битрейта : ПостоянныйБитрейт : 448 Кбит/секКаналы : 6 каналовРасположение каналов : Front: L C R, Side: L R, LFEЧастота : 48,0 КГцБитовая глубина : 16 битМетод сжатия : С потерямиРазмер потока : 321 Мбайт (7%)Заголовок : AVO (Михаил Иванов)Язык : RussianDefault : НетForced : Нет

Аудио #4Идентификатор : 5Формат : AC-3Формат/Информация : Audio Coding 3Расширение режима : CM (complete main)Параметр Endianness формата : BigИдентификатор кодека : A_AC3Продолжительность : 1 ч. 40 м.Вид битрейта : ПостоянныйБитрейт : 448 Кбит/секКаналы : 6 каналовРасположение каналов : Front: L C R, Side: L R, LFEЧастота : 48,0 КГцБитовая глубина : 16 битМетод сжатия : С потерямиРазмер потока : 321 Мбайт (7%)Заголовок : AVO (Юрий Сербин)Язык : RussianDefault : НетForced : Нет

Аудио #5Идентификатор : 6Формат : AC-3Формат/Информация : Audio Coding 3Расширение режима : CM (complete main)Параметр Endianness формата : BigИдентификатор кодека : A_AC3Продолжительность : 1 ч. 40 м.Вид битрейта : ПостоянныйБитрейт : 192 Кбит/секКаналы : 2 каналаРасположение каналов : Front: L RЧастота : 48,0 КГцБитовая глубина : 16 битМетод сжатия : С потерямиРазмер потока : 138 Мбайт (3%)Заголовок : VO (R1shpil, любительский одноголосый)Язык : RussianDefault : НетForced : Нет

Аудио #6Идентификатор : 7Формат : AC-3Формат/Информация : Audio Coding 3Расширение режима : CM (complete main)Параметр Endianness формата : BigИдентификатор кодека : A_AC3Продолжительность : 1 ч. 40 м.Вид битрейта : ПостоянныйБитрейт : 448 Кбит/секКаналы : 6 каналовРасположение каналов : Front: L C R, Side: L R, LFEЧастота : 48,0 КГцБитовая глубина : 16 битМетод сжатия : С потерямиРазмер потока : 321 Мбайт (7%)Заголовок : OriginalЯзык : EnglishDefault : НетForced : Нет

Текст #1Идентификатор : 8Формат : UTF-8Идентификатор кодека : S_TEXT/UTF8Идентификатор кодека/Информация : UTF-8 Plain TextЗаголовок : русскийЯзык : RussianDefault : НетForced : Нет

Текст #2Идентификатор : 9Формат : UTF-8Идентификатор кодека : S_TEXT/UTF8Идентификатор кодека/Информация : UTF-8 Plain TextЗаголовок : английскийDefault : НетForced : Нет

piratbit.ru


Смотрите также