Скачать интервью с вампиром через торрент бесплатно в хорошем качестве


Интервью с вампиром 1994 - скачать бесплатно через торрент в хорошем качестве. Без регистрации

www.kinovit.net

Название: Интервью с вампиром / Interview with the Vampire: The Vampire Chronicles (1994) HDRip от Scarabey | D
Качество видео: HDRip
Перевод: Профессиональный (полное дублирование)
Видео: 688x384 (1.79:1), 23.976 fps, XviD build 73 ~2090 kbps avg, 0.33 bit/pixel
Аудио: 48 kHz, AC3 Dolby Digital, 3/2 (L,C,R,l,r) + LFE ch, ~448 kbps
Скачать

Загрузка начнется в течение 5 сек.

2.18 GB

Название: Интервью с вампиром / Interview with the Vampire: The Vampire Chronicles (1994) BDRip-AVC от R.G. Resident | D
Качество видео: BDRip-AVC
Перевод: Дубляж
Видео: AVC 1024x576 (16:9), 2090 kbps, 23,976 fps, 0,148 bpp
Аудио: AC3 / 5.1 / 48 kHz / 448 kbps / 16 bit ||
Скачать

Загрузка начнется в течение 5 сек.

2.17 GB

Название: Интервью с вампиром / Interview with the Vampire: The Vampire Chronicles (1994) BDRip от HELLYWOOD | Лицензия
Качество видео: BDRip (источник: /Blu-ray Disc /1080p)
Перевод: Профессиональный (полное дублирование) Blu-ray CE
Формат видео: AVI
Видео: 704x400 (1.76:1), 23.976 fps, XviD build 65 ~2094 kbps avg, 0.31 bit/pixel
Аудио: 48 kHz, AC3 Dolby Digital, 3/2 (L,C,R,l,r) + LFE ch, ~448 kbps |DUB|48 kHz, AC3 Dolby Digital, 3/2 (L,C,R,l,r) + LFE ch, ~448 kbps |ENG| (Отдельным файлом)
Скачать

Загрузка начнется в течение 5 сек.

2.57 GB

Название: Интервью с вампиром / Interview with the Vampire: The Vampire Chronicles (1994) BDRip от MediaClub | КПК
Качество видео: BDRip
Перевод: Дублированный
Видео: MPEG-4 AVC 500 Кбит/с, 320x176, 23.976 кадр/с
Аудио: Русский (AAC, 2 ch, 128 Кбит/с)
Скачать

Загрузка начнется в течение 5 сек.

557.25 MB

Название: Интервью с вампиром / Interview with the Vampire: The Vampire Chronicles (1994) BDRip-AVC от MediaClub | D, P, P2, A
Качество видео: BDRip-AVC
Перевод: Дублированный, профессиональный многоголосый, профессиональный двухголосый, авторский одноголосый, украинский
Видео: MPEG-4 AVC 2700 Кбит/с, 1024х576, 23.976 кадр/с
Аудио: Русский (AC3, 2 ch, 192 Кбит/с) / Дублированный (Варус Видео)Русский (AC3, 2 ch, 160 Кбит/с) / Профессиональный многоголосыйРусский (AC3, 2 ch, 128 Кбит/с) / Профессиональный многоголосый (Россия)Русский (AC3, 2 ch, 128 Кбит/с) / Профессиональный многоголосыйРусский (AC3, 2 ch, 192 Кбит/с) / Профессиональный многоголосый (НТВ)Русский (AC3, 6 ch, 448 Кбит/с) / Профессиональный двухголосый (П. Гланц и И. Королева)Русский (AC3, 2 ch, 192 Кбит/с) / Профессиональный двухголосый (SDI Media)Русский (AC3, 6 ch, 448 Кбит/с) / Авторский одноголосый (А. Гаврилов)Русский (AC3, 6 ch, 448 Кбит/с) / Авторский одноголосый (В. Горчаков)Русский (AC3, 6 ch, 448 Кбит/с) / Авторский одноголосый (Ю. Сербин)Русский (AC3, 6 ch, 448 Кбит/с) / Авторский одноголосый (Ю. Живов)Украинский (AC3, 6 ch, 384 Кбит/с) / Профессиональный многоголосый (Новый канал)Английский (AC3, 6 ch, 448 Кбит/с)
Скачать

Загрузка начнется в течение 5 сек.

6.18 GB

Название: Интервью с вампиром / Interview with the Vampire: The Vampire Chronicles (1994) Blu-ray CEE 1080p
Качество видео: Blu-ray CEE 1080p
Перевод: Профессиональный (полное дублирование) Blu-ray CEE
Видео: 1920x1080 at 23,976 fps, MPEG-4 AVC ~19934 kbps avg
Скачать

Загрузка начнется в течение 5 сек.

33.58 GB

Название: Интервью с вампиром / Interview with the Vampire: The Vampire Chronicles (1994) HDRip-AVC от WazZzup | D
Качество видео: HDRip-AVC
Перевод: Дублированный
Формат видео: MKV
Видео: 704x392 (16:9), 23.976 fps, x264 ~796 kbps avg, 0.120 bit/pixel
Аудио: 48 kHz / 24 kHz, HE-AAC, 2 channels (Front: L R), ~72.00 kbps avg
Скачать

Загрузка начнется в течение 5 сек.

762.49 MB

Название: Интервью с вампиром / Interview with the Vampire: The Vampire Chronicles (1994) BDRip 1080p
Качество видео: BDRip 1080p (источник: Blu-ray Remux / 1080p)
Перевод: Дублированный + Оригинал
Видео: x264 1920х1080 (16:9), 8201 Kbps, 23.976 fps, 0.165 bit/pixel
Аудио: 48.0 kHz, AC3 Dolby Digital, 3/2 (L,C,R,l,r) + LFE ch, 448 kbps [Дубляж]48.0 kHz, AC3 Dolby Digital, 3/2 (L,C,R,l,r) + LFE ch, 640 kbps [Английский]48.0 kHz, AC3 Dolby Digital, 3/2 (L,C,R,l,r) + LFE ch, 640 kbps [Авторский, В. Горчаков]
Скачать

Загрузка начнется в течение 5 сек.

9.05 GB

Название: Интервью с вампиром / Interview with the Vampire: The Vampire Chronicles (1994) BDRip-AVC l D
Качество видео: BDRip-AVC
Перевод: Профессиональный (полное дублирование)
Видео: 964 x 544 (1.77 :1), 23.976 fps, 1245 Кбит/сек, 0.10 bit/pixel
Аудио: AAC-LC, 48.0 KHz, 6 ch.,~288 kbps - дубляж
Скачать

Загрузка начнется в течение 5 сек.

1.44 GB

Название: Интервью с вампиром / Interview with the Vampire: The Vampire Chronicles (1994) BDRip 720p от olegek70
Качество видео: BDRip 720p (Blu-Ray Remux 1080р))
Перевод: Дублированный, профессиональный двухголосый (Гланц и Королева), авторский одноголосый (Горчаков / Гаврилов)
Видео: MKV, H.264 MPEG-4 AVC, 5555 Кбит/с, 1280х720
Аудио: Русский (ДБ) (АС3, 6 ch, 448 Кбит/с), русский (ПД, АО) (DTS, 6 ch, 755 Кбит/с), английский (АС3, 6 ch, 640 Кбит/с)
Скачать

Загрузка начнется в течение 5 сек.

7.63 GB

Название: Интервью с вампиром / Interview with the Vampire: The Vampire Chronicles (1994) BDRip-AVC от olegek70
Качество видео: BDRip-AVC (Blu-Ray Remux 1080р))
Перевод: Дублированный, профессиональный двухголосый (Гланц и Королева), авторский одноголосый (Горчаков / Гаврилов)
Видео: MKV, H.264 MPEG-4 AVC, 3200 Кбит/с, 1024х576
Аудио: Русский (все), английский (АС3, 6 ch, 448 Кбит/с)
Скачать

Загрузка начнется в течение 5 сек.

4.66 GB

Название: Интервью с вампиром / Interview with the Vampire: The Vampire Chronicles (1994) BDRip 1080p
Качество видео: BDRip 1080p
Перевод: Дубляж
Видео: h364 1920x1080, 4652 Kbps, 23,976 fps
Аудио: 48 kHz, AC3, 6c, 448 kbps
Скачать

Загрузка начнется в течение 5 сек.

4.37 GB

The Vampire Chronicles (Нил Джордан) [1994

GeneralID : 1 (0x1)Complete name : D:\Торенты\Раздачи\vampir.tsFormat : MPEG-TSFile size : 19.9 GiBDuration : 2h 2mnOverall bit rate : 23.3 MbpsMaximum Overall bit rate : 35.5 Mbps

VideoID : 4113 (0x1011)Menu ID : 1 (0x1)Format : VC-1Format profile : [email protected] ID : 234Duration : 2h 2mnBit rate : 19.5 MbpsWidth : 1 920 pixelsHeight : 1 080 pixelsDisplay aspect ratio : 16:9Frame rate : 23.976 fpsChroma subsampling : 4:2:0Bit depth : 8 bitsScan type : ProgressiveCompression mode : LossyBits/(Pixel*Frame) : 0.392Stream size : 16.7 GiB (84%)

Audio #1ID : 4352 (0x1100)Menu ID : 1 (0x1)Format : AC-3Format/Info : Audio Coding 3Mode extension : CM (complete main)Codec ID : 129Duration : 2h 2mnBit rate mode : ConstantBit rate : 448 KbpsChannel(s) : 6 channelsChannel positions : Front: L C R, Side: L R, LFESampling rate : 48.0 KHzBit depth : 16 bitsCompression mode : LossyStream size : 393 MiB (2%)Language : Russian

Audio #2ID : 4353 (0x1101)Menu ID : 1 (0x1)Format : DTSFormat/Info : Digital Theater SystemsCodec ID : 130Duration : 2h 2mnBit rate mode : ConstantBit rate : 755 KbpsChannel(s) : 6 channelsChannel positions : Front: L C R, Side: L R, LFESampling rate : 48.0 KHzBit depth : 24 bitsCompression mode : LossyStream size : 661 MiB (3%)Language : Russian

Audio #3ID : 4354 (0x1102)Menu ID : 1 (0x1)Format : DTSFormat/Info : Digital Theater SystemsCodec ID : 130Duration : 2h 2mnBit rate mode : ConstantBit rate : 755 KbpsChannel(s) : 6 channelsChannel positions : Front: L C R, Side: L R, LFESampling rate : 48.0 KHzBit depth : 24 bitsCompression mode : LossyStream size : 661 MiB (3%)Language : Russian

Audio #4ID : 4355 (0x1103)Menu ID : 1 (0x1)Format : AC-3Format/Info : Audio Coding 3Mode extension : CM (complete main)Codec ID : 129Duration : 2h 2mnBit rate mode : ConstantBit rate : 640 KbpsChannel(s) : 6 channelsChannel positions : Front: L C R, Side: L R, LFESampling rate : 48.0 KHzBit depth : 16 bitsCompression mode : LossyStream size : 561 MiB (3%)Language : English

piratbit.ru

Интервью с вампиром /Interview with the Vampire (Только лучшие фильмы!) скачать торрент

Название: Интервью с вампиром: вампирские хроники Оригинальное название: Interview with the Vampire: The Vampire Chronicles Страна: США, Англия, Франция Жанр: Мистика, Ужасы. Год выпуска: 1994 Продолжительность: 01:54:20 Перевод: Полный дубляж. Режиссер: Нил Джордан В ролях: * Брэд Питт — Луи де Пон дю Лак * Том Круз — Лестат де Лионкур * Кирстен Данст — Клодия * Антонио Бандерас — Арман * Стивен Ри — Сантьяго * Кристиан Слэйтер — Дэниел Моллой

Сюжет

У молодого аристократа XVIII века Луи (Брэд Питт) от родов умирает жена. И вместе с ней — желание жить. Луи пускается во все тяжкие в надежде обрести смерть, но случай сводит его с настоящим вампиром из Старого Света по имени Лестат (Том Круз), который превращает Луи в себе подобного.

Однако Луи долго не может переступить через барьер убийства и питается кровью крыс. Вместе с Лестатом они переезжают в Новый Орлеан, где в это время свирепствует чума. Здесь Луи срывается и пьёт кровь больной девочки Клодии (Кирстен Данст), потерявшей мать. Лестат не даёт девочке умереть и превращает её в маленькую вампиршу.

Клодия с азартом начинает убивать людей, её жажда крови была неутолимой, в соответствии с детским аппетитом. «Она была ребёнком и безжалостным убийцей», — говорит про неё Луи впоследствии. Клодия быстро учится, и они с Лестатом развлекаются, убивая направо и налево.

По прошествии нескольких лет Клодия замечает, что нисколько не выросла с тех пор, как стала вампиршей. Более того, когда она пытается отрезать себе густые, вьющиеся волосы, они через минуту отрастают вновь. Раздосадованная тем, что ей суждено навсегда остаться ребёнком, Клодия решает убить Лестата. Она подсовывает ему трупы маленьких детей (мёртвая кровь ядовита для вампиров). Клодия и Луи бросают тело Лестата в болото. Однако Лестат возвращается, и Клодии с Луи приходится сжечь его вместе с особняком.

После этого Луи и Клодия отправляются на судне в Старый Свет в поисках себе подобных. Долгое время они не могут найти других вампиров. В конце концов, в Париже они встречают Армана (Антонио Бандерас).

Арману более 400 лет, он предводитель целой группы вампиров Вместе они устраивают театральные представления с реальными убийствами. У Луи есть много вопросов к Арману, в частности — кто является первым вампиром? Клодия чувствует, что миг расставания с Луи близится, и просит Луи превратить в вампиршу женщину, потерявшую ребёнка. «Кто она вам? Живая кукла?», — спрашивает у неё Луи. «Бессмертный ребёнок», — отвечает она. Луи выполняет просьбу Клодии. «В этот день вместе с этой женщиной умерло то единственное человеческое, что во мне оставалось», — скажет потом Луи. Однако Клодии не суждено счастливо жить со своей новой «матерью». Приближённые Армана, заподозрив Луи и Клодию в убийстве Лестата, захватывают всех троих и запирают женщин в «солнечной яме». Солнце убивает Клодию и её новую мать, а Луи, запертый в камере, не в силах им помочь. Единственное его утешение то, что Клодия была не одна в свой последний час. Вырвавшись на свободу, Луи «косит» огромной косой всех приспешников Армана (один из самых зрелищных моментов фильма). Расправившись с группой вампиров, Луи покидает Армана в одиночестве и возвращается в Новый Орлеан, где живёт до наших дней и пьёт по ночам кровь граждан.

Всю эту историю Луи рассказывает молодому репортёру одной из радиостанций. Выслушав рассказ вампира, репортёр просит Луи сделать его вампиром, но уходит ни с чем. Возвращаясь домой, он обнаруживает, что в его машине кто-то сидит. «Наслушался?», — спрашивает Лестат у репортёра, — «А ведь мне приходилось выслушивать его нытьё веками!», — восклицает вампир, впиваясь в шею репортёра клыками. Затем Лестат даёт ему выбор, «которого у него никогда не было».

Качество : DVDRip Формат : AVI Видео кодек : DivX 3 Low Аудио кодек : MP3 Joint stereo / MS StereoВидео : DivX 3 512x288 25.00fps Аудио : MPEG Audio Layer 3 44100Hz stereo 96kbps' Информация по рипу'

Трейлер

torrent-games.net

Скачать фильм Интервью с вампиром (1994) через торрент

gig-torrent.net

7 июля 2016 07:19 Интервью с вампиром / Interview with the Vampire: The Vampire Chronicles (1994) HDRip от Scarabey | D .torrent   [Информация о файле (нажмите для просмотра)] Перевод: Профессиональный (полное дублирование)Субтитры: нетВидео: 688x384 (1.79:1), 23.976 fps, XviD build 73 ~2090 kbps avg, 0.33 bit/pixelАудио: 48 kHz, AC3 Dolby Digital, 3/2 (L,C,R,l,r) + LFE ch, ~448 kbps 2,18 Gb 75 9
7 июля 2016 07:19 Интервью с вампиром / Interview with the Vampire: The Vampire Chronicles (1994) HDRip от Scarabey | D .torrent   [Информация о файле (нажмите для просмотра)] Перевод: Профессиональный (полное дублирование)Субтитры: нетВидео: 688x384 (1.79:1), 23.976 fps, XviD build 73 ~1235 kbps avg, 0.20 bit/pixelАудио: 48 kHz, AC3 Dolby Digital, 3/2 (L,C,R,l,r) + LFE ch, ~448 kbps 1,45 Gb 73 8
7 июля 2016 07:19 Интервью с вампиром / Interview with the Vampire: The Vampire Chronicles (1994) BDRip-AVC | D .torrent   [Информация о файле (нажмите для просмотра)] Перевод: ДубляжКодек: AVCКачество: BDRip-AVCВидео: 1024x576 (16:9), 2090 kbps, 23,976 fps, 0,148 bppЗвук: AC3 / 5.1 / 48 kHz / 448 kbps / 16 bit ||Субтитры: Нет 2,17 Gb 7 7
7 июля 2016 07:19 Интервью с вампиром / Interview with the Vampire: The Vampire Chronicles (1994) BDRip от HELLYWOOD | Лицензия .torrent   [Информация о файле (нажмите для просмотра)] Перевод: Профессиональный (полное дублирование) Blu-ray CEСубтитры: РусскиеФормат: AVIКачество: BDRip (источник: /Blu-ray Disc /1080p) Видео: 704x400 (1.76:1), 23.976 fps, XviD build 65 ~2094 kbps avg, 0.31 bit/pixelАудио #1: 48 kHz, AC3 Dolby Digital, 3/2 (L,C,R,l,r) + LFE ch, ~448 kbps|DUB|Аудио #2: 48 kHz, AC3 Dolby Digital, 3/2 (L,C,R,l,r) + LFE ch, ~448 kbps|ENG| (Отдельным файлом) 2,57 Gb 5 3
7 июля 2016 07:19 Интервью с вампиром / Interview with the Vampire: The Vampire Chronicles (1994) BDRip от MediaClub | КПК .torrent   [Информация о файле (нажмите для просмотра)] Перевод: ДублированныйКодек: MPEG-4 AVCКачество: BDRipВидео: 500 Кбит/с, 320x176, 23.976 кадр/сЗвук: Русский (AAC, 2 ch, 128 Кбит/с) 557,25 Mb 5 4
7 июля 2016 07:19 Интервью с вампиром / Interview with the Vampire: The Vampire Chronicles (1994) BDRip-AVC от MediaClub | D, P, P2, A .torrent   [Информация о файле (нажмите для просмотра)] Перевод: Дублированный, профессиональный многоголосый, профессиональный двухголосый, авторский одноголосый, украинскийКодек: MPEG-4 AVCКачество: BDRip-AVCВидео: 2700 Кбит/с, 1024х576, 23.976 кадр/сЗвук: Аудио #1: Русский (AC3, 6 ch, 448 Кбит/с) / Дублированный (Мост Видео)Аудио #2: Русский (AC3, 2 ch, 192 Кбит/с) / Дублированный (Варус Видео)Аудио #3: Русский (AC3, 2 ch, 160 Кбит/с) / Профессиональный многоголосыйАудио #4: Русский (AC3, 2 ch, 128 Кбит/с) / Профессиональный многоголосый (Россия)Аудио #5: Русский (AC3, 2 ch, 128 Кбит/с) / Профессиональный многоголосыйАудио #6: Русский (AC3, 2 ch, 192 Кбит/с) / Профессиональный многоголосый (НТВ)Аудио #7: Русский (AC3, 6 ch, 448 Кбит/с) / Профессиональный двухголосый (П. Гланц и И. Королева)Аудио #8: Русский (AC3, 2 ch, 192 Кбит/с) / Профессиональный двухголосый (SDI Media)Аудио #9: Русский (AC3, 6 ch, 448 Кбит/с) / Авторский одноголосый (А. Гаврилов)Аудио #10: Русский (AC3, 6 ch, 448 Кбит/с) / Авторский одноголосый (В. Горчаков)Аудио #11: Русский (AC3, 6 ch, 448 Кбит/с) / Авторский одноголосый (Ю. Сербин)Аудио #12: Русский (AC3, 6 ch, 448 Кбит/с) / Авторский одноголосый (Ю. Живов)Аудио #13: Украинский (AC3, 6 ch, 384 Кбит/с) / Профессиональный многоголосый (Новый канал)Аудио #14: Английский (AC3, 6 ch, 448 Кбит/с)Субтитры: Русские, английскиеВидео: Идентификатор : 1 Формат : AVC Формат/Информация : Advanced Video Codec Профиль формата : [email protected] Параметр CABAC формата : Да Параметр ReFrames формата : 9 кадров Идентификатор кодека : V_MPEG4/ISO/AVC Продолжительность : 2 ч. 2 м. Битрейт : 2561 Кбит/сек Номинальный битрейт : 2700 Кбит/сек Ширина : 1024 пикселя Высота : 576 пикселей Соотношение сторон : 16:9 Режим частоты кадров : Постоянный Частота кадров : 23,976 кадра/сек Цветовое пространство : YUV Субдискретизация насыщенности : 4:2:0 Битовая глубина : 8 бит Тип развёртки : Прогрессивная Бит/(Пиксели*Кадры) : 0.181 Размер потока : 2,19 Гбайт (35%) Заголовок : Intervju.s.vampirom.1994.x264.BDRip.AVC.MediaClub Библиотека кодирования : x264 core 142 r2409+42 04be48a tMod [[email protected]:2:0 X86] Настройки программы : cabac=1 / ref=9 / deblock=1:-2:-2 / analyse=0x3:0x133 / me=umh / subme=11 / psy=1 / fade_compensate=0.00 / psy_rd=1.00:0.20 / mixed_ref=1 / me_range=32 / chroma_me=1 / trellis=2 / 8x8dct=1 / cqm=0 / deadzone=21,11 / fast_pskip=0 / chroma_qp_offset=-3 / threads=6 / lookahead_threads=1 / sliced_threads=0 / nr=0 / decimate=0 / interlaced=0 / bluray_compat=0 / constrained_intra=0 / fgo=0 / bframes=8 / b_pyramid=2 / b_adapt=2 / b_bias=0 / direct=3 / weightb=1 / open_gop=0 / weightp=2 / keyint=240 / keyint_min=23 / scenecut=40 / intra_refresh=0 / rc=2pass / mbtree=0 / bitrate=2700 / ratetol=1.0 / qcomp=0.60 / qpmin=0:0:0 / qpmax=69:69:69 / qpstep=4 / cplxblur=20.0 / qblur=0.5 / ip_ratio=1.40 / pb_ratio=1.30 / aq=1:1.00 / aq-sensitivity=10.00 / aq-factor=1.00:1.00:1.00 / aq2=0 / aq3=0 Язык : English Default : Да Forced : ДаАудио #1: Идентификатор : 2 Формат : AC-3 Формат/Информация : Audio Coding 3 Расширение режима : CM (complete main) Параметр Endianness формата : Big Идентификатор кодека : A_AC3 Продолжительность : 2 ч. 2 м. Вид битрейта : Постоянный Битрейт : 448 Кбит/сек Каналы : 6 каналов Расположение каналов : Front: L C R, Side: L R, LFE Частота : 48,0 КГц Битовая глубина : 16 бит Метод сжатия : С потерями Размер потока : 393 Мбайт (6%) Заголовок : TRACK_01_DUB_RUS_MostVideo Язык : Russian Default : Да Forced : ДаАудио #2: Идентификатор : 3 Формат : AC-3 Формат/Информация : Audio Coding 3 Расширение режима : CM (complete main) Параметр Endianness формата : Big Идентификатор кодека : A_AC3 Продолжительность : 2 ч. 2 м. Вид битрейта : Постоянный Битрейт : 192 Кбит/сек Каналы : 2 канала Расположение каналов : Front: L R Частота : 48,0 КГц Битовая глубина : 16 бит Метод сжатия : С потерями Размер потока : 168 Мбайт (3%) Заголовок : TRACK_02_DUB_RUS_VarusVideo Язык : Russian Default : Нет Forced : НетАудио #3: Идентификатор : 4 Формат : AC-3 Формат/Информация : Audio Coding 3 Расширение режима : CM (complete main) Параметр Endianness формата : Big Идентификатор кодека : A_AC3 Продолжительность : 2 ч. 2 м. Вид битрейта : Постоянный Битрейт : 160 Кбит/сек Каналы : 2 канала Расположение каналов : Front: L R Частота : 48,0 КГц Битовая глубина : 16 бит Метод сжатия : С потерями Размер потока : 140 Мбайт (2%) Заголовок : TRACK_03_MVO_RUS Язык : Russian Default : Нет Forced : НетАудио #4: Идентификатор : 5 Формат : AC-3 Формат/Информация : Audio Coding 3 Расширение режима : CM (complete main) Параметр Endianness формата : Big Идентификатор кодека : A_AC3 Продолжительность : 2 ч. 2 м. Вид битрейта : Постоянный Битрейт : 128 Кбит/сек Каналы : 2 канала Расположение каналов : Front: L R Частота : 48,0 КГц Битовая глубина : 16 бит Метод сжатия : С потерями Размер потока : 112 Мбайт (2%) Заголовок : TRACK_04_MVO_RUS_PTP Язык : Russian Default : Нет Forced : НетАудио #5: Идентификатор : 6 Формат : AC-3 Формат/Информация : Audio Coding 3 Расширение режима : CM (complete main) Параметр Endianness формата : Big Идентификатор кодека : A_AC3 Продолжительность : 2 ч. 2 м. Вид битрейта : Постоянный Битрейт : 128 Кбит/сек Каналы : 2 канала Расположение каналов : Front: L R Частота : 48,0 КГц Битовая глубина : 16 бит Метод сжатия : С потерями Размер потока : 112 Мбайт (2%) Заголовок : TRACK_05_MVO_RUS Язык : Russian Default : Нет Forced : НетАудио #6: Идентификатор : 7 Формат : AC-3 Формат/Информация : Audio Coding 3 Расширение режима : CM (complete main) Параметр Endianness формата : Big Идентификатор кодека : A_AC3 Продолжительность : 2 ч. 2 м. Вид битрейта : Постоянный Битрейт : 192 Кбит/сек Каналы : 2 канала Расположение каналов : Front: L R Частота : 48,0 КГц Битовая глубина : 16 бит Метод сжатия : С потерями Размер потока : 168 Мбайт (3%) Заголовок : TRACK_06_MVO_RUS_HTB Язык : Russian Default : Нет Forced : НетАудио #7: Идентификатор : 8 Формат : AC-3 Формат/Информация : Audio Coding 3 Расширение режима : CM (complete main) Параметр Endianness формата : Big Идентификатор кодека : A_AC3 Продолжительность : 2 ч. 2 м. Вид битрейта : Постоянный Битрейт : 448 Кбит/сек Каналы : 6 каналов Расположение каналов : Front: L C R, Side: L R, LFE Частота : 48,0 КГц Битовая глубина : 16 бит Метод сжатия : С потерями Размер потока : 393 Мбайт (6%) Заголовок : TRACK_07_DVO_RUS_Glanc&Koroleva Язык : Russian Default : Нет Forced : НетАудио #8: Идентификатор : 9 Формат : AC-3 Формат/Информация : Audio Coding 3 Расширение режима : CM (complete main) Параметр Endianness формата : Big Идентификатор кодека : A_AC3 Продолжительность : 2 ч. 2 м. Вид битрейта : Постоянный Битрейт : 192 Кбит/сек Каналы : 2 канала Расположение каналов : Front: L R Частота : 48,0 КГц Битовая глубина : 16 бит Метод сжатия : С потерями Размер потока : 168 Мбайт (3%) Заголовок : TRACK_08_DVO_RUS_SDI Media Язык : Russian Default : Нет Forced : НетАудио #9: Идентификатор : 10 Формат : AC-3 Формат/Информация : Audio Coding 3 Расширение режима : CM (complete main) Параметр Endianness формата : Big Идентификатор кодека : A_AC3 Продолжительность : 2 ч. 2 м. Вид битрейта : Постоянный Битрейт : 448 Кбит/сек Каналы : 6 каналов Расположение каналов : Front: L C R, Side: L R, LFE Частота : 48,0 КГц Битовая глубина : 16 бит Метод сжатия : С потерями Размер потока : 393 Мбайт (6%) Заголовок : TRACK_09_AVO_RUS_Gavrilov Язык : Russian Default : Нет Forced : НетАудио #10: Идентификатор : 11 Формат : AC-3 Формат/Информация : Audio Coding 3 Расширение режима : CM (complete main) Параметр Endianness формата : Big Идентификатор кодека : A_AC3 Продолжительность : 2 ч. 2 м. Вид битрейта : Постоянный Битрейт : 448 Кбит/сек Каналы : 6 каналов Расположение каналов : Front: L C R, Side: L R, LFE Частота : 48,0 КГц Битовая глубина : 16 бит Метод сжатия : С потерями Размер потока : 393 Мбайт (6%) Заголовок : TRACK_10_AVO_RUS_Gorchakov Язык : Russian Default : Нет Forced : НетАудио #11: Идентификатор : 12 Формат : AC-3 Формат/Информация : Audio Coding 3 Расширение режима : CM (complete main) Параметр Endianness формата : Big Идентификатор кодека : A_AC3 Продолжительность : 2 ч. 2 м. Вид битрейта : Постоянный Битрейт : 448 Кбит/сек Каналы : 6 каналов Расположение каналов : Front: L C R, Side: L R, LFE Частота : 48,0 КГц Битовая глубина : 16 бит Метод сжатия : С потерями Размер потока : 393 Мбайт (6%) Заголовок : TRACK_11_AVO_RUS_Serbin Язык : Russian Default : Нет Forced : НетАудио #12: Идентификатор : 13 Формат : AC-3 Формат/Информация : Audio Coding 3 Расширение режима : CM (complete main) Параметр Endianness формата : Big Идентификатор кодека : A_AC3 Продолжительность : 2 ч. 2 м. Вид битрейта : Постоянный Битрейт : 448 Кбит/сек Каналы : 6 каналов Расположение каналов : Front: L C R, Side: L R, LFE Частота : 48,0 КГц Битовая глубина : 16 бит Метод сжатия : С потерями Размер потока : 393 Мбайт (6%) Заголовок : TRACK_12_AVO_RUS_Zhivov Язык : Russian Default : Нет Forced : НетАудио #13: Идентификатор : 14 Формат : AC-3 Формат/Информация : Audio Coding 3 Расширение режима : CM (complete main) Параметр Endianness формата : Big Идентификатор кодека : A_AC3 Продолжительность : 2 ч. 2 м. Вид битрейта : Постоянный Битрейт : 384 Кбит/сек Каналы : 6 каналов Расположение каналов : Front: L C R, Side: L R, LFE Частота : 48,0 КГц Битовая глубина : 16 бит Метод сжатия : С потерями Размер потока : 337 Мбайт (5%) Заголовок : TRACK_13_MVO_UKR_NovyjKanal Язык : Ukrainian Default : Нет Forced : НетАудио #14: Идентификатор : 15 Формат : AC-3 Формат/Информация : Audio Coding 3 Расширение режима : CM (complete main) Параметр Endianness формата : Big Идентификатор кодека : A_AC3 Продолжительность : 2 ч. 2 м. Вид битрейта : Постоянный Битрейт : 448 Кбит/сек Каналы : 6 каналов Расположение каналов : Front: L C R, Side: L R, LFE Частота : 48,0 КГц Битовая глубина : 16 бит Метод сжатия : С потерями Размер потока : 393 Мбайт (6%) Заголовок : TRACK_14_ORIGINAL_ENG Язык : English Default : Нет Forced : Нет 6,18 Gb 4 2
7 июля 2016 07:19 Интервью с вампиром / Interview with the Vampire: The Vampire Chronicles (1994) Blu-ray CEE 1080p .torrent   [Информация о файле (нажмите для просмотра)] Перевод: Профессиональный (полное дублирование) Blu-ray CEEСубтитры: Русские, английские, японские, французские, немецкие, итальянские, испанские, голландские, китайские, корейские, испанские, португальские, чешские, венгерские, польские, тайскиеКачество: Blu-ray CEE 1080pВидео: 1920x1080 at 23,976 fps, MPEG-4 AVC ~19934 kbps avgАудио: DTS-HD Master Audio English 3993 kbps 5.1 / 48 kHz / 3993 kbps / 24-bit (DTS Core: 5.1 / 48 kHz / 1509 kbps / 24-bit) Dolby Digital Audio French 640 kbps 5.1 / 48 kHz / 640 kbps / DN -4dB Dolby Digital Audio German 640 kbps 5.1 / 48 kHz / 640 kbps / DN -4dB Dolby Digital Audio Italian 640 kbps 5.1 / 48 kHz / 640 kbps / DN -4dB Dolby Digital Audio Spanish 640 kbps 5.1 / 48 kHz / 640 kbps / DN -4dB Dolby Digital Audio Spanish 192 kbps 1.0 / 48 kHz / 192 kbps / DN -4dB Dolby Digital Audio Portuguese 192 kbps 2.0 / 48 kHz / 192 kbps / DN -4dB / Dolby Surround Dolby Digital Audio Czech 192 kbps 2.0 / 48 kHz / 192 kbps / DN -4dB / Dolby Surround Dolby Digital Audio Hungarian 640 kbps 5.1 / 48 kHz / 640 kbps / DN -4dB Dolby Digital Audio Polish 640 kbps 5.1 / 48 kHz / 640 kbps / DN -4dB Dolby Digital Audio Russian 640 kbps 5.1 / 48 kHz / 640 kbps / DN -4dB Dolby Digital Audio Thai 192 kbps 2.0 / 48 kHz / 192 kbps / DN -4dB / Dolby Surround * Dolby Digital Audio Japanese 192 kbps 2.0 / 48 kHz / 192 kbps / DN -4dB / Dolby Surround Dolby Digital Audio English 192 kbps 2.0 / 48 kHz / 192 kbps / DN -4dB / Dolby Surround 33,58 Gb 2 3
7 июля 2016 07:19 Интервью с вампиром / Interview with the Vampire: The Vampire Chronicles (1994) HDRip-AVC от WazZzup | D .torrent   [Информация о файле (нажмите для просмотра)] Перевод: Дублированный Субтитры: нетКачество: HDRip-AVCФормат: MKVВидео: 704x392 (16:9), 23.976 fps, x264 ~796 kbps avg, 0.120 bit/pixelАудио: 48 kHz / 24 kHz, HE-AAC, 2 channels (Front: L R), ~72.00 kbps avg 762,49 Mb 4 5
7 июля 2016 07:19 Интервью с вампиром / Interview with the Vampire: The Vampire Chronicles (1994) BDRip 1080p .torrent   [Информация о файле (нажмите для просмотра)] Перевод: Дублированный + ОригиналКодек: x264Качество: BDRip 1080p (источник: Blu-ray Remux / 1080p)Видео: 1920х1080 (16:9), 8201 Kbps, 23.976 fps, 0.165 bit/pixelАудио #1: 48.0 kHz, AC3 Dolby Digital, 3/2 (L,C,R,l,r) + LFE ch, 448 kbps [Дубляж]Аудио #2: 48.0 kHz, AC3 Dolby Digital, 3/2 (L,C,R,l,r) + LFE ch, 640 kbps [Английский]Субтитры: Русские, английскиеАудио #3: 48.0 kHz, AC3 Dolby Digital, 3/2 (L,C,R,l,r) + LFE ch, 640 kbps [Авторский, А. Гаврилов]Аудио #4: 48.0 kHz, AC3 Dolby Digital, 3/2 (L,C,R,l,r) + LFE ch, 640 kbps [Авторский, В. Горчаков] 9,05 Gb 8 4
7 июля 2016 07:19 Интервью с вампиром / Interview with the Vampire: The Vampire Chronicles (1994) BDRip-AVC l D .torrent   [Информация о файле (нажмите для просмотра)] Перевод: Профессиональный (полное дублирование)Субтитры: Русские, английскиеКачество: BDRip-AVCВидео: 964 x 544 (1.77 :1), 23.976 fps, 1245 Кбит/сек, 0.10 bit/pixelАудио 1: AAC-LC, 48.0 KHz, 6 ch.,~288 kbps - дубляж 1,44 Gb 5 2
7 июля 2016 07:19 Интервью с вампиром / Interview with the Vampire: The Vampire Chronicles (1994) BDRip 720p от olegek70 .torrent   [Информация о файле (нажмите для просмотра)] Перевод: Дублированный, профессиональный двухголосый (Гланц и Королева), авторский одноголосый (Горчаков / Гаврилов)Субтитры: Русские, английскиеКодек: MKV, H.264Качество: BDRip 720p (Blu-Ray Remux 1080р))Видео: MPEG-4 AVC, 5555 Кбит/с, 1280х720Звук: Русский (ДБ) (АС3, 6 ch, 448 Кбит/с), русский (ПД, АО) (DTS, 6 ch, 755 Кбит/с), английский (АС3, 6 ch, 640 Кбит/с) 7,63 Gb 5 2
7 июля 2016 07:18 Интервью с вампиром / Interview with the Vampire: The Vampire Chronicles (1994) BDRip-AVC от olegek70 .torrent   [Информация о файле (нажмите для просмотра)] Перевод: Дублированный, профессиональный двухголосый (Гланц и Королева), авторский одноголосый (Горчаков / Гаврилов)Субтитры: Русские, английскиеКодек: MKV, H.264Качество: BDRip-AVC (Blu-Ray Remux 1080р))Видео: MPEG-4 AVC, 3200 Кбит/с, 1024х576Звук: Русский (все), английский (АС3, 6 ch, 448 Кбит/с) 4,66 Gb 4 1
7 июля 2016 07:18 Интервью с вампиром / Interview with the Vampire: The Vampire Chronicles (1994) BDRip 1080p .torrent   [Информация о файле (нажмите для просмотра)] Перевод: ДубляжКодек: h364Качество: BDRip 1080pВидео: 1920x1080, 4652 Kbps, 23,976 fpsЗвук: 48 kHz, AC3, 6c, 448 kbpsСубтитры: Русские, английскиеВидео: Идентификатор : 1 Формат : AVC Формат/Информация : Advanced Video Codec Профиль формата : [email protected] Параметр CABAC формата : Да Параметр ReFrames формата : 4 кадра Идентификатор кодека : V_MPEG4/ISO/AVC Продолжительность : 2 ч. 2 м. Битрейт : 4652 Кбит/сек Ширина : 1920 пикселей Высота : 1080 пикселей Соотношение сторон : 16:9 Частота кадров : 23,976 кадра/сек Цветовое пространство : YUV Субдискретизация насыщенности : 4:2:0 Битовая глубина : 8 бит Тип развёртки : Прогрессивная Бит/(Пиксели*Кадры) : 0.094 Размер потока : 3,90 Гбайт (89%) Библиотека кодирования : x264 core 124 r2197 69a0443 Настройки программы : cabac=1 / ref=4 / deblock=1:0:0 / analyse=0x3:0x133 / me=umh / subme=10 / psy=1 / psy_rd=1.00:0.10 / mixed_ref=1 / me_range=32 / chroma_me=1 / trellis=2 / 8x8dct=1 / cqm=0 / deadzone=21,11 / fast_pskip=0 / chroma_qp_offset=-3 / threads=6 / sliced_threads=0 / nr=0 / decimate=1 / interlaced=0 / bluray_compat=0 / constrained_intra=0 / bframes=6 / b_pyramid=2 / b_adapt=2 / b_bias=0 / direct=3 / weightb=1 / open_gop=0 / weightp=2 / keyint=240 / keyint_min=24 / scenecut=40 / intra_refresh=0 / rc_lookahead=56 / rc=2pass / mbtree=1 / bitrate=4652 / ratetol=1.0 / qcomp=0.70 / qpmin=0 / qpmax=69 / qpstep=4 / cplxblur=20.0 / qblur=0.5 / ip_ratio=1.40 / aq=1:1.00 Язык : English Default : Да Forced : НетАудио: Идентификатор : 2 Формат : AC-3 Формат/Информация : Audio Coding 3 Расширение режима : CM (complete main) Параметр Endianness формата : Big Идентификатор кодека : A_AC3 Продолжительность : 2 ч. 2 м. Вид битрейта : Постоянный Битрейт : 448 Кбит/сек Каналы : 6 каналов Расположение каналов : Front: L C R, Side: L R, LFE Частота : 48,0 КГц Битовая глубина : 16 бит Метод сжатия : С потерями Размер потока : 393 Мбайт (9%) Заголовок : Дублюж Язык : Russian Default : Да Forced : Нет 4,37 Gb 9 1
7 июля 2016 07:18 Интервью с вампиром / Interview with the Vampire: The Vampire Chronicles (1994) BDRip от HQCLUB .torrent   [Информация о файле (нажмите для просмотра)] Перевод: Профессиональный (полное дублирование) + Оригинальная звуковая дорожка +Профессиональный (двухголосый, закадровый) П.Гланц и И.КоролеваСубтитры: Русские, английские (внешние *.srt)Формат: AVIКачество: BDRip (источник / Blu-ray Disc / 1080p)Видео: 704x400 (1.76:1), 23.976 fps, XviD build 50 ~1777 kbps avg, 0.26 bit/pixelАудио #1: 48 kHz, AC3 Dolby Digital, 3/2 (L,C,R,l,r) + LFE ch, ~384.00 kbps avgАудио #2: 48 kHz, AC3 Dolby Digital, 3/2 (L,C,R,l,r) + LFE ch, ~384.00 kbps avgАудио #3: 48 kHz, AC3 Dolby Digital, 3/2 (L,C,R,l,r) + LFE ch, ~384.00 kbps avg(отдельно Narod.Ru)Аудио #4: 48 kHz, AC3 Dolby Digital, 3/2 (L,C,R,l,r) + LFE ch, ~384.00 kbps avg(отдельно Narod.Ru) 2,18 Gb 6 4
7 июля 2016 07:18 Интервью с вампиром / Interview with the Vampire: The Vampire Chronicles (1994) BDRip от HQ-ViDEO .torrent   2,18 Gb 5 2

Скачать фильм Интервью с вампиром через торрент в хорошем качестве бесплатно BDRip

piratbit.ru

Раздают: 1 [ 0 KB/s ]
Размер: 2.18 GB | Добавлен: 7 лет 5 мес. назад | Торрент скачан:1248 раз
Реклама Дарим 3000 рублей за регистрацию, не упусти свой шанс получить шикарный бонус!!!

18-05-2010 18:41 Интервью с вампиром Скачать торрент  

Интервью с вампиром / Interview with the Vampire: The Vampire Chronicles

Год выпуска: 1994Страна: СШАЖанр: ужасы, драмаПродолжительность: 123 мин.Перевод: Профессиональный (полное дублирование)

Режиссер: Нил ДжорданПродюссер: Дэвид Геффен, Редмонд Моррис, Стефен ВулиСценарий: Энн РайсБюджет: $60 000 000Премьера в мире: 11 ноября 1994R-Лицам до 17 лет обязательно присутствие взрослогоМировой рейтинг IMDB 7.40 (76 225) В ролях: Том Круз, Брэд Питт, Кирстен Данст, Стивен Ри, Антонио Бандерас, Кристиан Слэйтер, Вирджиния МакКоллэм, Джон МакКоннелл, Майк Силиг, Беллина ЛогОписание: К падкому на сенсации журналисту приходит вампир, чтобы поведать историю своей жизни. Все началось в 1791 году, когда молодой плантатор Луи, потеряв жену и ребенка, захотел умереть, но «родился для мрака». Выслушав рассказ вампира, журналист пожелал стать таким же, как он Качество: BDRipФормат: AVIВидео кодек: XviDАудио кодек: AC3Видео: 720x384 (1.88:1), 23.976 fps, XviD Final 1.1 (build 41) ~1774 kbps avg, 0.27 bit/pixelАудио: #1 Rus : 48 kHz, AC3 Dolby Digital, 3/2 (L,C,R,l,r) + LFE ch, ~384 kbps; #2 Eng : 48 kHz, AC3 Dolby Digital, 3/2 (L,C,R,l,r) + LFE ch, ~384 kbps Скачать Интервью с вампиром через торрент http://piratbit.in.ua/6cef1eb7f90c74946e88d6ebb2c50d30.jpg Скачать фильм Интервью с вампиром через торрент бесплантно в хорошем качестве Описание: К падкому на сенсации журналисту приходит вампир, чтобы поведать историю своей жизни. Все началось в 1791 году, когда молодой ... 2010-05-18 18:41 9.9 10 11

Loading...

Loading...

Рекламный пират

18-05-2010 19:52 Интервью с вампиром Скачать торрент  

Один из замечательных фильмов на вампирскую тематику, таких мало. Кто не смотрел, срочно смотреть, а любителям темы о вампирах, тем более смотреть в обязательном порядке =)

13-09-2010 12:54 Интервью с вампиром Скачать торрент  

Дорогой пользователь! Огромная просьба, поблагодарите релизера, оцените раздачу и оставьте свои комментарий, если Вы скачали Интервью с вампиром через торрент бесплатно! Внесите свою лепту в развитие PiratBit!

Комментировать посты могут только пользователи прошедшие не сложную регистрацию

Интервью с вампиром через торрент Скачать бесплатно Интервью с вампиром Интервью с вампиром скачать торрент Интервью с вампиром смотреть онлайн Cкачать фильм Интервью с вампиром бесплатно Интервью с вампиром скачать торрент в хорошем качестве Интервью с вампиром смотреть онлайн бесплатно в хорошем качестве

Вы не можете начинать темыВы не можете отвечать на сообщенияВы не можете редактировать свои сообщенияВы не можете удалять свои сообщенияВы не можете голосовать в опросахВы не можете прикреплять файлы к сообщениямВы можете скачивать файлы

Интервью с вампиром через торрент

GeneralUnique ID : 205429640074380664955285368683820593893 (0x9A8C4F3D40BA333D997E1A414231B2E5)Complete name : D:\Торенты\Раздачи\Интервью с вампиром_BDRip-AVC_.R.G. Resident .mkvFormat : MatroskaFormat version : Version 4 / Version 2File size : 2.17 GiBDuration : 2h 2mnOverall bit rate : 2 539 KbpsMovie name : R.G. Resident_pb.wtfEncoded date : UTC 2015-11-24 05:33:08Writing application : mkvmerge v7.4.0 ('Circles') 64bit built on Dec 12 2014 12:19:56Writing library : libebml v1.3.0 + libmatroska v1.4.1DURATION : 02:02:33.376000000NUMBER_OF_FRAMES : 229793NUMBER_OF_BYTES : 411789056_STATISTICS_WRITING_APP : mkvmerge v7.4.0 ('Circles') 64bit built on Dec 12 2014 12:19:56_STATISTICS_WRITING_DATE_UTC : 2015-11-24 05:33:08_STATISTICS_TAGS : BPS DURATION NUMBER_OF_FRAMES NUMBER_OF_BYTES

VideoID : 1Format : AVCFormat/Info : Advanced Video CodecFormat profile : [email protected] settings, CABAC : YesFormat settings, ReFrames : 4 framesCodec ID : V_MPEG4/ISO/AVCDuration : 2h 2mnBit rate : 2 090 KbpsWidth : 1 024 pixelsHeight : 576 pixelsDisplay aspect ratio : 16:9Frame rate : 23.976 fpsColor space : YUVChroma subsampling : 4:2:0Bit depth : 8 bitsScan type : ProgressiveBits/(Pixel*Frame) : 0.148Stream size : 1.75 GiB (80%)Title : R.G. Resident_pb.wtfWriting library : x264 core 125 r2208 d9d2288Encoding settings : cabac=1 / ref=4 / deblock=1:-2:-2 / analyse=0x3:0x133 / me=umh / subme=9 / psy=1 / psy_rd=1.00:0.10 / mixed_ref=1 / me_range=16 / chroma_me=1 / trellis=2 / 8x8dct=1 / cqm=0 / deadzone=21,11 / fast_pskip=0 / chroma_qp_offset=-3 / threads=6 / lookahead_threads=1 / sliced_threads=0 / nr=0 / decimate=0 / interlaced=0 / bluray_compat=0 / constrained_intra=0 / bframes=7 / b_pyramid=2 / b_adapt=2 / b_bias=0 / direct=3 / weightb=1 / open_gop=0 / weightp=2 / keyint=250 / keyint_min=23 / scenecut=40 / intra_refresh=0 / rc=2pass / mbtree=0 / bitrate=2090 / ratetol=1.0 / qcomp=0.60 / qpmin=0 / qpmax=69 / qpstep=4 / cplxblur=20.0 / qblur=0.5 / ip_ratio=1.40 / pb_ratio=1.30 / aq=1:0.80Language : RussianDefault : YesForced : No

AudioID : 2Format : AC-3Format/Info : Audio Coding 3Mode extension : CM (complete main)Codec ID : A_AC3Duration : 2h 2mnBit rate mode : ConstantBit rate : 448 KbpsChannel(s) : 6 channelsChannel positions : Front: L C R, Side: L R, LFESampling rate : 48.0 KHzBit depth : 16 bitsCompression mode : LossyStream size : 393 MiB (18%)Title : ДубляжLanguage : RussianDefault : YesForced : No

piratbit.ru


Смотрите также