Скачать игра в имитацию торрент в хорошем качестве


Скачать фильм Игра в имитацию через торрент в хорошем качестве бесплатно HDRip

Раздают: 1 [ 0 KB/s ]
Размер: 1.37 GB | Добавлен: 2 года 7 мес. назад | Торрент скачан:6002 раза
Реклама Дарим 3000 рублей за регистрацию, не упусти свой шанс получить шикарный бонус!!!

05-03-2015 05:54 Игра в имитацию Скачать торрент  

Игра в имитацию / The Imitation Game Год выпуска: 2014Страна: Великобритания, СШАЖанр: триллер, драма, военный, биографияПродолжительность: 01:54:13Перевод: Дублированное Лицензия [спс BlueBird]Режиссер: Мортен ТильдумВ ролях: Бенедикт Камбербэтч (Alan Turing), Кира Найтли (Joan Clarke), Мэттью Гуд (Hugh Alexander), Рори Киннер (Detective Robert Nock), Аллен Лич (John Cairncross), Мэттью Бирд (Peter Hilton), Чарльз Дэнс (Commander Denniston), Марк Стронг (Stewart Menzies), Джеймс Норткот (Jack Good), Том Гудман-Хилл (Sergeant Staehl), Стивен Вэддингтон (Superintendent Smith), Илан Гудман (Keith Furman)Описание: Английский математик и логик Алан Тьюринг помогает взломать код Enigma во время Второй мировой войны.Рейтинг: MPAA: PG-13 - Детям до 13 лет просмотр не желателенКачество: HDRipФормат: AVIВидео кодек: XviDАудио кодек:AC3Видео: XviD, 720x304 (2.35:1), 1330 kbps, 23,976 fpsАудио: AC3, 6 ch, 384 Кбит/с / 48 kHz Скачать Игра в имитацию через торрент http://i60.fastpic.ru/big/2015/0305/fd/e51fed75390b6991f8b995240342fefd.jpg Скачать фильм Игра в имитацию через торрент бесплантно в хорошем качестве Описание: Английский математик и логик Алан Тьюринг помогает взломать код Enigma во время Второй мировой войны.Рейтинг: MPAA: PG-13 - Детям ... 2015-03-09 10:40 9.4 10 172

Loading...

Loading...

% Раздел Тема Автор DL S | L
Фильмы [HD 720p, 1080p] (Хороший звук DUB, MVO) [ 5.76 GB ] Игра в имитацию / The Imitation Game [2014 военный BDRip 720p] DUB AVO potroks Скачать
Фильмы (Blu-ray, BD-Remux, HDDVD) [ 22.49 GB ] Игра в имитацию / The Imitation Game [2014 военный биография Blu-ray disc 1080p] [RUS] Dub voovaz Скачать
Фильмы 2014 [DVDrip, WEB-DLRip, HDrip] [ 2.16 GB ] Игра в имитацию / The Imitation Game [2014 военный HDRip-AVC] +AVO+Sub Ворон Скачать
Фильмы 2014 [DVDrip, WEB-DLRip, HDrip] [ 2.08 GB ] Игра в имитацию / The Imitation Game [2014 военный биография HDRip Дублированное ] coc900 Скачать
Фильмы (DVD фильмы) [ 6.14 GB ] Игра в имитацию / The Imitation Game [2014 военный биография DVD9] R5 voovaz Скачать
Фильмы [HD 720p, 1080p] (Хороший звук DUB, MVO) [ 9.21 GB ] Игра в имитацию / The Imitation Game [2014 Военный BDRip 1080p Дублированное ] Ворон Скачать
Фильмы [HD 720p, 1080p] (Хороший звук DUB, MVO) [ 15.93 GB ] Игра в имитацию / The Imitation Game [2014 военный BDRip 1080pDUBAVO] -Lockdown- Скачать

Последний раз редактировалось: Ворон (2015-03-15 23:48), всего редактировалось 4 раз(а)

Рекламный пират

06-03-2015 10:33 Игра в имитацию Скачать торрент  

06-03-2015 15:33 Игра в имитацию Скачать торрент  

СПАСИБО,СКАЧАЮ...ОБЯЗАТЕЛЬНО ГЛЯНУ :film:
!Ворон писал(а):

5.9. Не разрешается ЗЛОУПОТРЕБЛЯТЬ заглавными буквами (сюда не относится написание отдельных слов или предложений в верхнем регистре для выделения какой-то мысли или отдельного слова).Запрещено написание сообщений одними заглавными или многократно повторяющимися буквами, например: Дааааааааа или ВОТ ТАК ВОТ ПИСАТЬ НЕЛЬЗЯ. Является какое-либо слово или предложение, нарушением данного пункта - в конечном итоге определяется модератором.Правила пользования данным ресурсом.

06-03-2015 17:20 Игра в имитацию Скачать торрент  

Отличный фильм, интересный, занимательный. Главный герой очень убедительно сыграл свою роль, и в целом довольно таки харизматичный персонаж получился. А вот о других персонажах этого не скажешь, их истории не раскрыты и по сути мы ничего о них не знаем, хотя это и не сильно влияет на общую картину. В целом - рекомендую к просмотру.Ну и вот вижу пишут тут "спасибо" "скачаю, посмотрю". Вот по сути многие заходят прочитать в комментариях о том какой фильм, стоит-ли его смотреть, прочитать мнение других. Вы для начала посмотрите фильм а потом комментируйте, выскажите свое мнение, а для "спасибо" и кнопка есть.

07-03-2015 08:23 Игра в имитацию Скачать торрент  

Интересный фильм, стоит посмотреть, захватывающий. Ну и конечно стоит отметить актёрское мастерство Бенедикта, талантливо играет.

07-03-2015 09:18 Игра в имитацию Скачать торрент  

Был в кино на этом творение. хороший фильм, местами нуднаватый, но смотреть интересно.Бен хорош.

07-03-2015 12:51 Игра в имитацию Скачать торрент  

тут скорее игра в фалоимитацию...

08-03-2015 11:36 Игра в имитацию Скачать торрент  

нудное переписывание истории, эти пе.......ки уже фильмами начали бомбить не рекомендую к просмотру нормальным вменяемым людям

08-03-2015 12:38 Игра в имитацию Скачать торрент  

Фильм замечательный, смотрел на одном дыхании! Очень жаль, что некоторые индивиды зацикливаются на нетрадиционной ориентации персонажа, наверное личные комплексы мешают!?

Pекламный агент PB

08-03-2015 12:41 Игра в имитацию Скачать торрент  

mmv1313 писал(а):

нудное переписывание истории, эти пе.......ки уже фильмами начали бомбить не рекомендую к просмотру нормальным вменяемым людям

Фильм замечательный, смотрел на одном дыхании! Очень жаль, что некоторые индивиды зацикливаются на нетрадиционной ориентации персонажа, наверное личные комплексы мешают!?

08-03-2015 12:43 Игра в имитацию Скачать торрент  

Фильм замечательный, смотрел на одном дыхании! Очень жаль, что некоторые индивиды зацикливаются на нетрадиционной ориентации персонажа, наверное личные комплексы мешают!?

09-03-2015 11:18 Игра в имитацию Скачать торрент  

так его ждал а фильм оказался посредственным, потолок 6 из 10-ти

09-03-2015 15:50 Игра в имитацию Скачать торрент  

вот какие фильмы надо снимать

09-03-2015 18:35 Игра в имитацию Скачать торрент  

На разок. И гомосятину проталкивают.

09-03-2015 19:36 Игра в имитацию Скачать торрент  

нормально, к просмотру

10-03-2015 10:01 Игра в имитацию Скачать торрент  

pretender_24 писал(а):

Фильм замечательный, смотрел на одном дыхании! Очень жаль, что некоторые индивиды зацикливаются на нетрадиционной ориентации персонажа, наверное личные комплексы мешают!?

Слишком много в последнее время нетрадиционной ориентации, хочется смотреть фильм, а не очередной пропагандистский ролик

11-03-2015 16:53 Игра в имитацию Скачать торрент  

Лично меня раздражают попытки америкосов и англичан "перекроить" результаты 2-й мировой войны, как и фильм "Бесславные ублюдки" - классика жанра. А это очередной фильм о том, что англичане победили в войне, а СССР только за счет их помощи, так "НЕМНОЖКО" помогли.Кстати недавно смотрел документальный фильм по фактам по которым снималось кино, Я КОНСТАТИРУЮ фильм полная лажа по сравнению с реальной историей. Так шифровальную машинку которую "взламывали" математики называлась "Тания", во вторых, не был гомосексуалистом, помощь в расшифровке кода машики оказал немецкий шифровальщик, который по личной глупости дважды отправил одно и тоже сообщение. ВОТ

Последний раз редактировалось: Зорон (2015-03-31 18:18), всего редактировалось 1 раз

Pекламный агент PB

15-03-2015 05:59 Игра в имитацию Скачать торрент  

Очень коротко.Фильм интересный.К просмотру обязателен.

15-03-2015 06:00 Игра в имитацию Скачать торрент  

Очень коротко.Фильм интересный.К просмотру обязателен.Автору благодарность за труд.

15-03-2015 13:42 Игра в имитацию Скачать торрент  

Зорон писал(а):

Лично меня раздражают попытки америкосов и англичан "перекроить" результаты 2-й мировой войны, как и фильм "Бесславные ублюдки" - классика жанра. А это очередной фильм о том, что англичане победили в войне, а СССР только за счет их помощи, так "НЕМНОЖКО" помогли.

Полностью поддерживаю.

18-03-2015 16:37 Игра в имитацию Скачать торрент  

Смотреть однозначно!

22-03-2015 10:36 Игра в имитацию Скачать торрент  

посмотрел ну и ладно впечатление такое что педики победили шизофреника

25-03-2015 20:33 Игра в имитацию Скачать торрент  

Фильм о том как один педик победил фашизм.

Дорогой пользователь! Огромная просьба, поблагодарите релизера, оцените раздачу и оставьте свои комментарий, если Вы скачали Игра в имитацию через торрент бесплатно! Внесите свою лепту в развитие PiratBit!

Комментировать посты могут только пользователи прошедшие не сложную регистрацию

Игра в имитацию через торрент Скачать бесплатно Игра в имитацию Игра в имитацию скачать торрент Игра в имитацию смотреть онлайн Cкачать фильм Игра в имитацию бесплатно Игра в имитацию скачать торрент в хорошем качестве Игра в имитацию смотреть онлайн бесплатно в хорошем качестве

Вы не можете начинать темыВы не можете отвечать на сообщенияВы не можете редактировать свои сообщенияВы не можете удалять свои сообщенияВы не можете голосовать в опросахВы не можете прикреплять файлы к сообщениямВы можете скачивать файлы

piratbit.ru

Скачать фильм Игра в имитацию через торрент в хорошем качестве бесплатно HDRip

Раздают: 3 [ 0 KB/s ]
Размер: 2.08 GB | Добавлен: 2 года 7 мес. назад | Торрент скачан:1604 раза
Реклама Дарим 3000 рублей за регистрацию, не упусти свой шанс получить шикарный бонус!!!

14-03-2015 18:18 Игра в имитацию Скачать торрент  

Игра в имитацию / The Imitation Game

Год выпуска: 2014Страна: Великобритания, США / Black Bear Pictures, Bristol AutomotiveЖанр: триллер, драма, военный, биографияПродолжительность: 01:54:13Перевод: Дубляж

Режиссер: Мортен Тильдум

IMDB 8.20 (187 726)

В ролях: Бенедикт Камбербэтч, Кира Найтли, Мэттью Гуд, Рори Киннер, Аллен Лич, Мэттью Бирд, Чарльз Дэнс, Марк Стронг, Джеймс Норткот, Том Гудман-Хилл, Илья Исаев, Наталья Фищук, Михаил Данилюк, Даниил Эльдаров, Михаил Тихонов

Описание: Английский математик и логик Алан Тьюринг помогает взломать код Enigma во время Второй мировой войны. [sp

Качество: HDRipФормат: AVIВидео кодек: XviDАудио кодек: AC3Видео: 720x304 (2.37:1), 23.976 fps, XviD build 50 ~2156 kbps avg, 0.41 bit/pixelАудио: 48 kHz, AC3 Dolby Digital, 3/2 (L,C,R,l,r) + LFE ch, ~448 kbps

ОбщееПолное имя : F:\кино\Игра в имитацию.2014.HDRip.aviФормат : AVIФормат/Информация : Audio Video InterleaveПрофиль формата : OpenDMLРазмер файла : 2,08 ГбайтПродолжительность : 1 ч. 54 м.Общий поток : 2611 Кбит/секПрограмма кодирования : VirtualDubMod 1.5.10.3 | www.virtualdub-fr.org || (build 2550/release)Библиотека кодирования : VirtualDubMod build 2550/release

ВидеоИдентификатор : 0Формат : MPEG-4 VisualПрофиль формата : Advanced [email protected]Параметр BVOP формата : 2Параметр QPel формата : НетПараметр GMC формата : Без точки переходаПараметр матрицы формата : Default (H.263)Идентификатор кодека : XVIDИдентификатор кодека/Подсказка : XviDПродолжительность : 1 ч. 54 м.Битрейт : 2151 Кбит/секШирина : 720 пикселейВысота : 304 пикселяСоотношение сторон : 2,35:1Частота кадров : 23,976 кадра/секЦветовое пространство : YUVСубдискретизация насыщенности : 4:2:0Битовая глубина : 8 битТип развёртки : ПрогрессивнаяМетод сжатия : С потерямиБит/(Пиксели*Кадры) : 0.410Размер потока : 1,72 Гбайт (82%)Библиотека кодирования : XviD 1.2.1 (UTC 2008-12-04)

АудиоИдентификатор : 1Формат : AC-3Формат/Информация : Audio Coding 3Расширение режима : CM (complete main)Параметр Endianness формата : BigИдентификатор кодека : 2000Продолжительность : 1 ч. 54 м.Вид битрейта : ПостоянныйБитрейт : 448 Кбит/секКаналы : 6 каналовРасположение каналов : Front: L C R, Side: L R, LFEЧастота : 48,0 КГцБитовая глубина : 16 битМетод сжатия : С потерямиРазмер потока : 366 Мбайт (17%)Выравнивание : Разделение по промежуткамПродолжительность промежутка : 42 мс. (1,00 видеокадр)Время предзагрузки промежутка : 500 мс.

Скачать Игра в имитацию через торрент http://pic1.pb.wtf/images/10/czkq7.jpg Скачать фильм Игра в имитацию через торрент бесплантно в хорошем качестве Описание: Английский математик и логик Алан Тьюринг помогает взломать код Enigma во время Второй мировой войны. ... 2015-03-14 18:18 9.1 10 31

Loading...

Loading...

% Раздел Тема Автор DL S | L
Фильмы [HD 720p, 1080p] (Хороший звук DUB, MVO) [ 5.76 GB ] Игра в имитацию / The Imitation Game [2014 военный BDRip 720p] DUB AVO potroks Скачать
Фильмы (Blu-ray, BD-Remux, HDDVD) [ 22.49 GB ] Игра в имитацию / The Imitation Game [2014 военный биография Blu-ray disc 1080p] [RUS] Dub voovaz Скачать
Фильмы 2014 [DVDrip, WEB-DLRip, HDrip] [ 2.16 GB ] Игра в имитацию / The Imitation Game [2014 военный HDRip-AVC] +AVO+Sub Ворон Скачать
Фильмы (DVD фильмы) [ 6.14 GB ] Игра в имитацию / The Imitation Game [2014 военный биография DVD9] R5 voovaz Скачать
Фильмы [HD 720p, 1080p] (Хороший звук DUB, MVO) [ 9.21 GB ] Игра в имитацию / The Imitation Game [2014 Военный BDRip 1080p Дублированное ] Ворон Скачать
Фильмы 2014 [DVDrip, WEB-DLRip, HDrip] [ 1.37 GB ] Игра в имитацию / The Imitation Game [2014 военный HDRip Дублированное ] Ворон Скачать
Фильмы [HD 720p, 1080p] (Хороший звук DUB, MVO) [ 15.93 GB ] Игра в имитацию / The Imitation Game [2014 военный BDRip 1080pDUBAVO] -Lockdown- Скачать

Рекламный пират

15-03-2015 12:38 Игра в имитацию Скачать торрент  

Фильм супер,главный герой как и в Шерлоке такой же смешной с серьезным лицом

12-04-2015 09:12 Игра в имитацию Скачать торрент  

РЕЙТИНГ ЯВНО ЗАВИШЕН ФИЛЬМ ЛАЙНО

13-04-2015 15:33 Игра в имитацию Скачать торрент  

В описании ни слова, что Беня по сюжету оказался геем... подстава... фильм скучный, до конца не досмотрел.

Дорогой пользователь! Огромная просьба, поблагодарите релизера, оцените раздачу и оставьте свои комментарий, если Вы скачали Игра в имитацию через торрент бесплатно! Внесите свою лепту в развитие PiratBit!

Комментировать посты могут только пользователи прошедшие не сложную регистрацию

Игра в имитацию через торрент Скачать бесплатно Игра в имитацию Игра в имитацию скачать торрент Игра в имитацию смотреть онлайн Cкачать фильм Игра в имитацию бесплатно Игра в имитацию скачать торрент в хорошем качестве Игра в имитацию смотреть онлайн бесплатно в хорошем качестве

Вы не можете начинать темыВы не можете отвечать на сообщенияВы не можете редактировать свои сообщенияВы не можете удалять свои сообщенияВы не можете голосовать в опросахВы не можете прикреплять файлы к сообщениямВы можете скачивать файлы

piratbit.ru

Скачать торрент Игра в имитацию / The Imitation Game (2014) Blu-Ray 1080p | Rus Transfer

Информация о фильмеНазвание: Игра в имитациюОригинальное название: The Imitation GameГод выхода: 2014Жанр: триллер, драма, военный, биографияРежиссер: Мортен Тильдум / Morten TyldumВ ролях: Бенедикт Камбербэтч, Кира Найтли, Мэттью Гуд, Рори Киннер, Аллен Лич, Мэттью Бирд, Чарльз Дэнс, Марк Стронг, Джеймс Норткот, Том Гудман-Хилл...

О фильме: Английский математик и логик Алан Тьюринг помогает взломать код Enigma во время Второй мировой войны.

Страна: Великобритания, СШАСтудия: Black Bear Pictures, Bristol AutomotiveПродолжительность: 01:54:13Перевод: Дублированный [Лицензия]

ФайлКодек: MPEG-4Качество: Blu-ray disc 1080pВидео: MPEG-4 AVC Video 24061 kbps 1080p / 23,976 fps / 16:9 / High Profile 4.1Звук: Аудио #1: Dolby Digital Audio Russian 640 kbps 5.1 / 48 kHz / 640 kbps / DN -4dBАудио #2: DTS Audio Russian 1509 kbps 5.1 / 48 kHz / 1509 kbps / 24-bitСубтитры: нет

BDInfo

DISC INFO:

Disc Title: The Imitation Game Disc Size: 24 143 880 028 bytes Protection: AACS BD-Java: No BDInfo: 0.5.8

PLAYLIST REPORT:

Name: 00001.MPLS Length: 1:54:13.847 (h:m:s.ms) Size: 23 670 755 328 bytes Total Bitrate: 27,63 Mbps

VIDEO:

Codec Bitrate Deion ----- ------- ----------- MPEG-4 AVC Video 24061 kbps 1080p / 23,976 fps / 16:9 / High Profile 4.1

AUDIO:

Codec Language Bitrate Deion ----- -------- ------- ----------- Dolby Digital Audio Russian 640 kbps 5.1 / 48 kHz / 640 kbps / DN -4dB DTS Audio Russian 1509 kbps 5.1 / 48 kHz / 1509 kbps / 24-bit

SUBTITLES:

Codec Language Bitrate Deion ----- -------- ------- ----------- Presentation Graphics Russian 0,646 kbps

FILES:

Name Time In Length Size Total Bitrate ---- ------- ------ ---- ------------- 00001.M2TS 0:00:00.000 1:54:13.847 23 670 755 328 27 629

CHAPTERS:

Number Time In Length Avg Video Rate Max 1-Sec Rate Max 1-Sec Time Max 5-Sec Rate Max 5-Sec Time Max 10Sec Rate Max 10Sec Time Avg Frame Size Max Frame Size Max Frame Time ------ ------- ------ -------------- -------------- -------------- -------------- -------------- -------------- -------------- -------------- -------------- -------------- 1 0:00:00.000 0:07:58.895 23 842 kbps 52 942 kbps 00:00:22.272 40 662 kbps 00:00:22.230 37 623 kbps 00:06:36.229 124 277 bytes 674 923 bytes 00:07:37.123 2 0:07:58.895 0:09:14.762 23 109 kbps 43 281 kbps 00:16:20.980 37 958 kbps 00:16:19.770 34 103 kbps 00:16:14.807 120 488 bytes 558 323 bytes 00:16:20.062 3 0:17:13.657 0:09:32.863 26 045 kbps 47 236 kbps 00:19:58.864 38 088 kbps 00:21:11.687 35 452 kbps 00:21:14.690 135 789 bytes 501 572 bytes 00:22:55.165 4 0:26:46.521 0:10:12.528 25 507 kbps 43 708 kbps 00:32:36.245 39 574 kbps 00:32:31.574 37 830 kbps 00:32:29.197 132 974 bytes 627 000 bytes 00:32:50.468 5 0:36:59.050 0:09:38.077 22 758 kbps 45 716 kbps 00:39:17.396 37 911 kbps 00:38:15.459 35 889 kbps 00:38:12.748 118 660 bytes 604 235 bytes 00:38:12.790 6 0:46:37.127 0:07:14.976 24 840 kbps 44 110 kbps 00:52:32.607 36 596 kbps 00:52:29.104 31 260 kbps 00:52:29.813 129 506 bytes 667 645 bytes 00:53:35.462 7 0:53:52.103 0:08:21.042 25 401 kbps 38 556 kbps 00:54:17.254 35 979 kbps 00:59:25.770 35 141 kbps 00:59:24.018 132 417 bytes 522 590 bytes 00:54:00.487 8 1:02:13.146 0:07:21.941 23 859 kbps 40 189 kbps 01:05:45.399 35 165 kbps 01:05:41.854 33 786 kbps 01:05:27.632 124 403 bytes 491 052 bytes 01:05:32.887 9 1:09:35.087 0:09:09.966 23 077 kbps 40 201 kbps 01:17:13.378 31 485 kbps 01:17:02.951 30 714 kbps 01:14:47.774 120 311 bytes 447 573 bytes 01:17:10.792 10 1:18:45.053 0:10:24.540 26 339 kbps 47 335 kbps 01:18:58.525 40 370 kbps 01:22:12.761 37 627 kbps 01:22:12.427 137 319 bytes 605 409 bytes 01:18:52.394 11 1:29:09.594 0:12:28.581 25 804 kbps 51 952 kbps 01:35:48.492 40 691 kbps 01:36:51.931 37 655 kbps 01:35:25.469 134 524 bytes 553 337 bytes 01:29:23.816 12 1:41:38.175 0:12:35.671 19 110 kbps 43 344 kbps 01:49:12.921 40 362 kbps 01:49:10.001 37 784 kbps 01:49:10.126 99 643 bytes 561 905 bytes 01:49:22.973

STREAM DIAGNOSTICS:

File PID Type Codec Language Seconds Bitrate Bytes Packets ---- --- ---- ----- -------- -------------- -------------- ------------- ----- 00001.M2TS 4113 (0x1011) 0x1B AVC 6853,764 24 062 20 614 103 699 112 129 127 00001.M2TS 4352 (0x1100) 0x81 AC3 rus (Russian) 6853,764 640 548 305 920 3 212 730 00001.M2TS 4353 (0x1101) 0x82 DTS rus (Russian) 6853,764 1 510 1 293 443 085 7 710 540 00001.M2TS 4608 (0x1200) 0x90 PGS rus (Russian) 6853,764 1 553 113 3 153

Релиз от:

krutor.org

Скачать фильм Игра в имитацию через торрент в хорошем качестве бесплатно 1080p

Format : Matroska

Format version : Version 4 / Version 2

File size : 9.21 GiB

Duration : 1h 54mn

Overall bit rate : 11.5 Mbps

Movie name : The Imitation Game

Encoded date : UTC 2015-03-09 03:01:56

Writing application : mkvmerge v7.7.0 ('Six Voices') 64bit built on Feb 28 2015 23:39:33

Writing library : libebml v1.3.1 + libmatroska v1.4.2

Video

ID : 1

Format : AVC

Format/Info : Advanced Video Codec

Format profile : [email protected]

Format settings, CABAC : Yes

Format settings, ReFrames : 5 frames

Codec ID : V_MPEG4/ISO/AVC

Bit rate : 9 158 Kbps

Width : 1 920 pixels

Height : 800 pixels

Display aspect ratio : 2.40:1

Frame rate mode : Variable

Original frame rate : 23.976 fps

Color space : YUV

Chroma subsampling : 4:2:0

Bit depth : 8 bits

Scan type : Progressive

Title : FraMeSToR / MPEG-4 AVC Video / 9385 kbps / 1080p / 23.976 fps / [email protected]

Writing library : x264 core 144 r2525kMod 40bb568

Encoding settings : cabac=1 / ref=5 / deblock=1:-2:-2 / analyse=0x3:0x113 / me=umh / subme=10 / psy=1 / fade_compensate=0.00 / psy_rd=1.02:0.13 / mixed_ref=1 / me_range=48 / chroma_me=1 / trellis=2 / 8x8dct=1 / cqm=0 / deadzone=21,11 / fast_pskip=0 / chroma_qp_offset=-3 / threads=12 / lookahead_threads=3 / sliced_threads=0 / nr=0 / decimate=1 / interlaced=0 / bluray_compat=0 / constrained_intra=0 / fgo=0 / bframes=10 / b_pyramid=2 / b_adapt=2 / b_bias=0 / direct=1 / weightb=1 / open_gop=0 / weightp=2 / keyint=240 / keyint_min=24 / scenecut=40 / intra_refresh=0 / rc_lookahead=120 / rc=crf / mbtree=1 / crf=18.1000 / qcomp=0.60 / qpmin=0 / qpmax=37 / qpstep=4 / vbv_maxrate=15623 / vbv_bufsize=20830 / crf_max=0.0 / nal_hrd=none / filler=0 / ip_ratio=1.40 / aq=3:0.90

Language : English

Default : Yes

Forced : No

Color primaries : BT.709

Transfer characteristics : BT.709

Matrix coefficients : BT.709

Audio #1

ID : 2

Format : AC-3

Format/Info : Audio Coding 3

Mode extension : CM (complete main)

Format settings, Endianness : Big

Codec ID : A_AC3

Duration : 1h 54mn

Bit rate mode : Constant

Bit rate : 640 Kbps

Channel(s) : 6 channels

Channel positions : Front: L C R, Side: L R, LFE

Sampling rate : 48.0 KHz

Bit depth : 16 bits

Compression mode : Lossy

Stream size : 523 MiB (6%)

Title : Дублированный

Language : Russian

Default : Yes

Forced : No

Audio #2

ID : 3

Format : DTS

Format/Info : Digital Theater Systems

Mode : 16

Format settings, Endianness : Big

Codec ID : A_DTS

Duration : 1h 54mn

Bit rate mode : Constant

Bit rate : 1 509 Kbps

Channel(s) : 6 channels

Channel positions : Front: L C R, Side: L R, LFE

Sampling rate : 48.0 KHz

Bit depth : 24 bits

Compression mode : Lossy

Stream size : 1.20 GiB (13%)

Language : English

Default : No

Forced : No

Text #1

ID : 4

Format : UTF-8

Codec ID : S_TEXT/UTF8

Codec ID/Info : UTF-8 Plain Text

Language : Russian

Default : No

Forced : No

Text #2

ID : 5

Format : UTF-8

Codec ID : S_TEXT/UTF8

Codec ID/Info : UTF-8 Plain Text

Language : English

Default : No

Forced : No

Text #3

ID : 6

Format : UTF-8

Codec ID : S_TEXT/UTF8

Codec ID/Info : UTF-8 Plain Text

Language : English

Default : No

Forced : No

Menu

00:00:00.000 : en:00:00:00.000

00:07:58.895 : en:00:07:58.895

00:20:20.010 : en:00:20:20.010

00:28:20.032 : en:00:28:20.032

00:36:59.050 : en:00:36:59.050

00:46:37.128 : en:00:46:37.128

00:57:27.527 : en:00:57:27.527

01:09:35.088 : en:01:09:35.088

01:23:46.688 : en:01:23:46.688

01:29:29.239 : en:01:29:29.239

01:35:09.913 : en:01:35:09.913

01:42:10.499 : en:01:42:10.499

piratbit.ru


Смотрите также