Скачать хеллбой 2 через торрент в хорошем качестве


Золотая армия через торрент в хорошем качестве бесплатно BDRip

piratbit.ru

Размер: 2.18 GB | Добавлен: 6 лет 1 мес. назад | Торрент скачан:352 раза
Реклама Дарим 3000 рублей за регистрацию, не упусти свой шанс получить шикарный бонус!!!

20-09-2011 06:32 Хеллбой II: Золотая армия Скачать торрент  

Хеллбой II: Золотая армия / Hellboy II: The Golden Army

Год выпуска: 2008Страна: США, ГерманияЖанр: фэнтези, боевик, приключенияПродолжительность: 120 мин.Перевод: Профессиональный (полное дублирование) [Лицензия]

Режиссер: Гильермо дель ТороПродюссер: Лоуренс Гордон, Ллойд Левин, Майк РичардсонСценарий: Гильермо дель Торо, Майк Миньола

Бюджет: $85 000 000

PG-13

-Детям до 13 лет просмотр не желателенМировой рейтинг IMDB 7.30 (74 247)

В ролях: Рон Перлман, Сэльма Блэр, Даг Джонс, Джон Александр, Джеймс Додд, Сет МакФарлейн, Люк Госс, Анна Уолтон, Джефри Тэмбор, Джон Хё

Описание: После того как древнее перемирие между человечеством и тайным миром было нарушено, на Земле вот-вот разверзнется ад. Безжалостный лидер, вхожий в оба мира, бросает вызов своей крови и пробуждает на свет неодолимую армию чудовищ. Настало время самому Хэллбою сразиться с беспощадным диктатором и его воинами. Вместе со своей пополняющей ряды командой «Бюро Паранормальных Исследований и Развития» он будет бороздить границы двух миров — нашего и скрытого, где самые невероятные существа обретают плоть. Хэллбою, порожденному обоими мирами, но не принадлежащему ни одному из них, предстоит выбирать между жизнью, которую он знает, и неизвестностью новой судьбы.

Качество: BDRipФормат: MKVВидео кодек: H.264Аудио кодек: AACВидео: 960x520, 16:9 (1.84:1), 23.976 fps, 1833 kbps, H.264Аudiо: #1 AAC, 224 Kbps, 48 kHz, 6 channels Дублированный (Русский)Audio: #2 AAC, 48.0 KHz, 6 channels, 192 kbps, Многоголосый (Русский)Audio: #3 AAC, 48.0 KHz, 2 channels, 112 kbps, Дублированный (Украинский)Audio: #4 AAC, 48.0 KHz, 6 channels, 192 kbps, Оригинал (English)Audio: #5 AAC, 48.0 KHz, 2 channels, Комментарии (Гильермо Дель Торо) EnglishAudio: #6 AAC, 48.0 KHz, 2 channels, Комментарии (Селма Блэр, Джефри Тэмбор, Люк Госс) EnglishСубтитры: русские, английские. Скачать Хеллбой II: Золотая армия через торрент http://i046.radikal.ru/1109/f9/e2bde5f44fbc.jpg Скачать фильм Хеллбой II: Золотая армия через торрент бесплантно в хорошем качестве Описание: После того как древнее перемирие между человечеством и тайным миром было нарушено, на Земле вот-вот разверзнется ад. Безжалостный ... 2011-09-20 06:32 10 10 15

Loading...

Loading...

Рекламный пират

21-02-2012 18:54 Хеллбой II: Золотая армия Скачать торрент  

Это прикол такой? Уж выберите что то одно, 720Р или 1080Р. Хотя рипу в разделе HD делать нечего...

03-03-2012 22:05 Хеллбой II: Золотая армия Скачать торрент  

Дорогой пользователь! Огромная просьба, поблагодарите релизера, оцените раздачу и оставьте свои комментарий, если Вы скачали Хеллбой II: Золотая армия через торрент бесплатно! Внесите свою лепту в развитие PiratBit!

Комментировать посты могут только пользователи прошедшие не сложную регистрацию

Хеллбой II: Золотая армия через торрент Скачать бесплатно Хеллбой II: Золотая армия Хеллбой II: Золотая армия скачать торрент Хеллбой II: Золотая армия смотреть онлайн Cкачать фильм Хеллбой II: Золотая армия бесплатно Хеллбой II: Золотая армия скачать торрент в хорошем качестве Хеллбой II: Золотая армия смотреть онлайн бесплатно в хорошем качестве

Вы не можете начинать темыВы не можете отвечать на сообщенияВы не можете редактировать свои сообщенияВы не можете удалять свои сообщенияВы не можете голосовать в опросахВы не можете прикреплять файлы к сообщениямВы можете скачивать файлы

The Golden Army ( / Guillermo del Toro) [2008, , , , , , BDRip 1080p, DXVA] Dub Sub Rus Eng + Original Eng

General Unique ID : 176928311639446312739385745398211227701 (0x851B274144122D579783280238CB3035) Complete name : Hellboy II - The Golden Army 1080p.mkv Format : Matroska Format version : Version 2 File size : 11.1 GiB Duration : 1h 59mn Overall bit rate : 13.2 Mbps Movie name : II: / Hellboy II: The Golden Army Encoded date : UTC 2011-12-10 19:32:46 Writing application : mkvmerge v5.0.1 ('Es ist Sommer') built on Oct 9 2011 11:55:43 Writing library : libebml v1.2.2 + libmatroska v1.3.0

Video

ID : 1 Format : AVC Format/Info : Advanced Video Codec Format profile : [email protected] Format settings, CABAC : Yes Format settings, ReFrames : 4 frames Codec ID : V_MPEG4/ISO/AVC Duration : 1h 59mn Bit rate : 10.5 Mbps Width : 1 920 pixels Height : 1 080 pixels Display aspect ratio : 16:9 Frame rate : 23.976 fps Color space : YUV Chroma subsampling : 4:2:0 Bit depth : 8 bits Scan type : Progressive Bits/(Pixel*Frame) : 0.211 Stream size : 8.64 GiB (78%) Title : x264 [email protected], DXVA, 10500 Kbps (Softcode Video) Writing library : x264 core 116 r2074 2641b9e Encoding settings : cabac=1 / ref=3 / deblock=1:-3:-1 / analyse=0x3:0x113 / me=umh / subme=11 / psy=1 / psy_rd=1.10:0.00 / mixed_ref=1 / me_range=48 / chroma_me=1 / trellis=2 / 8x8dct=1 / cqm=0 / deadzone=21,11 / fast_pskip=0 / chroma_qp_offset=-2 / threads=6 / sliced_threads=0 / nr=0 / decimate=0 / interlaced=0 / bluray_compat=0 / constrained_intra=0 / bframes=7 / b_pyramid=2 / b_adapt=2 / b_bias=0 / direct=3 / weightb=1 / open_gop=0 / weightp=2 / keyint=250 / keyint_min=23 / scenecut=40 / intra_refresh=0 / rc_lookahead=50 / rc=2pass / mbtree=1 / bitrate=10500 / ratetol=1.0 / qcomp=0.70 / qpmin=0 / qpmax=69 / qpstep=4 / cplxblur=20.0 / qblur=0.5 / vbv_maxrate=50000 / vbv_bufsize=62500 / nal_hrd=none / ip_ratio=1.40 / aq=1:0.90 Language : English

Audio #1

ID : 2 Format : DTS Format/Info : Digital Theater Systems Codec ID : A_DTS Duration : 1h 59mn Bit rate mode : Constant Bit rate : 755 Kbps Channel(s) : 6 channels Channel positions : Front: L C R, Side: L R, LFE Sampling rate : 48.0 KHz Bit depth : 24 bits Compression mode : Lossy Stream size : 646 MiB (6%) Title : , DTS 5.1ch, 754 Kbps Language : Russian

Audio #2

ID : 3 Format : DTS Format/Info : Digital Theater Systems Codec ID : A_DTS Duration : 1h 59mn Bit rate mode : Constant Bit rate : 1 510 Kbps Channel(s) : 6 channels Channel positions : Front: L C R, Side: L R, LFE Sampling rate : 48.0 KHz Bit depth : 24 bits Compression mode : Lossy Stream size : 1.26 GiB (11%) Title : , DTS 5.1ch, 1.5 Mbps Language : English

Audio #3

ID : 4 Format : AC-3 Format/Info : Audio Coding 3 Format profile : Dolby Digital Mode extension : CM (complete main) Codec ID : A_AC3 Duration : 1h 59mn Bit rate mode : Constant Bit rate : 192 Kbps Channel(s) : 2 channels Channel positions : Front: L R Sampling rate : 48.0 KHz Bit depth : 16 bits Compression mode : Lossy Stream size : 164 MiB (1%) Title : , AC3 2.0ch, 192 Kbps ( ) Language : English

Audio #4

ID : 5 Format : AC-3 Format/Info : Audio Coding 3 Format profile : Dolby Digital Mode extension : CM (complete main) Codec ID : A_AC3 Duration : 1h 59mn Bit rate mode : Constant Bit rate : 192 Kbps Channel(s) : 2 channels Channel positions : Front: L R Sampling rate : 48.0 KHz Bit depth : 16 bits Compression mode : Lossy Stream size : 164 MiB (1%) Title : , AC3 2.0ch, 192 Kbps ( ) Language : English

Text #1

ID : 6 Format : PGS Codec ID : S_HDMV/PGS Codec ID/Info : The same subtitle format used on BDs/HD-DVDs Title : SUP Subtitles Language : English

Text #2

ID : 7 Format : UTF-8 Codec ID : S_TEXT/UTF8 Codec ID/Info : UTF-8 Plain Text Title : SRT Subtitles Language : Russian

Text #3

ID : 8 Format : UTF-8 Codec ID : S_TEXT/UTF8 Codec ID/Info : UTF-8 Plain Text Title : SRT Subtitles ( ) Language : Russian

Text #4

ID : 9 Format : PGS Codec ID : S_HDMV/PGS Codec ID/Info : The same subtitle format used on BDs/HD-DVDs Title : SUP Subtitles ( ) Language : Russian

Menu

00:00:00.000 : en:Chapter 1 00:07:00.044 : en:Chapter 2 00:11:48.874 : en:Chapter 3 00:17:46.440 : en:Chapter 4 00:26:36.970 : en:Chapter 5 00:29:57.921 : en:Chapter 6 00:34:45.875 : en:Chapter 7 00:38:34.979 : en:Chapter 8 00:44:28.374 : en:Chapter 9 00:48:22.399 : en:Chapter 10 00:55:07.262 : en:Chapter 11 00:59:15.760 : en:Chapter 12 01:05:38.434 : en:Chapter 13 01:12:58.123 : en:Chapter 14 01:16:10.065 : en:Chapter 15 01:21:59.914 : en:Chapter 16 01:26:19.507 : en:Chapter 17 01:35:34.395 : en:Chapter 18 01:42:08.789 : en:Chapter 19 01:51:53.915 : en:Chapter 20 01:59:40.631 : en:Chapter 21

unionpeer.com

Dilogy [2004-2008 HDRip by Dean24] скачать через торрент

piratbit.ru

Размер: 4.31 GB | Добавлен: 1 год 11 мес. назад | Торрент скачан:19 раз
Реклама Дарим 3000 рублей за регистрацию, не упусти свой шанс получить шикарный бонус!!!

31-10-2015 18:02 Хеллбой: Дилогия Скачать торрент  

Хеллбой: Герой из пекла / Hellboy

Год выпуска: 2004Страна: СШАЖанр: фантастика, фэнтези, боевик, приключенияПродолжительность: 02:12:29 | Director's CutПеревод: Дубляж | Blu-ray CEE со вставками многоголосого (Киномания)Субтитры: Нет

Режиссер: Гильермо дель ТороПродюссер: Лоуренс Гордон, Ллойд Левин, Майк РичардсонСценарий: Гильермо дель Торо, Питер Бриггс, Майк Миньола

Бюджет: $66 000 000Премьера в мире: 30 марта 2004

В ролях: Рон Перлман, Джон Хёрт, Сэльма Блэр, Руперт Эванс, Карел Роден, Джеффри Тэмбор, Даг Джонс, Брайан Стил, Ладислав Беран, Бидди Ходсон

Описание: Вторая мировая война. Нацисты терпят одно сокрушительное поражение за другим. В результате исследования оккультных ритуалов в супер-секретной лаборатории ученым, работающим на фашистский режим, удается поднять из небытия Демона Ада, который должен помочь переломить ход войны.Но в научную лабораторию тайно проникает отряд союзников и поворачивает это мистическое и грозное оружие против нацистов. Однако никто из участников эксперимента и не предполагает, что врата потустороннего мира после открытия окажутся неподвластны людям, и им придется столкнуться с существами еще более опасными и непредсказуемыми, чем Демон Ада…

Качество: HDRip | BDRip 720pФормат: AVIВидео кодек: XviDАудио кодек: AC3Видео: 704x384 (1.83:1), 23.976 fps, XviD build 50 ~1958 kbps avg, 0.30 bit/pixelАудио: 48 kHz, AC3 Dolby Digital, 3/2 (L,C,R,l,r) + LFE ch, ~384 kbps

Автор рипа: Dean24 |

ОбщееПолное имя : D:\Мои документы\Фильмы\Сайт\Hellboy.Dilogy\Hellboy.HDRip.aviФормат : AVIФормат/Информация : Audio Video InterleaveПрофиль формата : OpenDMLРазмер файла : 2,14 ГбайтПродолжительность : 2 ч. 12 м.Общий поток : 2314 Кбит/секПрограмма кодирования : VirtualDubMod 1.5.10.3 | www.virtualdub-fr.org || (build 2550/release)Библиотека кодирования : VirtualDubMod build 2550/release

ВидеоИдентификатор : 0Формат : MPEG-4 VisualПрофиль формата : Advanced [email protected]Параметр BVOP формата : 3Параметр QPel формата : НетПараметр GMC формата : Без точки переходаПараметр матрицы формата : Default (H.263)Идентификатор кодека : XVIDИдентификатор кодека/Подсказка : XviDПродолжительность : 2 ч. 12 м.Битрейт : 1954 Кбит/секШирина : 704 пикселяВысота : 384 пикселяСоотношение сторон : 1,85:1Частота кадров : 23,976 кадра/секЦветовое пространство : YUVСубдискретизация насыщенности : 4:2:0Битовая глубина : 8 битТип развёртки : ПрогрессивнаяМетод сжатия : С потерямиБит/(Пиксели*Кадры) : 0.301Размер потока : 1,81 Гбайт (84%)Библиотека кодирования : XviD 1.2.1 (UTC 2008-12-04)

АудиоИдентификатор : 1Формат : AC-3Формат/Информация : Audio Coding 3Расширение режима : CM (complete main)Параметр Endianness формата : BigИдентификатор кодека : 2000Продолжительность : 2 ч. 0 м.Вид битрейта : ПостоянныйБитрейт : 384 Кбит/секКаналы : 6 каналовРасположение каналов : Front: L C R, Side: L R, LFEЧастота : 48,0 КГцБитовая глубина : 16 битМетод сжатия : С потерямиРазмер потока : 330 Мбайт (15%)Выравнивание : Разделение по промежуткамПродолжительность промежутка : 46 мс. (1,10 видеокадр)Время предзагрузки промежутка : 500 мс.

Хеллбой II: Золотая армия / Hellboy II: The Golden Army

Год выпуска: 2008Страна: США, ГерманияЖанр: фантастика, фэнтези, боевик, приключенияПродолжительность: 01:59:41Перевод: Дубляж | ЛицензияСубтитры: Нет

Режиссер: Гильермо дель ТороПродюссер: Лоуренс Гордон, Ллойд Левин, Майк РичардсонСценарий: Гильермо дель Торо, Майк Миньола

Бюджет: $85 000 000Премьера в мире: 28 июня 2008

В ролях: Рон Перлман, Сэльма Блэр, Даг Джонс, Джон Александр, Джеймс Додд, Сет МакФарлейн, Люк Госс, Анна Уолтон, Джеффри Тэмбор, Джон Хёрт

Описание: После того как древнее перемирие между человечеством и тайным миром было нарушено, на Земле вот-вот разверзнется ад. Безжалостный лидер, вхожий в оба мира, бросает вызов своей крови и пробуждает на свет неодолимую армию чудовищ.Настало время самому Хэллбою сразиться с беспощадным диктатором и его воинами. Вместе со своей пополняющей ряды командой «Бюро Паранормальных Исследований и Развития» он будет бороздить границы двух миров — нашего и скрытого, где самые невероятные существа обретают плоть. Хэллбою, порожденному обоими мирами, но не принадлежащему ни одному из них, предстоит выбирать между жизнью, которую он знает, и неизвестностью новой судьбы...

Качество: HDRip | BDRip 720pФормат: AVIВидео кодек: XviDАудио кодек: AC3Видео: 704x384 (1.83:1), 23.976 fps, XviD build 50 ~2206 kbps avg, 0.34 bit/pixelАудио: 48 kHz, AC3 Dolby Digital, 3/2 (L,C,R,l,r) + LFE ch, ~384 kbps

Автор рипа: Dean24 |

ОбщееПолное имя : D:\Мои документы\Фильмы\Сайт\Hellboy.Dilogy\Hellboy.II.The.Golden.Army.HDRip.aviФормат : AVIФормат/Информация : Audio Video InterleaveПрофиль формата : OpenDMLРазмер файла : 2,17 ГбайтПродолжительность : 1 ч. 59 м.Общий поток : 2597 Кбит/секПрограмма кодирования : VirtualDubMod 1.5.10.3 | www.virtualdub-fr.org || (build 2550/release)Библиотека кодирования : VirtualDubMod build 2550/release

ВидеоИдентификатор : 0Формат : MPEG-4 VisualПрофиль формата : Advanced [email protected]Параметр BVOP формата : 3Параметр QPel формата : НетПараметр GMC формата : Без точки переходаПараметр матрицы формата : Default (H.263)Идентификатор кодека : XVIDИдентификатор кодека/Подсказка : XviDПродолжительность : 1 ч. 59 м.Битрейт : 2202 Кбит/секШирина : 704 пикселяВысота : 384 пикселяСоотношение сторон : 1,85:1Частота кадров : 23,976 кадра/секЦветовое пространство : YUVСубдискретизация насыщенности : 4:2:0Битовая глубина : 8 битТип развёртки : ПрогрессивнаяМетод сжатия : С потерямиБит/(Пиксели*Кадры) : 0.340Размер потока : 1,84 Гбайт (85%)Библиотека кодирования : XviD 1.2.1 (UTC 2008-12-04)

АудиоИдентификатор : 1Формат : AC-3Формат/Информация : Audio Coding 3Расширение режима : CM (complete main)Параметр Endianness формата : BigИдентификатор кодека : 2000Продолжительность : 1 ч. 59 м.Вид битрейта : ПостоянныйБитрейт : 384 Кбит/секКаналы : 6 каналовРасположение каналов : Front: L C R, Side: L R, LFEЧастота : 48,0 КГцБитовая глубина : 16 битМетод сжатия : С потерямиРазмер потока : 329 Мбайт (15%)Выравнивание : Разделение по промежуткамПродолжительность промежутка : 42 мс. (1,00 видеокадр)Время предзагрузки промежутка : 500 мс.

Скачать Хеллбой: Дилогия через торрент http://i66.fastpic.ru/big/2015/1031/0f/fa0ca9aca0f4db3266d3cca726fced0f.png Скачать фильм Хеллбой: Дилогия через торрент бесплантно в хорошем качестве Описание: Вторая мировая война. Нацисты терпят одно сокрушительное поражение за другим. В результате исследования оккультных ритуалов в ... 2015-10-31 18:02 10 10 9

Loading...

Loading...

Рекламный пират

09-03-2017 01:39 Хеллбой: Дилогия Скачать торрент  

В топку, на раздаче никого нет.

Дорогой пользователь! Огромная просьба, поблагодарите релизера, оцените раздачу и оставьте свои комментарий, если Вы скачали Хеллбой: Дилогия через торрент бесплатно! Внесите свою лепту в развитие PiratBit!

Комментировать посты могут только пользователи прошедшие не сложную регистрацию

Хеллбой: Дилогия через торрент Скачать бесплатно Хеллбой: Дилогия Хеллбой: Дилогия скачать торрент Хеллбой: Дилогия смотреть онлайн Cкачать фильм Хеллбой: Дилогия бесплатно Хеллбой: Дилогия скачать торрент в хорошем качестве Хеллбой: Дилогия смотреть онлайн бесплатно в хорошем качестве

Вы не можете начинать темыВы не можете отвечать на сообщенияВы не можете редактировать свои сообщенияВы не можете удалять свои сообщенияВы не можете голосовать в опросахВы не можете прикреплять файлы к сообщениямВы можете скачивать файлы

Хеллбой II: Золотая армия 2008

www.kinovit.net

Название: Хеллбой II: Золотая армия / Hellboy II: The Gоlden Аrmy (2008) BDRemux 1080p | Лицензия
Качество видео: BDRemux 1080p
Перевод: Профессиональный (дублированный), профессиональный (многоголосый закадровый)
Формат видео: MKV
Видео: MPEG-4 AVC Video / 20976 kbps / 1920x1080 / 23,976 fps
Аудио: Russian: DTS / 5.1 / 1536 kbps (Студия "Кравец")
Скачать

Загрузка начнется в течение 5 сек.

19.71 GB

Название: Хеллбой II: Золотая армия / Hellboy II: The Gоlden Аrmy (2008) HDRip от New-Team
Качество видео: HDRip [Исходник BDRip 1080p]
Перевод: Профессиональный (полное дублирование)
Формат видео: AVI
Видео: XviD 624x336 (1.86:1), 23.976 fps, XviD build 73 ~734 kbps avg, 0.15 bit/pixel
Аудио: MP3 48 kHz, MPEG Layer 3, 2 ch, ~128.00 kbps avg
Скачать

Загрузка начнется в течение 5 сек.

746.97 MB

Название: Хеллбой II: Золотая армия / Hellboy II: The Golden Army (2008) DVD9 | D
Качество видео: DVD9
Перевод: профессиональный (полное дублирование)
Видео: MPEG2 PAL 16:9 (720x576) VBR 6705 Kbps, 25.000 Kbps
Аудио: Dolby AC3, 6 ch, 48.0 KHz, 384 KbpsDTS 6 ch, 48.0 KHz, 755 Kbps
Скачать

Загрузка начнется в течение 5 сек.

6.92 GB

Название: Хеллбой II: Золотая армия / Hellboy II: The Golden Army (2008) HDRip | КПК | D | Лицензия
Качество видео: HDRip | КПК | Лицензия
Перевод: Профессиональный (полное дублирование) [лицензия]
Видео: h364 (AVC) AVC, 640x336 (1.874), 23.976 fps, 1 000 Kbps (0.194 bit/pixel)
Аудио: AAC LC, 48.0 KHz, 2 ch, 128 Kbps, CBR
Скачать

Загрузка начнется в течение 5 сек.

961.66 MB

Название: Хеллбой II: Золотая армия / Hellboy II: The Golden Army (2008) BDRip-AVC от olegek70 | D, P, A
Качество видео: BDRip-AVC (Blu-Ray Remux (1080р))
Перевод: Дублированный, профессиональный многоголосый, авторский одноголосый
Видео: MKV, H.264 MPEG-4 AVC, 3150 Кбит/с, 1024х552
Аудио: Русский (АС3, 6 ch, 448 Кбит/с), (АС3, 6 ch, 384 Кбит/с), английский (АС3, 6 ch, 448 Кбит/с), украинский (АС3, 6 ch, 384 Кбит/с)
Скачать

Загрузка начнется в течение 5 сек.

5.17 GB

Dilogy [2004-2008 BDRip 720p / 60 FPS Дубляж] скачать через торрент

piratbit.ru

Размер: 18.18 GB | Добавлен: 3 года 1 мес. назад | Торрент скачан:132 раза
Реклама Дарим 3000 рублей за регистрацию, не упусти свой шанс получить шикарный бонус!!!

03-09-2014 14:27 Хеллбой: Дилогия Скачать торрент  

Перед скачиванием обязательно проверьте Сэмплы на своем оборудовании.

Raven за помощ при создании релиза и обложек

Название: Хеллбой: Герой из пекла / HellboyОригинальное название: Хеллбой: Герой из пекла / HellboyГод выпуска: 2004Страна: СШАЖанр: фантастика, фэнтези, боевик, приключенияПродолжительность: 02:12:28Перевод: Дубляж + многогосный, закадровый на вставки (Киномания)Субтитры:Русские (Полные), английские (полные)Вид субтитров Вшитые, отключаемыеГлавы ЕстьРежиссер: Гильермо дель Торо / Guillermo del ToroВ ролях: Рон Перлман (Hellboy), Джон Хёрт (Trevor «Broom» Bruttenholm), Сэльма Блэр (Liz Sherman), Руперт Эванс (John Myers), Карел Роден (Grigori Rasputin), Джеффри Тэмбор (Tom Manning), Даг Джонс (Abe Sapien), Брайан Стил (Sammael), Ладислав Беран (Karl Ruprecht Kroenen), Бидди Ходсон (Ilsa Haupstein), Кори Джонсон (Agent Clay), Кевин Трэйнор (Young «Broom»)Описание: Вторая мировая война. Нацисты терпят одно сокрушительное поражение за другим. В результате исследования оккультных ритуалов в супер-секретной лаборатории ученым, работающим на фашистский режим, удается поднять из небытия Демона Ада, который должен помочь переломить ход войны.Но в научную лабораторию тайно проникает отряд союзников и поворачивает это мистическое и грозное оружие против нацистов. Однако никто из участников эксперимента и не предполагает, что врата потустороннего мира после открытия окажутся неподвластны людям, и им придется столкнуться с существами еще более опасными и непредсказуемыми, чем Демон Ада...Рейтингkinopoisk.ru: 7.109 (32 852)imdb.com: 6.80 (206 458)MPAA: PG-13 - Детям до 13 лет просмотр не желателенАвтор рипа:Tiberiumsun69 Качество: BDRip 720p / 60 FPSФормат: MKVВидео кодек: AVCАудио кодек:AC3Видео: AVC, 1280x696, 9479 kbps, 59,940 fpsАудио №1: русский / AC3 / 5.1 / 48 kHz / 448 kbps / 16 bit |Дубляж + многогосный, закадровый на вставки (Киномания)| Аудио №2: русский / AC3 / 5.1 / 48 kHz / 448 kbps / 16 bit |Многоголосый закадровый Киномания| Аудио №3: английский / AC3 / 5.1 / 48 kHz / 640 kbps / 16 bit GeneralUnique ID : 219223739388032308440562206859048085973 (0xA4ECF4D7FE45DD80803298A0E83969D5)Complete name : A:\720p 60fps\Хеллбой 720p 60fps\Хеллбой 1 720p 60fps.mkvFormat : MatroskaFormat version : Version 4 / Version 2File size : 10.4 GiBDuration : 2h 12mnOverall bit rate : 11.2 MbpsEncoded date : UTC 2014-09-01 22:17:54Writing application : mkvmerge v6.9.1 ('Blue Panther') 64bit built on Apr 18 2014 18:23:38Writing library : libebml v1.3.0 + libmatroska v1.4.1

VideoID : 1Format : AVCFormat/Info : Advanced Video CodecFormat profile : [email protected] settings, CABAC : YesFormat settings, ReFrames : 9 framesCodec ID : V_MPEG4/ISO/AVCDuration : 2h 12mnBit rate : 9 479 KbpsWidth : 1 280 pixelsHeight : 696 pixelsDisplay aspect ratio : 16:9Frame rate : 59.940 fpsColor space : YUVChroma subsampling : 4:2:0Bit depth : 8 bitsScan type : ProgressiveBits/(Pixel*Frame) : 0.178Stream size : 8.77 GiB (84%)Writing library : x264 core 133 r2334 a3ac64bEncoding settings : cabac=1 / ref=9 / deblock=1:-1:-1 / analyse=0x3:0 / me=umh / subme=9 / psy=1 / psy_rd=1.00:0.10 / mixed_ref=1 / me_range=42 / chroma_me=0 / trellis=2 / 8x8dct=1 / cqm=0 / deadzone=21,11 / fast_pskip=0 / chroma_qp_offset=-3 / threads=12 / lookahead_threads=1 / sliced_threads=0 / nr=0 / decimate=0 / interlaced=0 / bluray_compat=0 / constrained_intra=0 / bframes=6 / b_pyramid=2 / b_adapt=2 / b_bias=0 / direct=1 / weightb=1 / open_gop=0 / weightp=2 / keyint=594 / keyint_min=59 / scenecut=40 / intra_refresh=0 / rc=crf / mbtree=0 / crf=15.0 / qcomp=0.60 / qpmin=0 / qpmax=69 / qpstep=4 / ip_ratio=1.40 / pb_ratio=1.30 / aq=0Language : EnglishDefault : YesForced : No

Audio #1ID : 2Format : AC-3Format/Info : Audio Coding 3Mode extension : CM (complete main)Codec ID : A_AC3Duration : 2h 12mnBit rate mode : ConstantBit rate : 448 KbpsChannel(s) : 6 channelsChannel positions : Front: L C R, Side: L R, LFESampling rate : 48.0 KHzBit depth : 16 bitsCompression mode : LossyStream size : 425 MiB (4%)Title : Дубляж со вставкамиLanguage : RussianDefault : YesForced : No

Audio #2ID : 3Format : AC-3Format/Info : Audio Coding 3Mode extension : CM (complete main)Codec ID : A_AC3Duration : 2h 12mnBit rate mode : ConstantBit rate : 448 KbpsChannel(s) : 6 channelsChannel positions : Front: L C R, Side: L R, LFESampling rate : 48.0 KHzBit depth : 16 bitsCompression mode : LossyStream size : 425 MiB (4%)Title : Многоголосный закадровый КиноманияLanguage : RussianDefault : NoForced : No

Audio #3ID : 6Format : AC-3Format/Info : Audio Coding 3Mode extension : CM (complete main)Codec ID : A_AC3Duration : 2h 12mnBit rate mode : ConstantBit rate : 640 KbpsChannel(s) : 6 channelsChannel positions : Front: L C R, Side: L R, LFESampling rate : 48.0 KHzBit depth : 16 bitsCompression mode : LossyStream size : 606 MiB (6%)Title : ОригиналLanguage : EnglishDefault : NoForced : No

Text #1ID : 4Format : UTF-8Codec ID : S_TEXT/UTF8Codec ID/Info : UTF-8 Plain TextTitle : ПолныеLanguage : RussianDefault : NoForced : No

Text #2ID : 5Format : UTF-8Codec ID : S_TEXT/UTF8Codec ID/Info : UTF-8 Plain TextTitle : ПолныеLanguage : EnglishDefault : NoForced : No

Menu00:00:00.000 : en:Chapter 100:06:42.902 : en:Chapter 200:14:38.252 : en:Chapter 300:22:50.035 : en:Chapter 400:31:06.906 : en:Chapter 500:40:09.156 : en:Chapter 600:47:42.067 : en:Chapter 700:53:32.959 : en:Chapter 800:58:40.433 : en:Chapter 901:03:57.667 : en:Chapter 1001:10:57.503 : en:Chapter 1101:18:40.465 : en:Chapter 1201:28:18.042 : en:Chapter 1301:34:50.184 : en:Chapter 1401:39:44.478 : en:Chapter 1501:48:09.524 : en:Chapter 16

Название: Хеллбой II: Золотая армия / Hellboy II: The Golden ArmyОригинальное название: Хеллбой II: Золотая армия / Hellboy II: The Golden ArmyГод выпуска: 2008Страна: США, ГерманияЖанр: фантастика, фэнтези, боевик, приключенияПродолжительность: 01:59:48Перевод: ДубляжСубтитры:Русские (Форсированные), русские (Полные), английские (полные)Вид субтитров Вшитые, отключаемыеГлавы ЕстьРежиссер: Гильермо дель Торо / Guillermo del ToroВ ролях: Рон Перлман (Hellboy), Сэльма Блэр (Liz Sherman), Даг Джонс (Abe Sapien / Chamberlain / Angel of Death), Джон Александр (Johann Krauss / Bethmoora Goblin), Джеймс Додд (Johann Krauss), Сет МакФарлейн (Johann, озвучка), Люк Госс (Prince Nuada), Анна Уолтон (Princess Nuala), Джеффри Тэмбор (Tom Manning), Джон Хёрт (Professor Broom), Брайан Стил (Wink / Cronie / Spice Shop Troll / Cathedral Head / Fragglewump), Эндрю Хефлер (Agent Flint)Описание: После того как древнее перемирие между человечеством и тайным миром было нарушено, на Земле вот-вот разверзнется ад. Безжалостный лидер, вхожий в оба мира, бросает вызов своей крови и пробуждает на свет неодолимую армию чудовищ. Настало время самому Хэллбою сразиться с беспощадным диктатором и его воинами. Вместе со своей пополняющей ряды командой «Бюро Паранормальных Исследований и Развития» он будет бороздить границы двух миров - нашего и скрытого, где самые невероятные существа обретают плоть. Хэллбою, порожденному обоими мирами, но не принадлежащему ни одному из них, предстоит выбирать между жизнью, которую он знает, и неизвестностью новой судьбы.Рейтингkinopoisk.ru: 7.191 (36 057)imdb.com: 7.10 (177 436)MPAA: PG-13 - Детям до 13 лет просмотр не желателенАвтор рипа:Tiberiumsun69 Качество: BDRip 720p / 60 FPSФормат: MKVВидео кодек: AVCАудио кодек:AC3Видео: AVC, 1280x696, 7187 kbps, 59,940 fpsАудио №1: русский / AC3 / 5.1 / 48 kHz / 640 kbps / 16 bit |Дубляж| Аудио №2: русский / AC3 / 5.1 / 48 kHz / 640 kbps / 16 bit |Многоголосный, закадровый Kravec| Аудио №3: английский / AC3 / 5.1 / 48 kHz / 640 kbps / 16 bit GeneralUnique ID : 181642101871286813149269692749820704526 (0x88A6FF0E88EE7B079DF23B976CE3B70E)Complete name : A:\720p 60fps\Хеллбой 720p 60fps\Хеллбой 2 720p 60fps.mkvFormat : MatroskaFormat version : Version 4 / Version 2File size : 7.78 GiBDuration : 1h 59mnOverall bit rate : 9 292 KbpsEncoded date : UTC 2014-09-01 23:05:20Writing application : mkvmerge v6.9.1 ('Blue Panther') 64bit built on Apr 18 2014 18:23:38Writing library : libebml v1.3.0 + libmatroska v1.4.1

VideoID : 1Format : AVCFormat/Info : Advanced Video CodecFormat profile : [email protected] settings, CABAC : YesFormat settings, ReFrames : 9 framesCodec ID : V_MPEG4/ISO/AVCDuration : 1h 59mnBit rate : 7 187 KbpsWidth : 1 280 pixelsHeight : 696 pixelsDisplay aspect ratio : 16:9Frame rate : 59.940 fpsColor space : YUVChroma subsampling : 4:2:0Bit depth : 8 bitsScan type : ProgressiveBits/(Pixel*Frame) : 0.135Stream size : 6.02 GiB (77%)Writing library : x264 core 133 r2334 a3ac64bEncoding settings : cabac=1 / ref=9 / deblock=1:-1:-1 / analyse=0x3:0 / me=umh / subme=9 / psy=1 / psy_rd=1.00:0.10 / mixed_ref=1 / me_range=42 / chroma_me=0 / trellis=2 / 8x8dct=1 / cqm=0 / deadzone=21,11 / fast_pskip=0 / chroma_qp_offset=-3 / threads=12 / lookahead_threads=1 / sliced_threads=0 / nr=0 / decimate=0 / interlaced=0 / bluray_compat=0 / constrained_intra=0 / bframes=6 / b_pyramid=2 / b_adapt=2 / b_bias=0 / direct=1 / weightb=1 / open_gop=0 / weightp=2 / keyint=594 / keyint_min=59 / scenecut=40 / intra_refresh=0 / rc=crf / mbtree=0 / crf=15.0 / qcomp=0.60 / qpmin=0 / qpmax=69 / qpstep=4 / ip_ratio=1.40 / pb_ratio=1.30 / aq=0Language : EnglishDefault : YesForced : No

Audio #1ID : 2Format : AC-3Format/Info : Audio Coding 3Mode extension : CM (complete main)Codec ID : A_AC3Duration : 1h 59mnBit rate mode : ConstantBit rate : 640 KbpsChannel(s) : 6 channelsChannel positions : Front: L C R, Side: L R, LFESampling rate : 48.0 KHzBit depth : 16 bitsCompression mode : LossyStream size : 548 MiB (7%)Title : ДубляжLanguage : RussianDefault : YesForced : No

Audio #2ID : 3Format : AC-3Format/Info : Audio Coding 3Mode extension : CM (complete main)Codec ID : A_AC3Duration : 1h 59mnBit rate mode : ConstantBit rate : 640 KbpsChannel(s) : 6 channelsChannel positions : Front: L C R, Side: L R, LFESampling rate : 48.0 KHzBit depth : 16 bitsCompression mode : LossyStream size : 548 MiB (7%)Title : Многоголосный закадровый KravecLanguage : RussianDefault : NoForced : No

Audio #3ID : 4Format : AC-3Format/Info : Audio Coding 3Mode extension : CM (complete main)Codec ID : A_AC3Duration : 1h 59mnBit rate mode : ConstantBit rate : 640 KbpsChannel(s) : 6 channelsChannel positions : Front: L C R, Side: L R, LFESampling rate : 48.0 KHzBit depth : 16 bitsCompression mode : LossyStream size : 548 MiB (7%)Title : ОригиналLanguage : EnglishDefault : NoForced : No

Text #1ID : 5Format : UTF-8Codec ID : S_TEXT/UTF8Codec ID/Info : UTF-8 Plain TextTitle : ФорсированныеLanguage : RussianDefault : YesForced : No

Text #2ID : 6Format : UTF-8Codec ID : S_TEXT/UTF8Codec ID/Info : UTF-8 Plain TextTitle : ПолныеLanguage : RussianDefault : NoForced : No

Text #3ID : 7Format : UTF-8Codec ID : S_TEXT/UTF8Codec ID/Info : UTF-8 Plain TextTitle : ПолныеLanguage : EnglishDefault : NoForced : No

Menu00:00:00.000 : en:Ancient Truce00:07:00.044 : en:Fear the Dark00:11:48.874 : en:Top Secret00:17:46.440 : en:World, Here I Come00:26:36.970 : en:You Had No Right00:29:57.921 : en:The Good, the Bad & the Worst00:34:45.875 : en:A Nice Open Face00:38:34.979 : en:The True Nature of Things00:44:28.374 : en:The Troll Market00:48:22.399 : en:Delicate Situation00:55:07.262 : en:A Forest God00:59:15.760 : en:One of Us01:05:38.434 : en:Fatal Flaw01:12:58.123 : en:Fallen for the Princess01:16:10.065 : en:He's Here01:21:59.915 : en:Running Out of Time01:26:19.507 : en:Reason to Live01:35:34.395 : en:The Army Awakens01:42:08.789 : en:A Challenge01:51:53.915 : en:End Titles

Просьба к заливающим на другие сайты "Подписывайте пожалуйста автора рипа Tiberiumsun69" Скачать Хеллбой: Дилогия через торрент http://i.imgur.com/kZuiO7M.png Скачать фильм Хеллбой: Дилогия через торрент бесплантно в хорошем качестве Описание: Вторая мировая война. Нацисты терпят одно сокрушительное поражение за другим. В результате исследования оккультных ритуалов в ... 2014-09-03 14:27 10 10 13

Loading...

Loading...

Рекламный пират

03-09-2014 14:35 Хеллбой: Дилогия Скачать торрент  

Tiberiumsun69, спасибо за труд))))

03-09-2014 14:40 Хеллбой: Дилогия Скачать торрент  

Серёжк@ писал(а):

Tiberiumsun69, спасибо за труд))))

Приятного просмотра. :film:

03-09-2014 17:30 Хеллбой: Дилогия Скачать торрент  

сделайте войну миров 2005 с кру3ом в 720 р

06-09-2014 02:03 Хеллбой: Дилогия Скачать торрент  

hydoy86 писал(а):

сделайте войну миров 2005 с кру3ом в 720 р

Вам в стол заказовЗа релиз очень спасибо

Дорогой пользователь! Огромная просьба, поблагодарите релизера, оцените раздачу и оставьте свои комментарий, если Вы скачали Хеллбой: Дилогия через торрент бесплатно! Внесите свою лепту в развитие PiratBit!

Комментировать посты могут только пользователи прошедшие не сложную регистрацию

Хеллбой: Дилогия через торрент Скачать бесплатно Хеллбой: Дилогия Хеллбой: Дилогия скачать торрент Хеллбой: Дилогия смотреть онлайн Cкачать фильм Хеллбой: Дилогия бесплатно Хеллбой: Дилогия скачать торрент в хорошем качестве Хеллбой: Дилогия смотреть онлайн бесплатно в хорошем качестве

Вы не можете начинать темыВы не можете отвечать на сообщенияВы не можете редактировать свои сообщенияВы не можете удалять свои сообщенияВы не можете голосовать в опросахВы не можете прикреплять файлы к сообщениямВы можете скачивать файлы

Обсуждение Фильмов - Хеллбой: Дилогия

Фильмы: Хеллбой: Дилогия / Hellboy: Dilogy (2004) Подробнее

Вторая мировая война движется к своему завершению, фашисты безнадежно проигрывают, оставляя под напором союзных войск один город за другим. Чтобы переломить ход войны фашисты решаются на отчаянный шаг: в секретной лаборатории, занимающейся демонологией, ученые открывают врата в потусторонний мир и призывают Демона Ада, который должен встать на сторону фашистов и изменить весь ход войны. Но планы фашистов рушатся, когда в лабораторию проникает отряд союзников, а Демон Ада вымещает свой гнев на самих фашистах, но самое страшное что врата так и остаются открытыми… © Fast-Torrent.ru

Evil9 139

Возраст:36 Мужской

Сообщений: 252

Надо пересмотреть,вторую я вообще полностью не видел.Так что спасибо за раздачу))

GUGENHAIM 5 341

Возраст:45 не указан

Сообщений: 2961

Понравились обе части. Прекрасная экранизация комикса от неповторимого мастера страшных сказок для взрослых Гильермо Дель Торо. Очень интересно, остроумно и со вкусом!

ANDRON 39 829

Возраст:7 Мужской

Сообщений: 6182

Помогите расширить коллекцию Анти-российского кино во благо

Мне больше первая часть понравилась , вторая слабже будет .

OleJkeee^^ 1

Возраст:26 Мужской

Сообщений: 3

я так и не могу понять Хеллбой это dc comics?или я что- путаю?

А Ты поставил мне минус в карму?! Немедленно ставь!

21 Апрель 2013 03:21 Классика несуразности - добрый черт

Лучшее приходит, когда всё разрушено...

Обе части этого жанра - ШЕДЕВРЫ)))) На них молиться надо . В общем 5+++++++++++ artem_ 141

Возраст:7 Мужской

Сообщений: 158 Отличные фильмы

Те, кто не помнят поражений, не узнают побед.

Обе серии хороши, для возраста до 21 года потянет.

Не обращай внимания на то, как к тебе относятся люди – обращай внимание на то, как ты относишься к ним.

John_A 166

Возраст:217 не указан

Сообщений: 310

Хорошие фильмы.Яркая, стильная, динамичная сказка с небанальным сюжетом. И актеры молодцы.Подходит для праздничного просмотра - с целью поднятия настроения.

Отличная фантастикаОбе части интересные,советую посмотретьОт меня5+

Лучшая работа - это высокооплачиваемое хобби.

KEN-JI 603

Возраст:31 Мужской

Сообщений: 1484

Один из лучших комиксов.

☼Эволюция всегда выигрывает☼

Освежил в памяти и добавил оба фильма в коллекцию. Хорошая фантастика.

Top Secret 237

Возраст:12 Мужской

Сообщений: 1156

TOP SECRET

Одна из лучших экранизаций комиксов согласен в коллекцию и 5 звёзд.

Осторожно - спойлер!

РАМ ЦЗЫ "Нет пути" или хрен вам, духовно продвинутые Посвящяется всем затpаханным сyществам этого миpа, пpебывающим в поиске того, чего они никогда не теpяли! Рам Цзы достyпен любомy ypовню непонимания!

The Lawyer

Возраст:217 не указан

Сообщений: 982

Очень понравилась 2 часть.

sem1980 2660

Возраст:37 не указан

Сообщений: 2765

Отличный фэнтезийный кинокомикс, ждем 3 часть! 5 из 5

navodri 9

Возраст:217 не указан

Сообщений: 134

sem1980 пишет:

Отличный фэнтезийный кинокомикс, ждем 3 часть! 5 из 5 А кто сказал, что будет 3 часть? Делторыч? NO Ar-Fo 2

Возраст:33 Мужской

Сообщений: 359

Да будь ты человеком! Убери мышку от кармы. Она не твоя...

Мог бы оказаться проходным и не впечатляющим, но чудо случилось!

p.s. обе части прекрасны, все персонажи интересны. только+

BADSMILE 1373

Возраст:28 Мужской

Сообщений: 1737

все будет гуд)

16 Апрель 2015 02:31

Хорошая коллекция

смотрите фильмы и радуйтесь жизни))) Лучок 72

Возраст:39 Мужской

Сообщений: 239

Слушайте меня и радио

Зачётный фильм . в коллекцию!

Есть чёо

Вы не можете оставлять больше 10 комментариев в сутки!

detskiy.fast-torrent.ru


Смотрите также