Скачать господин никто через торрент бесплатно в хорошем качестве


Скачать фильм Господин Никто через торрент в хорошем качестве бесплатно HDRip

piratbit.ru

Размер: 1.37 GB | Добавлен: 7 лет 3 мес. назад | Торрент скачан:313 раз
Реклама Дарим 3000 рублей за регистрацию, не упусти свой шанс получить шикарный бонус!!!

25-07-2010 19:59 Господин Никто Скачать торрент  

Господин Никто / Mr. Nobody Год выпуска: 2009Страна: Германия, Канада, Франция, БельгияЖанр: фантастика, фэнтези, мелодрама, драмаПродолжительность: 138 мин.Озвучивание: Профессиональное (многоголосое) [лицензия]

Режиссер: Жако Ван ДормельПродюссер: Жан-Ив Асселин, Натали Гастальдо, Марк ГиллСценарий: Жако Ван Дормель

Бюджет: $47 000 000Премьера в мире: 12 сентября 2009

Мировой рейтинг IMDB 7.60 (3 347)

В ролях: Джаред Лето, Диана Крюгер, Сара Полли, Риз Айфэнс, Джуно Тэмпл, Наташа Литтл, Дэниэл Мэйз, Бен Мэнсфилд, Николас Бивини, Лоран Капеллуто, Киара Казелли, Кристель Корниль, Дидье Де Нек, Тедд Диллон, Серж Ларивьер, Лин Дан Пам, Клэр Стоун

Описание: Проснувшийся немощным стариком Немо Никто оказывается последним смертным в гротескном будущем. Все люди уже давно бессмертны и с удовольствием наблюдают за телешоу, где главная звезда  дряхлый и безумный старик Немо, доживающий свои последние дни. Накануне конца к нему приходит журналист, и Немой рассказывает ему свою историю перескакивая из одной жизни в другую, параллельную, несколько раз за рассказ успев умереть.

Примечание: EXTENDED версия! Отсутствует около 12 минут перевода!

Качество: HDRipФормат: AVIВидео кодек: XviDАудио кодек: AC3Видео: XVID 640x272 24.00fps 1092KbpsАудио: AC3 48000Hz stereo 160Kbps

Скачать Господин Никто через торрент http://piratbit.in.ua/202731faa8d96786cabbd50a4ca5cb82.jpg Скачать фильм Господин Никто через торрент бесплантно в хорошем качестве Описание: Проснувшийся немощным стариком Немо Никто оказывается последним смертным в гротескном будущем. Все люди уже давно бессмертны и с ... 2010-07-25 19:59 9 10 1

Loading...

Loading...

Последний раз редактировалось: aleksander2009 (2010-07-25 23:00), всего редактировалось 4 раз(а)

Рекламный пират

25-07-2010 20:04 Господин Никто Скачать торрент  

хороший фильм

25-07-2010 20:04 Господин Никто Скачать торрент  

шикарный фильм

25-07-2010 21:32 Господин Никто Скачать торрент  

раздача дооформлена

25-07-2010 21:52 Господин Никто Скачать торрент  

aleksander2009 писал(а):

раздача дооформлена

Цитата:

Примечание: EXTENDED версия! Отсутствует около 12 минут перевода!

?

aleksander2009 писал(а):

Аудио кодек: MP3 Аудио: AC3 48000Hz stereo 160Kbps

Как получить информацию по видео файлу?

aleksander2009 писал(а):

В ролях: Жако Ван ДормельВ ролях: Джаред Лето, Диана Крюгер, Сара Полли, Риз Айфэнс, Джуно Тэмпл, Наташа Литтл, Дэниэл Мэйз, Бен Мэнсфилд, Николас Бивини, Лоран Капеллуто, Киара Казелли, Кристель Корниль, Дидье Де Нек, Тедд Диллон, Серж Ларивьер, Лин Дан Пам, Клэр Стоун

лишнее

и Сэмпл перезалей

Цитата:

Файл с данным Id не найден.

26-07-2010 00:24 Господин Никто Скачать торрент  

29-07-2010 20:22 Господин Никто Скачать торрент  

Перевод не полный:(

30-07-2010 10:27 Господин Никто Скачать торрент  

Фильм хороший, смотрите, советую))

08-08-2010 09:36 Господин Никто Скачать торрент  

я не понимаю, зачем выкладывать расширенную версию - либо переводите доп. 12 минут, либо выкладывайте нормальную версию

нахера нужны эти непереведенные 12 минут, это бесит?

Pекламный агент PB

26-09-2010 20:51 Господин Никто Скачать торрент  

это очень больно!!!!!!!

11-12-2010 20:21 Господин Никто Скачать торрент  

Автору за раздачу спасибо. Фильм на любителя... подумать. И посмотреть. Последнее время такие фильмы не часто попадаются. Мне запомнился. Советую.

21-12-2010 04:53 Господин Никто Скачать торрент  

Шикарный фильм, редкость! высшая оценка (моя) один из 10ти лучших фильмов, что смотрел в жизни.

28-08-2015 16:25 Господин Никто Скачать торрент  

на раздачу плиз!!!!!!!!!!!!!!!!!!!! :hmmm

Дорогой пользователь! Огромная просьба, поблагодарите релизера, оцените раздачу и оставьте свои комментарий, если Вы скачали Господин Никто через торрент бесплатно! Внесите свою лепту в развитие PiratBit!

Комментировать посты могут только пользователи прошедшие не сложную регистрацию

Господин Никто через торрент Скачать бесплатно Господин Никто Господин Никто скачать торрент Господин Никто смотреть онлайн Cкачать фильм Господин Никто бесплатно Господин Никто скачать торрент в хорошем качестве Господин Никто смотреть онлайн бесплатно в хорошем качестве

Вы не можете начинать темыВы не можете отвечать на сообщенияВы не можете редактировать свои сообщенияВы не можете удалять свои сообщенияВы не можете голосовать в опросахВы не можете прикреплять файлы к сообщениямВы можете скачивать файлы

Скачать фильм Господин Никто (2009) через торрент

gig-torrent.net

25 декабря 2015 06:49 Господин Никто / Mr. Nobody (2009) HDRip-AVC | Расширенная версия | Лицензия .torrent   [Информация о файле (нажмите для просмотра)] Перевод: Профессиональный (многоголосый) Лицензия BD RUSКачество: HDRip-AVCФормат: MKVВидео: AVC, 900x384, ~950 kbps, 24 fpsЗвук: AC3, 6 ch, 384 KbpsСубтитры: русские (Forced), русские, английские 1,45 Gb 956 25
25 декабря 2015 06:49 Господин Никто / Mr. Nobody (2009) BDRip | Расширенная версия | Лицензия .torrent   [Информация о файле (нажмите для просмотра)] Перевод: Профессиональный (многоголосый) Лицензия BD RUS Кодек: XviD (AVI)Качество: BDRipВидео: XviD, 720x304, 1343 KbpsЗвук: Русский: AC3, 6 ch, 448 Kbps, английский: AC3, 2 ch, 192 KbpsСубтитры: Русские, английские, немецкие (внешние) 2,17 Gb 570 14
25 декабря 2015 06:49 Господин Никто / Mr. Nobody (2009) BDRip 720p от HELLYWOOD | Расширенная версия | Лицензия .torrent   [Информация о файле (нажмите для просмотра)] Перевод: Профессиональный (многоголосый) [лицензия BD RUS]Субтитры: русские (Forced), русские, английскиеКачество: BDRip 720pФормат: MKVВидео: AVC, 1280x546 (2.35:1), 4577 kbps, 24 fps, 0,273 bppАудио №1: AC3 / 5.1 / 48 kHz / 640 kbps / 16 bit| RUSАудио №2: AC3 / 5.1 / 48 kHz / 640 kbps / 16 bit| ENG 6,37 Gb 174 13
25 декабря 2015 06:49 Господин Никто / Mr. Nobody (2009) BDRip-AVC | iPhone | Extended Cut .torrent   [Информация о файле (нажмите для просмотра)] Перевод: Русский профессиональный многоголосый закадровый + вставки на непереведённые места - Авторский (acolith)Кодек: H.264Качество: BDRip-AVC 480p iPhoneВидео: 640x364 (852x364) at 23.976 fps, AVC at 1800 kbpsЗвук: 1: 48 kHz, AAC 2.0, 160 kbps - Русский профессиональный многоголосый закадровый + вставки Авторский (acolith) 3: 48 kHz, AAC 2.0, 180 kbps - АнглийскийСубтитры: отсутствуют 2,32 Gb 71 2
25 декабря 2015 06:49 Господин Никто / Mr. Nobody (2009) BDRip 720p от NNNB | Extended Cut .torrent   [Информация о файле (нажмите для просмотра)] Перевод: Профессиональный (многоголосый закадровый)Качество: BDRip 720p (исходник Blu-ray Remux)Видео: 1280x544, 4408 Кбит/сек, 24,000 кадр/сек, AVC, x264, [email protected], 2.35:1, 0.264 Бит/[Пиксели*Кадры], 2passАудио 1: AC-3, 448 Кбит/сек, 6 канала(ов), 48,0 КГц - Многоголосый закадровый / РусскийАудио 2: AC-3, 448 Кбит/сек, 6 канала(ов), 48,0 КГц - Оригинал / АнглийскийСубтитры: Русские | Полные, Английские | Полные 5,77 Gb 179 7
25 декабря 2015 06:48 Господин Никто / Mr. Nobody (2009) BDRip 1080p | Расширенная версия / Extended Cut .torrent   [Информация о файле (нажмите для просмотра)] Перевод: Профессиональный (многоголосый закадровый) + ОригиналКодек: x264Качество: BDRip 1080pВидео: 1920x816p, 6245 Kbps, 24.000 fpsАудио #1: AC-3, 6 ch, 448 kbps (Rus)Аудио #2: AC-3, 6 ch, 448 kbps (Eng)Субтитры: русские, английскиеВидео: Идентификатор : 1 Формат : AVC Формат/Информация : Advanced Video Codec Профиль формата : [email protected] Параметр CABAC формата : Да Параметр ReFrames формата : 5 кадров Идентификатор кодека : V_MPEG4/ISO/AVC Продолжительность : 2 ч. 35 м. Битрейт : 6245 Кбит/сек Ширина : 1920 пикселей Высота : 816 пикселей Соотношение сторон : 2,35:1 Режим частоты кадров : Постоянный Частота кадров : 24,000 кадра/сек Цветовое пространство : YUV Субдискретизация насыщенности : 4:2:0 Битовая глубина : 8 бит Тип развёртки : Прогрессивная Бит/(Пиксели*Кадры) : 0.166 Размер потока : 6,64 Гбайт (85%) Заголовок : Rip by Boriy Библиотека кодирования : x264 core 129 r2245 bc13772 Настройки программы : cabac=1 / ref=5 / deblock=1:0:0 / analyse=0x3:0x113 / me=umh / subme=10 / psy=1 / psy_rd=1.00:0.10 / mixed_ref=1 / me_range=32 / chroma_me=1 / trellis=2 / 8x8dct=1 / cqm=0 / deadzone=21,11 / fast_pskip=0 / chroma_qp_offset=-2 / threads=12 / lookahead_threads=2 / sliced_threads=0 / nr=0 / decimate=0 / interlaced=0 / bluray_compat=0 / constrained_intra=0 / bframes=5 / b_pyramid=2 / b_adapt=2 / b_bias=0 / direct=3 / weightb=1 / open_gop=0 / weightp=2 / keyint=240 / keyint_min=24 / scenecut=40 / intra_refresh=0 / rc=2pass / mbtree=0 / bitrate=6245 / ratetol=1.0 / qcomp=0.60 / qpmin=0 / qpmax=69 / qpstep=4 / cplxblur=20.0 / qblur=0.5 / ip_ratio=1.40 / pb_ratio=1.30 / aq=1:0.80 Язык : English Default : Да Forced : НетАудио #1: Идентификатор : 2 Формат : AC-3 Формат/Информация : Audio Coding 3 Расширение режима : CM (complete main) Параметр Endianness формата : Big Идентификатор кодека : A_AC3 Продолжительность : 2 ч. 35 м. Вид битрейта : Постоянный Битрейт : 448 Кбит/сек Каналы : 6 каналов Расположение каналов : Front: L C R, Side: L R, LFE Частота : 48,0 КГц Битовая глубина : 16 бит Метод сжатия : С потерями Размер потока : 499 Мбайт (6%) Заголовок : Профессиональный (многоголосый закадровый) Язык : Russian Default : Да Forced : НетАудио #2: Идентификатор : 3 Формат : AC-3 Формат/Информация : Audio Coding 3 Расширение режима : CM (complete main) Параметр Endianness формата : Big Идентификатор кодека : A_AC3 Продолжительность : 2 ч. 35 м. Вид битрейта : Постоянный Битрейт : 448 Кбит/сек Каналы : 6 каналов Расположение каналов : Front: L C R, Side: L R, LFE Частота : 48,0 КГц Битовая глубина : 16 бит Метод сжатия : С потерями Размер потока : 499 Мбайт (6%) Заголовок : Оригинал Язык : English Default : Нет Forced : Нет 7,76 Gb 271 6
25 декабря 2015 06:48 Господин Никто / Mr. Nobody (2009) BDRip | Расширенная версия / Extended Cut .torrent   [Информация о файле (нажмите для просмотра)] Перевод: Профессиональный (многоголосый закадровый)Кодек: XviD / AC3Качество: BDRipВидео: XviD, 720x304 (2.37:1), 24.000 fps, 1142 kbps, 0.22 bit/pixelЗвук: AC3, 48 kHz, 2/0 (L,R) ch, ~192 kbps 1,46 Gb 1646 26
25 декабря 2015 06:48 Господин Никто / Mr. Nobody (2009) DVDRip | КПК от Generalfilm .torrent   [Информация о файле (нажмите для просмотра)] Качество: DVDRip | КПКВидео: кодеккодек: x264,формат: mp4,размер кадра: 480x192, битрейт: 400 кб/сАудио: языкрусский, перевод: многоголосый закадровый, 559,41 Mb 84 7
25 декабря 2015 06:48 Господин Никто / Mr.Nobody (2009) DVD9 .torrent   [Информация о файле (нажмите для просмотра)] Перевод: Профессиональный многоголосыйКодек: MPEG2Качество: DVD9Видео: PAL 16:9 (720x576) VBR Средний битрейт 4585 KbpsЗвук: Русский (Dolby AC3, 6 ch, 448 Kbps), Aнглийский (Dolby AC3, 6 ch, 448 Kbps)Субтитры: Русские, Английские 7,88 Gb 5 4
25 декабря 2015 06:48 Господин Никто / Mr. Nobody [Extended Cut] (2009) BDRip-AVC от HQ-ViDEO .torrent   [Информация о файле (нажмите для просмотра)] Перевод: Русский профессиональный перевод + Оригинальная дорожкаКодек: MKV, H.264 codecКачество: BDRip-AVC (Исходник: Blu-Ray )Видео: 1096 x 468; 24 fps; 3 126 kbps; 0.25 bit/pixelЗвук #1: 48 kHz, AC3 Dolby Digital, 3/2 (L,C,R,l,r) + LFE ch, ~448.00 kbps avgЗвук #2: 48 kHz, AC3 Dolby Digital, 3/2 (L,C,R,l,r) + LFE ch, ~448.00 kbps avgСубтитры: Русские, Английские.Субтитры: Русские, Английские. 4,37 Gb 456 10
25 декабря 2015 06:48 Господин Никто / Mr. Nobody [Extended Cut] (2009) BDRip от HQ-ViDEO .torrent   [Информация о файле (нажмите для просмотра)] Перевод: Русский профессиональный перевод + Оригинальная дорожкаКодек: XviD, build 64 codecКачество: BDRip (Исходник: Blu-Ray)Видео: 720 x 304; 24 fps; 1895 kbps; 0.36 bit/pixelЗвук #1: 48 kHz, AC3 Dolby Digital, 3/2 (L,C,R,l,r) + LFE ch, ~384.00 kbps avgЗвук #2: 48 kHz, AC3 Dolby Digital, 3/2 (L,C,R,l,r) + LFE ch, ~384.00 kbps avgСубтитры: Русские, Английские. 2,91 Gb 848 23
25 декабря 2015 06:48 Господин Никто / Mr. Nobody [Расширенная версия / Extended Cut] (2009) BDRip от HELLYWOOD .torrent   [Информация о файле (нажмите для просмотра)] Перевод: Профессиональный (многоголосый, закадровый) + Оригинальная дорожка(отдельно)Субтитры: Русские (полные, форсированные)voronine, английские (внешние *.srt)Формат: AVIКачество: BDRip (источник / Blu-ray Disc /1080p)Видео: 720x304 (2.37:1), 24 fps, XviD build 63 ~2217 kbps avg, 0.42 bit/pixelАудио #1: 48 kHz, AC3 Dolby Digital, 3/2 (L,C,R,l,r) + LFE ch, ~448 kbps|MVO|Аудио #2: 48 kHz, AC3 Dolby Digital, 3/2 (L,C,R,l,r) + LFE ch, ~448 kbps|ENG| 3,39 Gb 16 4
25 декабря 2015 06:48 Господин Никто / Mr. Nobody [Extended] (2009) BDRip-AVC от HELLYWOOD .torrent   [Информация о файле (нажмите для просмотра)] Контейнер: MKVКачество: BDRip-AVCВидео: , 1040х444 (2,35:1) at 24 fps, ~2220 Kbps avgАудио#1: Russian: AAC-LC, 250 Kbps, 48 kHz, 6 channels[Многоголосый]Аудио#2: English: HE-AAC, 206 Kbps, 48 kHz, 6 channels[Оригинал]Субтитры#1: Russian 2,91 Gb 19 2
25 декабря 2015 06:48 Господин Никто / Mr. Nobody [Расширенная версия / Extended Cut] (2009) BDRip от HQCLUB .torrent   [Информация о файле (нажмите для просмотра)] Перевод: Профессиональный (многоголосый, закадровый) + Оригинал +Профессиональный (многоголосый, закадровый)Субтитры: Русские (форсированные, полные), английские (внешние *.srt)Формат: AVIКачество: BDRip (источник:Видео: 720x304 (2.37:1), 24 fps, XviD build 50 ~1898 kbps avg, 0.36 bit/pixelАудио #1: 48 kHz, AC3 Dolby Digital, 3/2 (L,C,R,l,r) + LFE ch, ~384.00 kbps avgАудио #2: 48 kHz, AC3 Dolby Digital, 3/2 (L,C,R,l,r) + LFE ch, ~384.00 kbps avg 2,91 Gb 81 5
25 декабря 2015 06:48 Господин Никто / Mr. Nobody (2009) BDRip 1080 | Extended Cut .torrent   [Информация о файле (нажмите для просмотра)] Перевод: Профессиональный (многоголосый, закадровый)Кодек: XviDКачество: BDRip 1080Видео: Video: 1920x1080 (1.78:1), 29.970 fps, XviD build 50 ~8005 kbps avg, 0.13 bit/pixelЗвук: Audio: 44.100 kHz, MPEG Layer 3, 2 ch, ~128.00 kbps avgСубтитры: Отсутствуют 8,85 Gb 39 6
25 декабря 2015 06:48 Господин Никто / Mr.Nobody (2009) DVD5 by Allep | Cжатый .torrent   [Информация о файле (нажмите для просмотра)] Перевод: Качество: DVD5. Переработанная и сжатая лицензия R5.Видео: PAL 16:9 () VBR (typical bitrates ~ 4 000 kbps)Аудио: 1. Russian (Dolby AC3, 6 ch) 448 kbps; 2. English (Dolby AC3, 6 ch) 448 kbpsСубтитры: РусскиеВидео: Идентификатор : 224 (0xE0) Формат : MPEG Video Версия формата : Version 2 Профайл формата : [email protected] Параметры матрицы формата : По умолчанию Продолжительность : 30 м. Вид битрейта : Переменный Битрейт : 4017 Кбит/сек Номинальный битрейт : 7771 Кбит/сек Ширина : 720 пикс. Высота : 576 пикс. Соотношение кадра : 16:9 Частота кадров : 25,000 кадр/сек Стандарт вещания : PAL Колориметрия : 4:2:0 Тип развёртки : Прогрессивная Порядок развёртки : Нижнее поле первое Бит/(Пиксели*Кадры) : 0.355 Размер потока : 791 Мегабайт (77%)Аудио #1: Идентификатор : 128 (0x80) Формат : AC-3 Формат/Информация : Audio Coding 3 Продолжительность : 30 м. Вид битрейта : Постоянный Битрейт : 448 Кбит/сек Канал(ы) : 6 канала(ов) Расположение каналов : Front: L C R, Surround: L R, LFE Частота : 48,0 КГц Задержка видео : -336 мс. Размер потока : 96,3 Мегабайт (9%)Аудио #2: Идентификатор : 129 (0x81) Формат : AC-3 Формат/Информация : Audio Coding 3 Продолжительность : 30 м. Вид битрейта : Постоянный Битрейт : 448 Кбит/сек Канал(ы) : 6 канала(ов) Расположение каналов : Front: L C R, Surround: L R, LFE Частота : 48,0 КГц Задержка видео : -336 мс. Размер потока : 96,3 Мегабайт (9%) 4,37 Gb 1 1

Скачать фильм Господин Никто через торрент в хорошем качестве бесплатно HDRip

piratbit.ru

Размер: 2.05 GB | Добавлен: 6 лет 9 мес. назад | Торрент скачан:164 раза
Реклама Дарим 3000 рублей за регистрацию, не упусти свой шанс получить шикарный бонус!!!

26-01-2011 13:00 Господин Никто Скачать торрент  

Господин Никто / Mr. Nobody Год выпуска: 2009Страна: Германия, Канада, Франция, БельгияЖанр: фантастика, фэнтези, драма, мелодрамаПродолжительность: 138 мин.Перевод: Профессиональный (многоголосый, закадровый)Тип релиза: ЛицензияРежиссер: Жако Ван ДормельПродюссер: Жан-Ив Асселин, Дэниэл Марке, Марко МелицСценарий: Жако Ван ДормельБюджет: $47 000 000Мировой рейтинг IMDB 7.70 (11 942) В ролях: Джаред Лето, Диана Крюгер, Сара Полли, Риз Айфэнс, Джуно Тэмпл, Наташа Литтл, Дэниэл Мэйз, Бен Мэнсфилд, Николас Бивини, Лоран Капеллуто, Киара Казелли, Кристель Корниль, Дидье Де Нек, Тедд Диллон, Серж Ларивьер, Лин Дан Пам, Клэр СтоунОписание: Проснувшийся немощным стариком Немо Никто оказывается последним смертным в гротескном будущем. Все люди уже давно бессмертны и с удовольствием наблюдают за телешоу, где главная звезда — дряхлый и безумный старик Немо, доживающий свои последние дни. Накануне конца к нему приходит журналист, и Немо рассказывает ему свою историю перескакивая из одной жизни в другую, параллельную, несколько раз за рассказ успев умереть.Доп. информация: Примечание: EXTENDED версия! Полный перевод с лицензии!Качество: HDRipФормат: AVIВидео кодек: XviDАудио кодек: AC3Видео: 1434 kb/s, 720x304Аудио: 448 kb/s (6 ch)        Скачать Господин Никто через торрент http://piratbit.in.ua/9fc45ae3eee11f8d7b35c8bb7ab0e258.png Скачать фильм Господин Никто через торрент бесплантно в хорошем качестве Описание: Проснувшийся немощным стариком Немо Никто оказывается последним смертным в гротескном будущем. Все люди уже давно бессмертны и с ... 2011-01-26 13:00 10 10 3

Loading...

Loading...

Рекламный пират

Дорогой пользователь! Огромная просьба, поблагодарите релизера, оцените раздачу и оставьте свои комментарий, если Вы скачали Господин Никто через торрент бесплатно! Внесите свою лепту в развитие PiratBit!

Комментировать посты могут только пользователи прошедшие не сложную регистрацию

Господин Никто через торрент Скачать бесплатно Господин Никто Господин Никто скачать торрент Господин Никто смотреть онлайн Cкачать фильм Господин Никто бесплатно Господин Никто скачать торрент в хорошем качестве Господин Никто смотреть онлайн бесплатно в хорошем качестве

Вы не можете начинать темыВы не можете отвечать на сообщенияВы не можете редактировать свои сообщенияВы не можете удалять свои сообщенияВы не можете голосовать в опросахВы не можете прикреплять файлы к сообщениямВы можете скачивать файлы

Скачать фильм Господин Никто через торрент в хорошем качестве бесплатно DVDRip

piratbit.ru

Раздают: 1 [ 0 KB/s ]
Размер: 1.47 GB | Добавлен: 7 лет 4 мес. назад | Торрент скачан:2012 раз
Реклама Дарим 3000 рублей за регистрацию, не упусти свой шанс получить шикарный бонус!!!

09-06-2010 12:47 Господин Никто Скачать торрент  

Господин Никто / Mr. Nobody

Год выпуска: 2009Страна: Германия, Канада, Франция, БельгияЖанр: фантастика, фэнтези, мелодрама, драмаПродолжительность: 02:13:23Перевод: Профессиональный (многоголосый, закадровый)Тип релиза: Лицензия

Режиссер: Жако Ван Дормель

В ролях: Джаред Лето, Дайан Крюгер, Сара Полли, Лин Дэн Пэм, Рис Иванс, Тоби Регбо, Джуно Темпл, Клер Стоун, Томас Бирн, Одри Джакомини

Описание: Действие картины происходит в не слишком отдаленном будущем. Главный герой внезапно просыпается в 2092 году дряхлым стариком и понимает, что он является 120-летним последним смертным на планете, доживающим свой век среди счастливых бессмертных людей.

Качество: DVDRipФормат: AVIВидео кодек: XviDАудио кодек: AC3Видео: 720x304 (2.37:1), 25 fps, XviD build 50 ~1115 kbps avg, 0.20 bit/pixelАудио: 48 kHz, AC3 Dolby Digital, 3/2 (L,C,R,l,r) + LFE ch, ~448.00 kbps avg

Скачать Господин Никто через торрент http://piratbit.in.ua/807b362f518b768377d14d75e4d1991c.jpg Скачать фильм Господин Никто через торрент бесплантно в хорошем качестве Описание: Действие картины происходит в не слишком отдаленном будущем. Главный герой внезапно просыпается в 2092 году дряхлым стариком и ... 2010-06-09 12:47 9.8 10 14

Loading...

Loading...

Рекламный пират

09-06-2010 14:21 Господин Никто Скачать торрент  

везде искал))) нажал спасибо, как скачаю отпишусь!)

09-06-2010 14:54 Господин Никто Скачать торрент  

Награды:4 победы и 3 номинации

15-12-2010 08:27 Господин Никто Скачать торрент  

фильм-бред, зря потратила на него свое время((((

21-12-2010 04:52 Господин Никто Скачать торрент  

Шикарный фильм, редкость! высшая оценка (моя) один из 10ти лучших фильмов, что смотрел в жизни.

людям которые считают, что деревья всего лишь дерево с сучками (потому что им в детстве так обьяснили и расказали как дерево выглядит) смотреть бессмысленно.

Последний раз редактировалось: JIokki (2011-03-24 16:15), всего редактировалось 1 раз

24-03-2011 00:14 Господин Никто Скачать торрент  

Татияне рекомендую купить ручной тормоз,и каждое утро сниматься с него...

06-05-2011 20:47 Господин Никто Скачать торрент  

Я даже не знаю, что сказать, прошло уж месяца три, как я этот фильм посмотрел, а комментировать ... практически нечего, если коротко. Если коротко, смотреть надо, и Господь признает своих. А хочется как раз некоротко, без ручных тормозов;) и если никто не против, я таки себе это позволю после трех месяцев полного обалдения.

С одной стороны, это не то что фильм, а гигантский видеоклип, такая культура картинки в кадре, что хоть каждый кадр на стенку вешай, каждый кадр придуман и нарисован, прежде чем снят. Я не имею в виду обычные съёмочные раскадровки, тут всё было явно дотошнее и серьезнее. Таких фильмов в мире - по пальцам пересчитать.... из реального КИНО на ум приходит разве что Кесьлевский да Алан Паркер. Да ещё One From The Heart (От всего сердца) Копполы, 1982 года, хотя это скорее иронический мюзикл, чем серьезное кино. А более молодые постановщики, типа Маркуса Ниспела, большей частью происходят из бывших клипмейкеров - я это говорю с полным и большим уважением, но....об этом чуть позже.

Дело в том, что этот фильм никак не попадает ни в одно царство, ни в другое. При этом главный оператор, Кристоф Бокарн, конечно, опытный и классный профессионал, но ничем особо выдающимся не знаменит - оператор "под режиссера", а режиссёры разные. И вдруг становится понятно, на что этот полный подонок Жако ван Дормель потратил реально 13 лет своей жизни..... ведь предыдущий фильм он снял в 1996 году и с тех пор ничем не проявлялся нигде и никак. Вот сидел себе, писал и рисовал. И нарисовал. И написал, и нарисовал так, что убедил этим актеров и вообще всю группу, и отдача, конечно, просто невероятная.

Но есть две проблемы. Которые, собственно, и порождают "эффект ручного тормоза". Первая - сам визуальный язык. Мы всё чаще видим великолепные эффекты и необычные картины, но в этой новейшей традиции всегда (устоявшееся правило) присутствует очень большая динамика. Судя по всему, ван Дормель почуствовал, что за такой динамикой теряется целая культура, в которой статичная композиция имеет большее значение и может сказать больше и энергичнее, чем ворох бессвязных кадров. В каком-то смысле Mr.Nobody - прямой вызов укоренившейся "культуре MTV", которая....в общем, если на эту культурологическую тему захочется пообщаться, звоните) Кончилось это тем, что если пять минут видеоклипа мы в общем-то как-то в состоянии воспринимать, то два часа нарисованного видео - это очень сложно. Пока - сложно. Мозг человека всё ещё привычен к тому, что реальность убога и некрасива, а значит красивое нереально. В музее мы готовы это принять, в кино пока что нет - только в ограниченных дозах.

Вторая - манера разговора в целом. Одно из самых популярных словечек последних 15 лет - "короче". Мы готовы оборвать любого собеседника, лишь бы короче. Тоже не стану вдаваться в подробности, но ван Дормель тем и шокирует, что категорически отказывается быть "короче". Хотите понять, что сказал автор? Потерпите и дослушайте. И сама мысль о том, что надо потерпеть и дослушать, абсолютно неприемлема современному городскому человеку. Это глобальная проблема городской, урбанистической цивилизации. А фильм полностью построен в пику этой цивилизации, вразрез с темпами и ритмами банковских клерков, биржевых брокеров и метросексуалов. Хотите услышать - терпите и слушайте...и терпите не потому, что я ваш босс или спонсор, а потому, что мне есть что сказать. Слушайте из уважения к говорящему, кем бы он ни был. Согласитесь, это не самая популярная идея в столицах мира...

По этим двум причинам фильм смотреть, конечно, непросто. Иногда мучительно трудно. Иногда возникает впечатление, что итальянские неореалисты дорвались до современных цифровых технологий, а иногда - что Кубрик и Кларк встретились за ужином с Кольриджем. Наверное, это и есть прогресс. Поэтому, несмотря на все мучения зрителя - фильм получился.

Он получился и как зрелище, и как текст, и как череда невероятных, но убедительных событий, и как череда эмоциональных переживаний - от восторга до отчаяния и обратно, и так много раз. Это не просто отличная картина - это эпохальная картина. И как любую эпохальную картину, его очень, очень трудно смотреть.

Но поверьте мне, это того стоит. Главное, не надо спешить, это противопоказано для этого необычного кино. Если честно, его не стоило показывать в кинотеатрах, где нельзя сделать перерыв. Но дома, на DVD или с компьютера - совсем другое дело. Не спешите. Спешить некуда и незачем. Не получится от начала до конца - посмотрите в три приёма, я и сам так сделал в первый раз. Почувствуйте эту великолепную картинку. Почувствуйте прекрасную игру актеров, от первого до последнего человека в кадре. Почувствуйте текст и услышьте мысль за этим текстом. Попробуйте - не в шутку - применить эту мысль к себе. И я уверен, вы станете и мудрее, и лучше, сами того не заметив.

А посмотрев фильм от начала до конца, я теперь не представляю, как можно не смотреть его снова и снова))

И ещё. Буквально на днях умер - в Австралии - последний ветеран Первой мировой войны. Осталась ещё одна женщина, которая в те годы служила официанткой. Мы видим, как уходит поколение за поколением, но это, наверное, первый раз, когда мы точно, по именам, видим, что как минимум одного, ТОГО, поколения, больше нет. Всё. Точка. И на Земле что-то изменится из-за этого, не из-за смерти одного человека, а из-за этой точки в поколениях. Поймем ли мы, заметим ли, успеем ли оценить?

За раздачу ОГРОМНОЕ СПАСИБО. Низкий поклон.

Посмотрите этот фильм, пожалуйста. Хотя бы однажды.

Последний раз редактировалось: smikhas (2011-07-21 19:33), всего редактировалось 1 раз

20-07-2011 20:53 Господин Никто Скачать торрент  

Качаю....а smikhas......прочитав Ваш комментарий..у меня мурашки пробежали по спине.

13-10-2011 01:43 Господин Никто Скачать торрент  

Pекламный агент PB

07-11-2012 16:31 Господин Никто Скачать торрент  

Лично меня фильм зацепил, считаю такое и должно быть кино, которое даже может что-то изменить в твоей жизни...

Дорогой пользователь! Огромная просьба, поблагодарите релизера, оцените раздачу и оставьте свои комментарий, если Вы скачали Господин Никто через торрент бесплатно! Внесите свою лепту в развитие PiratBit!

Комментировать посты могут только пользователи прошедшие не сложную регистрацию

Господин Никто через торрент Скачать бесплатно Господин Никто Господин Никто скачать торрент Господин Никто смотреть онлайн Cкачать фильм Господин Никто бесплатно Господин Никто скачать торрент в хорошем качестве Господин Никто смотреть онлайн бесплатно в хорошем качестве

Вы не можете начинать темыВы не можете отвечать на сообщенияВы не можете редактировать свои сообщенияВы не можете удалять свои сообщенияВы не можете голосовать в опросахВы не можете прикреплять файлы к сообщениямВы можете скачивать файлы

Господин Никто 2009 - скачать бесплатно через торрент в хорошем качестве. Без регистрации

www.kinovit.net

Название: Господин Никто / Mr. Nobody (2009) HDRip от Scarabey | Расширенная версия
Качество видео: HDRip
Перевод: Профессиональный (многоголосый, закадровый)
Видео: 720x304 (2.37:1), 24 fps, XviD build 73 ~1552 kbps avg, 0.29 bit/pixel
Аудио: 48 kHz, AC3 Dolby Digital, 3/2 (L,C,R,l,r) + LFE ch, ~448.00 kbps avg
Скачать

Загрузка начнется в течение 5 сек.

2.18 GB

Название: Господин Никто / Mr. Nobody (2009) HDRip-AVC | Расширенная версия | Лицензия
Качество видео: HDRip-AVC
Перевод: Профессиональный (многоголосый) Лицензия BD RUS
Формат видео: MKV
Видео: AVC, 900x384, ~950 kbps, 24 fps
Аудио: AC3, 6 ch, 384 Kbps
Скачать

Загрузка начнется в течение 5 сек.

1.45 GB

Название: Господин Никто / Mr. Nobody (2009) BDRip | Расширенная версия | Лицензия
Качество видео: BDRip
Перевод: Профессиональный (многоголосый) Лицензия BD RUS
Видео: XviD (AVI) XviD, 720x304, 1343 Kbps
Аудио: Русский: AC3, 6 ch, 448 Kbps, английский: AC3, 2 ch, 192 Kbps
Скачать

Загрузка начнется в течение 5 сек.

2.17 GB

Название: Господин Никто / Mr. Nobody (2009) BDRip-AVC | iPhone | Extended Cut
Качество видео: BDRip-AVC 480p iPhone
Перевод: Русский профессиональный многоголосый закадровый + вставки на непереведённые места - Авторский (acolith)
Видео: H.264 640x364 (852x364) at 23.976 fps, AVC at 1800 kbps
Аудио: 1: 48 kHz, AAC 2.0, 160 kbps - Русский профессиональный многоголосый закадровый + вставки Авторский (acolith)
Скачать

Загрузка начнется в течение 5 сек.

2.32 GB

Название: Господин Никто / Mr. Nobody (2009) BDRip 720p | Extended Cut
Качество видео: BDRip 720p (исходник Blu-ray Remux)
Перевод: Профессиональный (многоголосый закадровый)
Видео: 1280x544, 4408 Кбит/сек, 24,000 кадр/сек, AVC, x264, [email protected], 2.35:1, 0.264 Бит/[Пиксели*Кадры], 2pass
Аудио: AC-3, 448 Кбит/сек, 6 канала(ов), 48,0 КГц - Многоголосый закадровый / РусскийAC-3, 448 Кбит/сек, 6 канала(ов), 48,0 КГц - Оригинал / Английский
Скачать

Загрузка начнется в течение 5 сек.

5.77 GB

Название: Господин Никто / Mr. Nobody [Расширенная версия / Extended Cut] (2009) BDRip 1080p
Качество видео: BDRip 1080p
Перевод: Профессиональный (многоголосый закадровый) + Оригинал
Видео: x264 1920x816p, 6245 Kbps, 24.000 fps
Аудио: AC-3, 6 ch, 448 kbps (Rus)AC-3, 6 ch, 448 kbps (Eng)
Скачать

Загрузка начнется в течение 5 сек.

7.76 GB

Название: Господин Никто / Mr. Nobody (2009) BDRip | Расширенная версия / Extended Cut
Качество видео: BDRip
Перевод: Профессиональный (многоголосый закадровый)
Видео: XviD / AC3 XviD, 720x304 (2.37:1), 24.000 fps, 1142 kbps, 0.22 bit/pixel
Аудио: AC3, 48 kHz, 2/0 (L,R) ch, ~192 kbps
Скачать

Загрузка начнется в течение 5 сек.

1.46 GB

Название: Господин Никто / Mr. Nobody (2009) DVDRip | КПК от Generalfilm
Качество видео: DVDRip | КПК
Видео: кодек: x264, формат: mp4, размер кадра: 480x192, битрейт: 400 кб/с
Аудио: язык: русский, перевод: многоголосый закадровый, кодек: AAC LC 2.0, битрейт: 100 кб/с
Скачать

Загрузка начнется в течение 5 сек.

559.41 MB

Название: Господин Никто / Mr.Nobody (2009) DVD9
Качество видео: DVD9
Перевод: Профессиональный многоголосый
Видео: MPEG2 PAL 16:9 (720x576) VBR Средний битрейт 4585 Kbps
Аудио: Русский (Dolby AC3, 6 ch, 448 Kbps), Aнглийский (Dolby AC3, 6 ch, 448 Kbps)
Скачать

Загрузка начнется в течение 5 сек.

7.88 GB

Название: Господин Никто / Mr. Nobody [Extended Cut] (2009) BDRip-AVC от HQ-ViDEO
Качество видео: BDRip-AVC (Исходник: Blu-Ray )
Перевод: Русский профессиональный перевод + Оригинальная дорожка
Видео: MKV, H.264 codec 1096 x 468; 24 fps; 3 126 kbps; 0.25 bit/pixel
Аудио: 48 kHz, AC3 Dolby Digital, 3/2 (L,C,R,l,r) + LFE ch, ~448.00 kbps avg48 kHz, AC3 Dolby Digital, 3/2 (L,C,R,l,r) + LFE ch, ~448.00 kbps avg
Скачать

Загрузка начнется в течение 5 сек.

4.37 GB

Название: Господин Никто / Mr. Nobody [Extended Cut] (2009) BDRip от HQ-ViDEO
Качество видео: BDRip (Исходник: Blu-Ray)
Перевод: Русский профессиональный перевод + Оригинальная дорожка
Видео: XviD, build 64 codec 720 x 304; 24 fps; 1895 kbps; 0.36 bit/pixel
Аудио: 48 kHz, AC3 Dolby Digital, 3/2 (L,C,R,l,r) + LFE ch, ~384.00 kbps avg48 kHz, AC3 Dolby Digital, 3/2 (L,C,R,l,r) + LFE ch, ~384.00 kbps avg
Скачать

Загрузка начнется в течение 5 сек.

2.91 GB

Скачать фильм Господин Никто через торрент в хорошем качестве бесплатно 720p от potroks

GeneralUnique ID                                : 229322157129402062540746618969815821849 (0xAC85D7475D8875EC85941F454A20AE19)Complete name                            : N:\Фантастика\Gospodin.Nikto.2014.EC.DUAL.BDRip.720p.-HELLYWOOD.mkvFormat                                   : MatroskaFormat version                           : Version 4 / Version 2File size                                : 6.37 GiBDuration                                 : 2h 35mnOverall bit rate                         : 5 859 KbpsMovie name                               : Mr. Nobody (2009) [Extended] - HELLYWOODEncoded date                             : UTC 2015-08-08 03:18:56Writing application                      : mkvmerge v5.9.0 ('On The Loose') built on Dec 15 2012 16:39:58Writing library                          : libebml v1.3.0 + libmatroska v1.4.0

VideoID                                       : 1Format                                   : AVCFormat/Info                              : Advanced Video CodecFormat profile                           : [email protected] settings, CABAC                   : YesFormat settings, ReFrames                : 9 framesCodec ID                                 : V_MPEG4/ISO/AVCDuration                                 : 2h 35mnBit rate                                 : 4 577 KbpsWidth                                    : 1 280 pixelsHeight                                   : 546 pixelsDisplay aspect ratio                     : 2.35:1Frame rate                               : 24.000 fpsColor space                              : YUVChroma subsampling                       : 4:2:0Bit depth                                : 8 bitsScan type                                : ProgressiveBits/(Pixel*Frame)                       : 0.273Stream size                              : 4.85 GiB (76%)Title                                    : potroksWriting library                          : x264 core 146 r2538 121396cEncoding settings                        : cabac=1 / ref=9 / deblock=1:-3:-3 / analyse=0x3:0x113 / me=umh / subme=11 / psy=1 / psy_rd=1.02:0.06 / mixed_ref=1 / me_range=48 / chroma_me=1 / trellis=2 / 8x8dct=1 / cqm=0 / deadzone=21,11 / fast_pskip=0 / chroma_qp_offset=-3 / threads=9 / lookahead_threads=2 / sliced_threads=0 / nr=0 / decimate=0 / interlaced=0 / bluray_compat=0 / constrained_intra=0 / bframes=10 / b_pyramid=2 / b_adapt=2 / b_bias=0 / direct=3 / weightb=1 / open_gop=0 / weightp=2 / keyint=250 / keyint_min=23 / scenecut=40 / intra_refresh=0 / rc_lookahead=60 / rc=2pass / mbtree=0 / bitrate=4577 / ratetol=1.0 / qcomp=0.70 / qpmin=0 / qpmax=69 / qpstep=4 / cplxblur=20.0 / qblur=0.5 / vbv_maxrate=14000 / vbv_bufsize=14000 / nal_hrd=none / filler=0 / ip_ratio=1.35 / pb_ratio=1.25 / aq=1:0.80Language                                 : EnglishDefault                                  : YesForced                                   : No

Audio #1ID                                       : 2Format                                   : AC-3Format/Info                              : Audio Coding 3Mode extension                           : CM (complete main)Codec ID                                 : A_AC3Duration                                 : 2h 35mnBit rate mode                            : ConstantBit rate                                 : 640 KbpsChannel(s)                               : 6 channelsChannel positions                        : Front: L C R, Side: L R, LFESampling rate                            : 48.0 KHzBit depth                                : 16 bitsCompression mode                         : LossyStream size                              : 712 MiB (11%)Title                                    : MVO | DD 5.1 @ 640 kbps - Blu-Ray RUSLanguage                                 : RussianDefault                                  : YesForced                                   : No

Audio #2ID                                       : 3Format                                   : AC-3Format/Info                              : Audio Coding 3Mode extension                           : CM (complete main)Codec ID                                 : A_AC3Duration                                 : 2h 35mnBit rate mode                            : ConstantBit rate                                 : 640 KbpsChannel(s)                               : 6 channelsChannel positions                        : Front: L C R, Side: L R, LFESampling rate                            : 48.0 KHzBit depth                                : 16 bitsCompression mode                         : LossyStream size                              : 712 MiB (11%)Title                                    : Original | DD 5.1 @ 640 kbpsLanguage                                 : EnglishDefault                                  : NoForced                                   : No

Text #1ID                                       : 4Format                                   : UTF-8Codec ID                                 : S_TEXT/UTF8Codec ID/Info                            : UTF-8 Plain TextTitle                                    : ForcedLanguage                                 : RussianDefault                                  : NoForced                                   : No

Text #2ID                                       : 5Format                                   : UTF-8Codec ID                                 : S_TEXT/UTF8Codec ID/Info                            : UTF-8 Plain TextLanguage                                 : RussianDefault                                  : NoForced                                   : No

Text #3ID                                       : 6Format                                   : UTF-8Codec ID                                 : S_TEXT/UTF8Codec ID/Info                            : UTF-8 Plain TextLanguage                                 : EnglishDefault                                  : NoForced                                   : No

Menu00:00:00.000                             : en:(01)00:00:00:00000:15:54.416                             : en:(02)00:15:54:41600:22:54.000                             : en:(03)00:22:54:00000:31:15.916                             : en:(04)00:31:15:91600:45:03.541                             : en:(05)00:45:03:54101:02:07.791                             : en:(06)01:02:07:79101:13:36.250                             : en:(07)01:13:36:25001:27:05.583                             : en:(08)01:27:05:58301:40:49.833                             : en:(09)01:40:49:83301:53:38.916                             : en:(10)01:53:38:91602:15:11.000                             : en:(11)02:15:11:00002:29:09.791                             : en:(12)02:29:09:79102:35:35.875                             : en:(13)02:35:35:875

piratbit.ru


Смотрите также