Скачать фильм настоящие через торрент бесплатно в хорошем качестве


Скачать Настоящие / Забытый (сериал, 2011) + торрент -

Коротко о сериале "Настоящие" - в портовом городе бандиты планируют захватить власть. Для реализации своего плана на выборах группировка выставляет своего кандидата в мэры. Их конкуренты, властные структуры, ведут к победе своего кандидата. Чтобы разрушить планы бандитов, они засылают в группировку шпиона, опытного опера Вестникова. У Вестникова кругом беда, уходит жена, в засаде погибают товарищи. И в гибели коллег, и в убийстве свидетеля подозревают именно его. Жизнь для Вестникова теряет смысл. Вестников и его коллега Гривин начинают собственное расследование - они полагают, что гибель их товарищей не случайна....

Добавлена 8 серия из 8.

Настоящие (сериал)

Фильм выпущен: 2011
Страна (кинокомпания): Россия
Режиссер: Евгений Звездаков
Сценарий фильма: -
Продюсер фильма: Юрий Сапронов, Андрей Смирнов, Дмитрий Месхиев
Оператор: Глеб Вавилов
Композитор: Павел Мальков
Художники: Владимир Южаков
Монтаж:
Жанр фильма: криминал, детектив
Премьера (мир):
премьера (Pоссия): 3 октября 2011
продолжительность46 мин
В главных ролях:
Кристина Кузьмина
Игорь Скляр
Сергей Юшкевич
Владимир Епифанцев
Сергей Маховиков
Светлана Антонова
Алексей Макаров
Александр Большаков
и другие ...

 

Другой сериал под названием Забытый (Облдрамтеатр) выходит на ОРТ 26 декабря

 

Скачать сериал Настоящие / Забытый- новинка кино 2011

Скачать файлы .torrent Настоящие (сериал)

на сайте Вы можете получить ссылку на торрент файлы или скачать сами торрент файлы, в которых находится информация о местонахождении фильмов, сериалов у пользователей.

В сериале "Настоящие" - бандиты выставляет своего кандидата в мэры, но Их конкуренты Чтобы разрушить планы бандитов засылают в группировку шпиона, опытного опера Вестникова



Параметры: 21.08.2015 (2011) WEB-DL 720p, 4,18 Гб

Формат: MKV, AVC, AAC, размер файла: 4,18 ГбВидео: 1280x720, AVC - ~ 1311 Кбит/сАудио: AAC, 2 канала, 192 Кбит/сПеревод (озвучивание): Оригинал

Параметры: 27.12.2011 DVDRip, 4,3 Гб -

Формат: DVDRip, AVI, XviD, AC3, размер файла: Видео: 704x400, MPEG-4 - ~1503 Кбит/сАудио: AC3, 2 канала, ~96 Кбит/сПеревод (озвучивание): Не требуется, cубтитры: отсутствуют

Настоящие, Забытый, новинка кино 2011, сериал бесплатно, торрент, криминал, детектив

 

hokit.ru

Сериал Настоящие / Забытый (2011) + торрент - скачать - Сериал Настоящие

Коротко о сериале "Настоящие" - в портовом городе бандиты планируют захватить власть. Для реализации своего плана на выборах группировка выставляет своего кандидата в мэры. Их конкуренты, властные структуры, ведут к победе своего кандидата. Чтобы разрушить планы бандитов, они засылают в группировку шпиона, опытного опера Вестникова. У Вестникова кругом беда, уходит жена, в засаде погибают товарищи. И в гибели коллег, и в убийстве свидетеля подозревают именно его. Жизнь для Вестникова теряет смысл. Вестников и его коллега Гривин начинают собственное расследование - они полагают, что гибель их товарищей не случайна....

Добавлена 8 серия из 8.

Настоящие (сериал)

Фильм выпущен: 2011
Страна (кинокомпания): Россия
Pежиссер: Евгений Звездаков
Сценарий фильма: -
Продюсер фильма: Юрий Сапронов, Андрей Смирнов, Дмитрий Месхиев
Оператор: Глеб Вавилов
Композитор: Павел Мальков
Художники: Владимир Южаков
Монтаж:
Жанр фильма: криминал, детектив
Премьера (мир):
премьера (Pоссия): 3 октября 2011
продолжительность46 мин
В главных ролях:
Кристина Кузьмина
Игорь Скляр
Сергей Юшкевич
Владимир Епифанцев
Сергей Маховиков
Светлана Антонова
Алексей Макаров
Александр Большаков
и другие ...

 

Другой сериал под названием Забытый (Облдрамтеатр) выходит на ОРТ 26 декабря

 

Скачать сериал Настоящие / Забытый- новинка кино 2011

В сериале "Настоящие" - бандиты выставляет своего кандидата в мэры, но Их конкуренты Чтобы разрушить планы бандитов засылают в группировку шпиона, опытного опера Вестникова

Скачать файлы .torrent Настоящие (сериал)

на сайте Вы можете получить ссылку на торрент файлы или скачать сами торрент файлы, в которых находится информация о местонахождении фильмов, сериалов у пользователей.

--> Всего 2

Параметры: 21.08.2015 (2011) WEB-DL 720p, 4,18 Гб

Формат: MKV, AVC, AAC, размер файла: 4,18 ГбВидео: 1280x720, AVC - ~ 1311 Кбит/сАудио: AAC, 2 канала, 192 Кбит/сПеревод (озвучивание): Оригинал

Параметры: 27.12.2011 DVDRip, 4,3 Гб -

Формат: DVDRip, AVI, XviD, AC3, размер файла: Видео: 704x400, MPEG-4 - ~1503 Кбит/сАудио: AC3, 2 канала, ~96 Кбит/сПеревод (озвучивание): Не требуется, cубтитры: отсутствуют

 

hotkit.ru

Скачать фильм Настоящая легенда (2010) через торрент

28 декабря 2015 13:32 Настоящая легенда / Su Qi-Er (2010) BDRip-AVC от HQCLUB .torrent   [Информация о файле (нажмите для просмотра)] Перевод 1: Профессиональный (полное дублирование)АкцентПеревод 2: Любительский (одноголосый, закадровый) АкираСубтитры: русские (полные), английские (полные)Формат: MKVКачество: BDRip-AVC (источник / Blu-ray Disc / 1080p)Видео: 1120x470 (2.40:1), 23.976 fps, MPEG-4 AVC, ~2726 kbps avg, 0.216 bit/pixelАудио #1: 48 kHz, AC3 Dolby Digital, 3/2 (L,C,R,l,r) + LFE ch, ~384 kbps avg (DUB)Аудио #2: 48 kHz, AC3 Dolby Digital, 2/0 (L,R) ch, ~192 kbps avg (VO.AKIRA)Аудио #3: 48 kHz, AC3 Dolby Digital, 3/2 (L,C,R,l,r) + LFE ch, ~384 kbps avg (CHI)Видео: Идентификатор : 1 Формат : AVC Формат/Информация : Advanced Video Codec Профиль формата : [email protected] Параметр CABAC формата : Да Параметр ReFrames формата : 15 кадров Идентификатор кодека : V_MPEG4/ISO/AVC Продолжительность : 1 ч. 54 м. Битрейт : 2726 Кбит/сек Ширина : 1120 пикселей Высота : 470 пикселей Соотношение сторон : 2,40:1 Режим частоты кадров : Постоянный Частота кадров : 24,000 кадра/сек Цветовое пространство : YUV Субдискретизация насыщенности : 4:2:0 Битовая глубина : 8 бит Тип развёртки : Прогрессивная Бит/(Пиксели*Кадры) : 0.216 Размер потока : 2,19 Гбайт (72%) Заголовок : Настоящая легенда / True Legend / Su Qi-Er (2010) BDRip-AVC by HQCLUB [Elheym] Библиотека кодирования : x264 core 144 r2525kMod 40bb568 Настройки программы : cabac=1 / ref=15 / deblock=1:-3:-2 / analyse=0x3:0x133 / me=umh / subme=11 / psy=1 / fade_compensate=0.00 / psy_rd=1.05:0.00 / mixed_ref=1 / me_range=32 / chroma_me=1 / trellis=2 / 8x8dct=1 / cqm=0 / deadzone=21,11 / fast_pskip=1 / chroma_qp_offset=-4 / threads=6 / lookahead_threads=1 / sliced_threads=0 / nr=0 / decimate=1 / interlaced=0 / bluray_compat=0 / constrained_intra=0 / fgo=0 / bframes=14 / b_pyramid=2 / b_adapt=2 / b_bias=0 / direct=3 / weightb=1 / open_gop=0 / weightp=2 / keyint=230 / keyint_min=23 / scenecut=40 / intra_refresh=0 / rc_lookahead=40 / rc=crf / mbtree=0 / crf=18.9000 / qcomp=0.70 / qpmin=0 / qpmax=69 / qpstep=4 / vbv_maxrate=50000 / vbv_bufsize=62500 / crf_max=0.0 / nal_hrd=none / filler=0 / ip_ratio=1.40 / pb_ratio=1.30 / aq=2:0.90 / zones=157805,165029,b=0.32 Язык : Chinese Default : Да Forced : НетАудио #1: Идентификатор : 2 Формат : AC-3 Формат/Информация : Audio Coding 3 Расширение режима : CM (complete main) Параметр Endianness формата : Big Идентификатор кодека : A_AC3 Продолжительность : 1 ч. 54 м. Вид битрейта : Постоянный Битрейт : 384 Кбит/сек Каналы : 6 каналов Расположение каналов : Front: L C R, Side: L R, LFE Частота : 48,0 КГц Битовая глубина : 16 бит Метод сжатия : С потерями Размер потока : 316 Мбайт (10%) Заголовок : АС3 5.1 @ 384 kbps - Dub Язык : Russian Default : Нет Forced : НетАудио #2: Идентификатор : 3 Формат : AC-3 Формат/Информация : Audio Coding 3 Расширение режима : CM (complete main) Параметр Endianness формата : Big Идентификатор кодека : A_AC3 Продолжительность : 1 ч. 54 м. Вид битрейта : Постоянный Битрейт : 192 Кбит/сек Каналы : 2 канала Расположение каналов : Front: L R Частота : 48,0 КГц Битовая глубина : 16 бит Метод сжатия : С потерями Размер потока : 158 Мбайт (5%) Заголовок : АС3 2.0 @ 192 kbps - VO, Akira Язык : Russian Default : Нет Forced : НетАудио #3: Идентификатор : 4 Формат : AC-3 Формат/Информация : Audio Coding 3 Расширение режима : CM (complete main) Параметр Endianness формата : Big Идентификатор кодека : A_AC3 Продолжительность : 1 ч. 54 м. Вид битрейта : Постоянный Битрейт : 384 Кбит/сек Каналы : 6 каналов Расположение каналов : Front: L C R, Side: L R, LFE Частота : 48,0 КГц Битовая глубина : 16 бит Метод сжатия : С потерями Размер потока : 316 Мбайт (10%) Заголовок : АС3 5.1 @ 384 kbps - Original Язык : Chinese Default : Нет Forced : Нет 3,02 Gb 11 1 28 декабря 2015 13:32 Настоящая легенда / Su Qi-Er (2010) BDRip | Лицензия .torrent   [Информация о файле (нажмите для просмотра)] Формат: AVI (XviD)Качество: BDRipВидео: 1782 Kbps, 720x304Звук: Russian / Chinese: AC3, 384 kb/s (6 ch) 2,05 Gb 66 13 28 декабря 2015 13:32 Настоящая легенда / Su Qi-Er (2010) BDRip 1080p .torrent   [Информация о файле (нажмите для просмотра)] Перевод: ДубляжКодек: h364Качество: BDRip 1080pВидео: 1920x816, 5062 Kbps, 23,976 fpsЗвук: 48 kHz, AC3, 6c, 384 kbpsСубтитры: Русские, АнглийскиеВидео: Идентификатор : 1 Формат : AVC Формат/Информация : Advanced Video Codec Профиль формата : [email protected] Параметр CABAC формата : Да Параметр ReFrames формата : 5 кадров Идентификатор кодека : V_MPEG4/ISO/AVC Продолжительность : 1 ч. 54 м. Битрейт : 5062 Кбит/сек Ширина : 1920 пикселей Высота : 816 пикселей Соотношение сторон : 2,35:1 Частота кадров : 23,976 кадра/сек Цветовое пространство : YUV Субдискретизация насыщенности : 4:2:0 Битовая глубина : 8 бит Тип развёртки : Прогрессивная Бит/(Пиксели*Кадры) : 0.135 Размер потока : 3,97 Гбайт (91%) Библиотека кодирования : x264 core 122 r2184 5c85e0a Настройки программы : cabac=1 / ref=5 / deblock=1:0:0 / analyse=0x3:0x133 / me=umh / subme=10 / psy=1 / psy_rd=1.00:0.10 / mixed_ref=1 / me_range=32 / chroma_me=1 / trellis=2 / 8x8dct=1 / cqm=0 / deadzone=21,11 / fast_pskip=0 / chroma_qp_offset=-3 / threads=6 / sliced_threads=0 / nr=0 / decimate=1 / interlaced=0 / bluray_compat=0 / constrained_intra=0 / bframes=6 / b_pyramid=2 / b_adapt=2 / b_bias=0 / direct=3 / weightb=1 / open_gop=0 / weightp=2 / keyint=240 / keyint_min=24 / scenecut=40 / intra_refresh=0 / rc_lookahead=60 / rc=2pass / mbtree=1 / bitrate=5062 / ratetol=1.0 / qcomp=0.65 / qpmin=0 / qpmax=69 / qpstep=4 / cplxblur=20.0 / qblur=0.5 / ip_ratio=1.40 / aq=1:1.00 Язык : English Default : Да Forced : НетАудио: Идентификатор : 2 Формат : AC-3 Формат/Информация : Audio Coding 3 Расширение режима : CM (complete main) Параметр Endianness формата : Big Идентификатор кодека : A_AC3 Продолжительность : 1 ч. 54 м. Вид битрейта : Постоянный Битрейт : 384 Кбит/сек Каналы : 6 каналов Расположение каналов : Front: L C R, Side: L R, LFE Частота : 48,0 КГц Битовая глубина : 16 бит Метод сжатия : С потерями Размер потока : 315 Мбайт (7%) Заголовок : Дубляж Язык : Russian Default : Да Forced : Нет 4,37 Gb 18 7 28 декабря 2015 13:32 Настоящая легенда / Su Qi-Er (2010) HDRip .torrent   [Информация о файле (нажмите для просмотра)] Перевод: ДублированныйКодек: AVI, XviD, MP3Качество: HDRipВидео: 640x272 (2.35:1), 23.976 fps, XviD build 50 ~773 kbps avg, 0.19 bit/pixelЗвук: 48 kHz, MPEG Layer 3, 2 ch, ~128.00 kbps avgСубтитры: Отсутствуют 747,66 Mb 2 4 28 декабря 2015 13:32 Настоящая легенда / Su Qi-Er (2010) BDRip от SMALL-RiP .torrent   [Информация о файле (нажмите для просмотра)] Перевод: Профессиональный (полное дублирование)Формат: AVI ///СОВМЕСТИМО С БЫТОВЫМИ ПЛЕЕРАМИ/// Размер 1/3 DVDВидео: 720x304, 1537 kb/sАудио: AC3, 384 kb/s (6 ch) 1,46 Gb 5 2 28 декабря 2015 13:32 Настоящая легенда / Su Qi-Er (2010) BDRip от HQ-ViDEO .torrent   [Информация о файле (нажмите для просмотра)] Субтитры: Русские, Английские 2,18 Gb 9 2 28 декабря 2015 13:32 Настоящая легенда / Su Qi-Er (2010) DVDRip .torrent   [Информация о файле (нажмите для просмотра)] Перевод: Авторский одноголосый (Акира)Качество: DVDRipВидео: XviD, 1509 Кбит/с, 704x288Аудио: AC3, 2 ch, 192 Кбит/с 1,37 Gb 13 5

gig-torrent.net

Скачать фильмы через торрент без регистрации

Просмотров: 6 071
Просмотров: 18 686
Просмотров: 22 009
Просмотров: 7 747
Просмотров: 9 916
Просмотров: 28 410
Бегущая от любви [1,2,3,4,5,6,7,8,9,10,11,12,13,14,15,16,17,18,19,20,21,22 серия] (26.10.2017)
Оригинальное название: Бегущая от любви [1,2,3,4,5,6,7,8,9,10,11,12,13,14,15,16,17,18,19,20,21,22 серия] (26.10.2017)Жанр: Новинки фильмовКомментариев: 0
Улица (1,2,3,4,5,6,7,8,9,10,11,12,13,14,15,16,17,18,19,20 серия) (26.10.2017)
Оригинальное название: Улица (1,2,3,4,5,6,7,8,9,10,11,12,13,14,15,16,17,18,19,20 серия) (26.10.2017)Жанр: Новинки фильмовКомментариев: 0
Гостиница [1,2,3,4,5,6,7,8,9,10,11,12,13,14 серия] (2017)
Оригинальное название: Гостиница [1,2,3,4,5,6,7,8,9,10,11,12,13,14 серия] (2017)Жанр: Новинки фильмовКомментариев: 0
Исчезнувшая (2017) 1,2,3,4,5,6,7,8,9,10,11,12,13,14,15,16 серия
Оригинальное название: Исчезнувшая (2017) 1,2,3,4,5,6,7,8,9,10,11,12,13,14,15,16 серияЖанр: Новинки фильмовКомментариев: 0
Бумеранг (2017) 1,2,3,4,5,6,7,8,9,10,11,12,13,14,15,16 серия
Оригинальное название: Бумеранг (2017) 1,2,3,4,5,6,7,8,9,10,11,12,13,14,15,16 серияЖанр: Новинки фильмовКомментариев: 0
Пес (3 сезон) 1,2,3,4,5,6,7,8,9,10,11,12,13,14 серия (26.10.2017)
Оригинальное название: Пес (3 сезон) 1,2,3,4,5,6,7,8,9,10,11,12,13,14 серия (26.10.2017)Жанр: Новинки фильмовКомментариев: 0
Ивановы-Ивановы (2017) 1,2,3,4,5,6,7,8,9,10,11,12,13,14 серия
Оригинальное название: Ивановы-Ивановы (2017) 1,2,3,4,5,6,7,8,9,10,11,12,13,14 серияЖанр: Новинки фильмовКомментариев: 0
Невский (2 сезон 1,2,3,4,5,6,7,8,9,10,11,12,13,14,15,16,17,18,19,20,21,22 серия) (26.10.2017)
Оригинальное название: Невский (2 сезон 1,2,3,4,5,6,7,8,9,10,11,12,13,14,15,16,17,18,19,20,21,22 серия) (26.10.2017)Жанр: Новинки фильмовКомментариев: 0
Молодежка 5 сезон (2017) 1,2,3,4,5,6,7,8,9,10,11,12,13,14,15,16,17,18,19,20,21,22,23,24,25 серия
Оригинальное название: Молодежка 5 сезон (2017) 1,2,3,4,5,6,7,8,9,10,11,12,13,14,15,16,17,18,19,20,21,22,23,24,25 серияЖанр: Новинки фильмовКомментариев: 0
Молодежка. Взрослая жизнь (5 сезон) 1,2,3,4,5,6,7,8,9,10,11,12,13,14,15,16,17,18,19,20,21,22,23,24,25 серия
Оригинальное название: Молодежка. Взрослая жизнь (5 сезон) 1,2,3,4,5,6,7,8,9,10,11,12,13,14,15,16,17,18,19,20,21,22,23,24,25 серияЖанр: Новинки фильмовКомментариев: 0
Оригинальное название: Физрук [4 сезон 1,2,3,4,5,6,7,8,9,10 серия] (26.10.2017)Жанр: Новинки фильмовКомментариев: 0
Случайные торренты
Просмотров: 418
Просмотров: 503
Просмотров: 1 020
Просмотров: 638
Просмотров: 1 067
Просмотров: 1 479
Просмотров: 1 171
Просмотров: 574
Просмотров: 523

mega-trek.net

Сериалы - скачать фильмы через торрент

Просмотров: 6 071
Просмотров: 18 686
Просмотров: 22 009
Просмотров: 7 747
Просмотров: 9 916
Просмотров: 28 410
Оригинальное название: Умерь свой энтузиазм (9 сезон) (2017) 1,2,3,4,5,6,7,8,9,10 серияЖанр: СериалыКомментариев: 0
Отважные (1 сезон) (2017) 1,2,3,4,5,6,7,8,9,10,11,12,13,14,15,16,17,18,19,20 серия
Оригинальное название: Отважные (1 сезон) (2017) 1,2,3,4,5,6,7,8,9,10,11,12,13,14,15,16,17,18,19,20 серияЖанр: СериалыКомментариев: 0
Хороший доктор (1 сезон) (2017) 1,2,3,4,5,6,7,8,9,10,11,12,13,14,15,16,17,18,19,20 серия
Оригинальное название: Хороший доктор (1 сезон) (2017) 1,2,3,4,5,6,7,8,9,10,11,12,13,14,15,16,17,18,19,20 серияЖанр: СериалыКомментариев: 0
Скорпион (4 сезон) (2017) 1,2,3,4,5,6,7,8,9,10,11,12,13,14,15,16,17,18,19,20 серия
Оригинальное название: Скорпион (4 сезон) (2017) 1,2,3,4,5,6,7,8,9,10,11,12,13,14,15,16,17,18,19,20 серияЖанр: СериалыКомментариев: 0
Люцифер (3 сезон) (2017) 1,2,3,4,5,6,7,8,9,10,11,12,13,14,15,16,17,18,19,20 серия
Оригинальное название: Люцифер (3 сезон) (2017) 1,2,3,4,5,6,7,8,9,10,11,12,13,14,15,16,17,18,19,20 серияЖанр: СериалыКомментариев: 0
Оригинальное название: Двойка (1 сезон) (2017) 1,2,3,4,5,6,7,8,9,10 серияЖанр: СериалыКомментариев: 0
Расследования Мердока (11 сезон) (2017) 1,2,3,4,5,6,7,8,9,10,11,12,13,14,15,16,17,18,19,20 серия
Оригинальное название: Расследования Мердока (11 сезон) (2017) 1,2,3,4,5,6,7,8,9,10,11,12,13,14,15,16,17,18,19,20 серияЖанр: СериалыКомментариев: 0
Супердевушка / Супергёрл (3 сезон) (2017) 1,2,3,4,5,6,7,8,9,10,11,12,13,14,15,16,17,18,19,20 серия
Оригинальное название: Супердевушка / Супергёрл (3 сезон) (2017) 1,2,3,4,5,6,7,8,9,10,11,12,13,14,15,16,17,18,19,20 серияЖанр: СериалыКомментариев: 0
Оригинальное название: Сосед всегда прав (1 сезон) (2017) 1,2,3,4,5,6,7,8,9,10 серияЖанр: СериалыКомментариев: 0
Оригинальное название: Одаренные (1 сезон) (2017) 1,2,3,4,5,6,7,8,9,10 серияЖанр: СериалыКомментариев: 0
Чикаго в огне / Пожарные Чикаго (6 сезон) (2017) 1,2,3,4,5,6,7,8,9,10,11,12,13,14,15,16,17,18,19,20 серия
Оригинальное название: Чикаго в огне / Пожарные Чикаго (6 сезон) (2017) 1,2,3,4,5,6,7,8,9,10,11,12,13,14,15,16,17,18,19,20 серияЖанр: СериалыКомментариев: 0
Оригинальное название: Припризнутые / Призраки / Паранормальное (1 сезон) (2017) 1,2,3,4,5,6,7,8,9,10 серияЖанр: СериалыКомментариев: 0
Оригинальное название: Хорошее поведение (2 сезон) (2017) 1,2,3,4,5,6,7,8,9,10 серияЖанр: СериалыКомментариев: 0
Оригинальное название: Виктория (2 сезон) (2017) 1,2,3,4,5,6,7,8,9,10 серияЖанр: СериалыКомментариев: 0
Легенды завтрашнего дня (3 сезон) (2017) 1,2,3,4,5,6,7,8,9,10,11,12,13,14,15,16,17,18,19,20 серия
Оригинальное название: Легенды завтрашнего дня (3 сезон) (2017) 1,2,3,4,5,6,7,8,9,10,11,12,13,14,15,16,17,18,19,20 серияЖанр: СериалыКомментариев: 0
Флэш (4 сезон) (2017) 1,2,3,4,5,6,7,8,9,10,11,12,13,14,15,16,17,18,19,20 серия
Оригинальное название: Флэш (4 сезон) (2017) 1,2,3,4,5,6,7,8,9,10,11,12,13,14,15,16,17,18,19,20 серияЖанр: СериалыКомментариев: 0
Оригинальное название: Американская история ужасов (7 сезон) (2017) 1,2,3,4,5,6,7,8,9,10 серияЖанр: СериалыКомментариев: 0
Оригинальное название: Достать коротышку (1 сезон) (2017) 1,2,3,4,5,6,7,8,9,10 серияЖанр: СериалыКомментариев: 0
Оригинальное название: Коллективный разум (1 сезон) (2017) 1,2,3,4,5,6,7,8,9,10 серияЖанр: СериалыКомментариев: 0
Оригинальное название: Вавилон-Берлин (1 сезон) (2017) 1,2,3,4,5,6,7,8,9,10 серияЖанр: СериалыКомментариев: 0
Случайные торренты
Просмотров: 491
Просмотров: 1 517
Просмотров: 520
Просмотров: 857
Просмотров: 786
Просмотров: 1 365
Просмотров: 2 094
Просмотров: 4 960
Просмотров: 749

mega-trek.net

Скачать фильм Настоящая МакКой (1993) через торрент

15 сентября 2016 07:14 Настоящая МакКой / The Real McCoy (1993) DVDRip-AVC | P, P2, A .torrent   [Информация о файле (нажмите для просмотра)] Перевод: - Профессиональный (многоголосный, закадровый) R5 - Профессиональный (многоголосный, закадровый) MVO DVD Group (Amalgama) - Профессиональный (двуголосый, закадровый) НТВ (Андрей Ярославцев и Людмила Гнилова) - Профессиональный (двуголосый, закадровый) TV Перец / РенТВ (Елена и Алексей Борзуновы) - Авторский (одноголосый, закадровый) Живов Юрий Викторович - Авторский (одноголосый, закадровый) Горчаков Василий Овидиевич - Авторский (одноголосый, закадровый) Гаврилов Андрей ЮрьевичСубтитры: Кодек: x264Качество: DVDRip-AVCВидео: 752x576 , 3500 kbps, 23,976 fpsАудио #1: AC-3, 6 ch, 448 kbps (Rus) - MVO R5Аудио #2: AC-3, 6 ch, 448 kbps (Rus) - MVO DVD Group (Amalgama)Аудио #3: AC-3, 2 ch, 192 kbps (Rus) - DVO НТВ (Андрей Ярославцев и Людмила Гнилова)Аудио #4: AC-3, 2 ch, 192 kbps (Rus) - DVO TV Перец / РенТВ (Елена и Алексей Борзуновы)Аудио #5: AC-3, 2 ch, 192 kbps (Rus) - AVO Живов Юрий ВикторовичАудио #6: AC-3, 2 ch, 192 kbps (Rus) - AVO Горчаков Василий ОвидиевичАудио #7: AC-3, 2 ch, 192 kbps (Rus) - AVO Гаврилов Андрей ЮрьевичАудио #8: AC-3, 6 ch, 448 kbps (Eng)Субтитры: Русские, АнглийскиеВидео: Идентификатор : 1 Формат : AVC Формат/Информация : Advanced Video Codec Профиль формата : [email protected] Параметр CABAC формата : Да Параметр ReFrames формата : 12 кадров Идентификатор кодека : V_MPEG4/ISO/AVC Продолжительность : 1 ч. 44 м. Битрейт : 3500 Кбит/сек Ширина : 752 пикселя Высота : 576 пикселей Соотношение сторон : 4:3 Режим частоты кадров : Постоянный Частота кадров : 23,976 кадра/сек Цветовое пространство : YUV Субдискретизация насыщенности : 4:2:0 Битовая глубина : 8 бит Тип развёртки : Прогрессивная Бит/(Пиксели*Кадры) : 0.337 Размер потока : 2,48 Гбайт (58%) Библиотека кодирования : x264 core 146 r2538 121396c Настройки программы : cabac=1 / ref=12 / deblock=1:-3:-3 / analyse=0x3:0x133 / me=umh / subme=11 / psy=1 / psy_rd=1.00:0.00 / mixed_ref=1 / me_range=32 / chroma_me=1 / trellis=2 / 8x8dct=1 / cqm=0 / deadzone=21,11 / fast_pskip=0 / chroma_qp_offset=-2 / threads=12 / lookahead_threads=2 / sliced_threads=0 / nr=0 / decimate=0 / interlaced=0 / bluray_compat=0 / constrained_intra=0 / bframes=12 / b_pyramid=2 / b_adapt=2 / b_bias=0 / direct=3 / weightb=1 / open_gop=0 / weightp=2 / keyint=240 / keyint_min=23 / scenecut=40 / intra_refresh=0 / rc=2pass / mbtree=0 / bitrate=3500 / ratetol=1.0 / qcomp=0.60 / qpmin=0 / qpmax=69 / qpstep=4 / cplxblur=20.0 / qblur=0.5 / ip_ratio=1.40 / pb_ratio=1.30 / aq=1:0.80 Язык : English Default : Нет Forced : Нет Аудио #1: Идентификатор : 2 Формат : AC-3 Формат/Информация : Audio Coding 3 Расширение режима : CM (complete main) Параметр Endianness формата : Big Идентификатор кодека : A_AC3 Продолжительность : 1 ч. 44 м. Вид битрейта : Постоянный Битрейт : 448 Кбит/сек Каналы : 6 каналов Расположение каналов : Front: L C R, Side: L R, LFE Частота : 48,0 КГц Метод сжатия : С потерями Размер потока : 336 Мбайт (8%) Заголовок : MVO R5 Язык : Russian Default : Нет Forced : Нет Аудио #2: Идентификатор : 3 Формат : AC-3 Формат/Информация : Audio Coding 3 Расширение режима : CM (complete main) Параметр Endianness формата : Big Идентификатор кодека : A_AC3 Продолжительность : 1 ч. 44 м. Вид битрейта : Постоянный Битрейт : 448 Кбит/сек Каналы : 6 каналов Расположение каналов : Front: L C R, Side: L R, LFE Частота : 48,0 КГц Метод сжатия : С потерями Размер потока : 336 Мбайт (8%) Заголовок : MVO DVD Group (Amalgama) Язык : Russian Default : Нет Forced : Нет Аудио #3: Идентификатор : 4 Формат : AC-3 Формат/Информация : Audio Coding 3 Расширение режима : CM (complete main) Параметр Endianness формата : Big Идентификатор кодека : A_AC3 Продолжительность : 1 ч. 44 м. Вид битрейта : Постоянный Битрейт : 192 Кбит/сек Каналы : 2 канала Расположение каналов : Front: L R Частота : 48,0 КГц Метод сжатия : С потерями Размер потока : 144 Мбайт (3%) Заголовок : DVO НТВ (Андрей Ярославцев и Людмила Гнилова) Язык : Russian Default : Нет Forced : Нет Аудио #4: Идентификатор : 5 Формат : AC-3 Формат/Информация : Audio Coding 3 Расширение режима : CM (complete main) Параметр Endianness формата : Big Идентификатор кодека : A_AC3 Продолжительность : 1 ч. 44 м. Вид битрейта : Постоянный Битрейт : 192 Кбит/сек Каналы : 2 канала Расположение каналов : Front: L R Частота : 48,0 КГц Метод сжатия : С потерями Размер потока : 144 Мбайт (3%) Заголовок : DVO TV Перец / РенТВ (Елена и Алексей Борзуновы) Язык : Russian Default : Нет Forced : Нет Аудио #5: Идентификатор : 6 Формат : AC-3 Формат/Информация : Audio Coding 3 Расширение режима : CM (complete main) Параметр Endianness формата : Big Идентификатор кодека : A_AC3 Продолжительность : 1 ч. 44 м. Вид битрейта : Постоянный Битрейт : 192 Кбит/сек Каналы : 2 канала Расположение каналов : Front: L R Частота : 48,0 КГц Метод сжатия : С потерями Размер потока : 144 Мбайт (3%) Заголовок : AVO Живов Юрий Викторович Язык : Russian Default : Нет Forced : Нет Аудио #6: Идентификатор : 7 Формат : AC-3 Формат/Информация : Audio Coding 3 Расширение режима : CM (complete main) Параметр Endianness формата : Big Идентификатор кодека : A_AC3 Продолжительность : 1 ч. 44 м. Вид битрейта : Постоянный Битрейт : 192 Кбит/сек Каналы : 2 канала Расположение каналов : Front: L R Частота : 48,0 КГц Метод сжатия : С потерями Размер потока : 144 Мбайт (3%) Заголовок : AVO Горчаков Василий Овидиевич Язык : Russian Default : Нет Forced : Нет Аудио #7: Идентификатор : 8 Формат : AC-3 Формат/Информация : Audio Coding 3 Расширение режима : CM (complete main) Параметр Endianness формата : Big Идентификатор кодека : A_AC3 Продолжительность : 1 ч. 44 м. Вид битрейта : Постоянный Битрейт : 192 Кбит/сек Каналы : 2 канала Расположение каналов : Front: L R Частота : 48,0 КГц Метод сжатия : С потерями Размер потока : 144 Мбайт (3%) Заголовок : AVO Гаврилов Андрей Юрьевич Язык : Russian Default : Нет Forced : Нет Аудио #8: Идентификатор : 9 Формат : AC-3 Формат/Информация : Audio Coding 3 Расширение режима : CM (complete main) Параметр Endianness формата : Big Идентификатор кодека : A_AC3 Продолжительность : 1 ч. 44 м. Вид битрейта : Постоянный Битрейт : 448 Кбит/сек Каналы : 6 каналов Расположение каналов : Front: L C R, Side: L R, LFE Частота : 48,0 КГц Метод сжатия : С потерями Размер потока : 336 Мбайт (8%) Язык : English Default : Нет Forced : Нет 4,25 Gb 3 2 15 сентября 2016 07:14 Настоящая МакКой / The Real McCoy (1993) DVDRip-AVC | P, P2, A .torrent   [Информация о файле (нажмите для просмотра)] Перевод: - Профессиональный (многоголосный, закадровый) R5 - Профессиональный (двуголосый, закадровый) НТВ (Андрей Ярославцев и Людмила Гнилова) - Профессиональный (двуголосый, закадровый) TV Перец / РенТВ (Елена и Алексей Борзуновы) - Авторский (одноголосый, закадровый) Живов Юрий Викторович - Авторский (одноголосый, закадровый) Горчаков Василий Овидиевич - Авторский (одноголосый, закадровый) Гаврилов Андрей Юрьевич - Авторский (одноголосый, закадровый) Кузнецов Сергей - Авторский (одноголосый, закадровый) Володарский Леонид ВениаминовичСубтитры: Кодек: x264Качество: DVDRip-AVCВидео: 720x380 , 2500 kbps, 23,976 fpsАудио #1: AC-3, 6 ch, 448 kbps (Rus) - MVO R5Аудио #2: AC-3, 2 ch, 192 kbps (Rus) - DVO НТВ (Андрей Ярославцев и Людмила Гнилова)Аудио #3: AC-3, 2 ch, 192 kbps (Rus) - DVO TV Перец / РенТВ (Елена и Алексей Борзуновы)Аудио #4: AC-3, 2 ch, 192 kbps (Rus) - AVO Живов Юрий ВикторовичАудио #5: AC-3, 2 ch, 192 kbps (Rus) - AVO Горчаков Василий ОвидиевичАудио #6: AC-3, 2 ch, 192 kbps (Rus) - AVO Гаврилов Андрей ЮрьевичАудио #7: AC-3, 2 ch, 192 kbps (Rus) - AVO Кузнецов СергейАудио #8: AC-3, 6 ch, 448 kbps (Eng)Субтитры: Русские, АнглийскиеАудио #9: AC-3, 2 ch, 192 kbps (Rus) - AVO Володарский Леонид Вениаминович (отдельно)Видео: Идентификатор : 1 Формат : AVC Формат/Информация : Advanced Video Codec Профиль формата : [email protected] Параметр CABAC формата : Да Параметр ReFrames формата : 12 кадров Идентификатор кодека : V_MPEG4/ISO/AVC Продолжительность : 1 ч. 45 м. Битрейт : 2500 Кбит/сек Ширина : 720 пикселей Высота : 380 пикселей Соотношение сторон : 1,895 Режим частоты кадров : Постоянный Частота кадров : 23,976 кадра/сек Цветовое пространство : YUV Субдискретизация насыщенности : 4:2:0 Битовая глубина : 8 бит Тип развёртки : Прогрессивная Бит/(Пиксели*Кадры) : 0.381 Размер потока : 1,77 Гбайт (53%) Библиотека кодирования : x264 core 146 r2538 121396c Настройки программы : cabac=1 / ref=12 / deblock=1:-3:-3 / analyse=0x3:0x133 / me=umh / subme=11 / psy=1 / psy_rd=1.00:0.00 / mixed_ref=1 / me_range=32 / chroma_me=1 / trellis=2 / 8x8dct=1 / cqm=0 / deadzone=21,11 / fast_pskip=0 / chroma_qp_offset=-2 / threads=12 / lookahead_threads=2 / sliced_threads=0 / nr=0 / decimate=0 / interlaced=0 / bluray_compat=0 / constrained_intra=0 / bframes=12 / b_pyramid=2 / b_adapt=2 / b_bias=0 / direct=3 / weightb=1 / open_gop=0 / weightp=2 / keyint=240 / keyint_min=23 / scenecut=40 / intra_refresh=0 / rc=2pass / mbtree=0 / bitrate=2500 / ratetol=1.0 / qcomp=0.60 / qpmin=0 / qpmax=69 / qpstep=4 / cplxblur=20.0 / qblur=0.5 / ip_ratio=1.40 / pb_ratio=1.30 / aq=1:0.80 Язык : English Default : Нет Forced : Нет Аудио #1: Идентификатор : 2 Формат : AC-3 Формат/Информация : Audio Coding 3 Расширение режима : CM (complete main) Параметр Endianness формата : Big Идентификатор кодека : A_AC3 Продолжительность : 1 ч. 45 м. Вид битрейта : Постоянный Битрейт : 448 Кбит/сек Каналы : 6 каналов Расположение каналов : Front: L C R, Side: L R, LFE Частота : 48,0 КГц Метод сжатия : С потерями Размер потока : 337 Мбайт (10%) Заголовок : MVO R5 Язык : Russian Default : Нет Forced : Нет Аудио #2: Идентификатор : 3 Формат : AC-3 Формат/Информация : Audio Coding 3 Расширение режима : CM (complete main) Параметр Endianness формата : Big Идентификатор кодека : A_AC3 Продолжительность : 1 ч. 45 м. Вид битрейта : Постоянный Битрейт : 192 Кбит/сек Каналы : 2 канала Расположение каналов : Front: L R Частота : 48,0 КГц Метод сжатия : С потерями Размер потока : 144 Мбайт (4%) Заголовок : DVO НТВ (Андрей Ярославцев и Людмила Гнилова) Язык : Russian Default : Нет Forced : Нет Аудио #3: Идентификатор : 4 Формат : AC-3 Формат/Информация : Audio Coding 3 Расширение режима : CM (complete main) Параметр Endianness формата : Big Идентификатор кодека : A_AC3 Продолжительность : 1 ч. 45 м. Вид битрейта : Постоянный Битрейт : 192 Кбит/сек Каналы : 2 канала Расположение каналов : Front: L R Частота : 48,0 КГц Метод сжатия : С потерями Размер потока : 144 Мбайт (4%) Заголовок : DVO TV Перец / РенТВ (Елена и Алексей Борзуновы) Язык : Russian Default : Нет Forced : Нет Аудио #4: Идентификатор : 5 Формат : AC-3 Формат/Информация : Audio Coding 3 Расширение режима : CM (complete main) Параметр Endianness формата : Big Идентификатор кодека : A_AC3 Продолжительность : 1 ч. 45 м. Вид битрейта : Постоянный Битрейт : 192 Кбит/сек Каналы : 2 канала Расположение каналов : Front: L R Частота : 48,0 КГц Метод сжатия : С потерями Размер потока : 144 Мбайт (4%) Заголовок : AVO Живов Юрий Викторович Язык : Russian Default : Нет Forced : Нет Аудио #5: Идентификатор : 6 Формат : AC-3 Формат/Информация : Audio Coding 3 Расширение режима : CM (complete main) Параметр Endianness формата : Big Идентификатор кодека : A_AC3 Продолжительность : 1 ч. 45 м. Вид битрейта : Постоянный Битрейт : 192 Кбит/сек Каналы : 2 канала Расположение каналов : Front: L R Частота : 48,0 КГц Метод сжатия : С потерями Размер потока : 144 Мбайт (4%) Заголовок : AVO Горчаков Василий Овидиевич Язык : Russian Default : Нет Forced : Нет Аудио #6: Идентификатор : 7 Формат : AC-3 Формат/Информация : Audio Coding 3 Расширение режима : CM (complete main) Параметр Endianness формата : Big Идентификатор кодека : A_AC3 Продолжительность : 1 ч. 45 м. Вид битрейта : Постоянный Битрейт : 192 Кбит/сек Каналы : 2 канала Расположение каналов : Front: L R Частота : 48,0 КГц Метод сжатия : С потерями Размер потока : 144 Мбайт (4%) Заголовок : AVO Гаврилов Андрей Юрьевич Язык : Russian Default : Нет Forced : Нет Аудио #7: Идентификатор : 8 Формат : AC-3 Формат/Информация : Audio Coding 3 Расширение режима : CM (complete main) Параметр Endianness формата : Big Идентификатор кодека : A_AC3 Продолжительность : 1 ч. 45 м. Вид битрейта : Постоянный Битрейт : 192 Кбит/сек Каналы : 2 канала Расположение каналов : Front: L R Частота : 48,0 КГц Метод сжатия : С потерями Размер потока : 144 Мбайт (4%) Заголовок : AVO Кузнецов Сергей Язык : Russian Default : Нет Forced : Нет Аудио #8: Идентификатор : 9 Формат : AC-3 Формат/Информация : Audio Coding 3 Расширение режима : CM (complete main) Параметр Endianness формата : Big Идентификатор кодека : A_AC3 Продолжительность : 1 ч. 45 м. Вид битрейта : Постоянный Битрейт : 448 Кбит/сек Каналы : 6 каналов Расположение каналов : Front: L C R, Side: L R, LFE Частота : 48,0 КГц Метод сжатия : С потерями Размер потока : 337 Мбайт (10%) Язык : English Default : Нет Forced : Нет 3,48 Gb 4 3 15 сентября 2016 07:14 Настоящая МакКой / The Real McCoy (1993) DVDRip | A .torrent   [Информация о файле (нажмите для просмотра)] Перевод: Авторский (одноголосый закадровый) Сергей КузнецовКодек: XviDКачество: DVDRipВидео: 720x384, 23.976 fps, MPEG-4 Visual, 1786 Kbps, XviD 1.2.0Звук: 48 KHz, AC3, 2 ch, 192 Kbps 1,46 Gb 3 2 15 сентября 2016 07:14 Настоящая Маккой / The Real McCoy (1993) DVDRip от GeneralFilm .torrent   [Информация о файле (нажмите для просмотра)] Качество: DVDRipисходник (DVD-5)Видео: XviD, 1591 Кбит/с, 720x384Аудио 1: Русский, AC3, 2 ch, 192 Кбит/с | (многоголосый)Аудио 2: Русский, AC3, 2 ch, 192 Кбит/с | Авторский (Л.Володарский)Перевод: Профессиональный (многоголосый), авторский 1,46 Gb 5 2 15 сентября 2016 07:14 Настоящая Маккой / The Real McCoy (1993) DVDRip-AVC от New-Team .torrent   [Информация о файле (нажмите для просмотра)] Перевод: Профессиональный (многоголосый закадровый)Контейнер: MKVВидео: [email protected] (1,884:1), 23,976 fps, h364 ~ 1084 kbps avg, 0.188 bit/pixelАудио: 48 kHz, Dolby Digital AC3 5.1, 448 kbps MVOАудио: 48 kHz, Dolby Digital AC3 5.1, 448 kbps АнглийскийСубтитры: SoftSub (srt)Видео: Идентификатор : 1 Формат : AVC Формат/Информация : Advanced Video Codec Профиль формата : [email protected] Параметр CABAC формата : Да Параметр ReFrames формата : 8 кадров Идентификатор кодека : V_MPEG4/ISO/AVC Продолжительность : 1 ч. 45 м. Битрейт : 1084 Кбит/сек Ширина : 712 пикселей Высота : 338 пикселей Соотношение сторон : 1,884 Соотношение сторон в оригинале : 1,883 Режим частоты кадров : Постоянный Частота кадров : 23,976 кадра/сек Цветовое пространство : YUV Субдискретизация насыщенности : 4:2:0 Битовая глубина : 8 бит Тип развёртки : Прогрессивная Бит/(Пиксели*Кадры) : 0.188 Размер потока : 787 Мбайт (53%) Заголовок : Источник DVD9 Библиотека кодирования : x264 core 138 r2356 a1d3d17 Настройки программы : cabac=1 / ref=8 / deblock=1:-2:-1 / analyse=0x3:0x113 / me=umh / subme=10 / psy=1 / psy_rd=1.00:0.05 / mixed_ref=1 / me_range=32 / chroma_me=1 / trellis=2 / 8x8dct=1 / cqm=0 / deadzone=21,11 / fast_pskip=0 / chroma_qp_offset=-3 / threads=3 / lookahead_threads=1 / sliced_threads=0 / nr=0 / decimate=0 / interlaced=0 / bluray_compat=0 / constrained_intra=0 / bframes=8 / b_pyramid=2 / b_adapt=2 / b_bias=0 / direct=3 / weightb=1 / open_gop=0 / weightp=2 / keyint=240 / keyint_min=24 / scenecut=40 / intra_refresh=0 / rc_lookahead=40 / rc=2pass / mbtree=1 / bitrate=1084 / ratetol=1.0 / qcomp=0.60 / qpmin=0 / qpmax=69 / qpstep=4 / cplxblur=20.0 / qblur=0.5 / ip_ratio=1.40 / aq=1:1.00 Язык : English Default : Да Forced : НетАудио #1: Идентификатор : 2 Формат : AC-3 Формат/Информация : Audio Coding 3 Расширение режима : CM (complete main) Параметр Endianness формата : Big Идентификатор кодека : A_AC3 Продолжительность : 1 ч. 45 м. Вид битрейта : Постоянный Битрейт : 448 Кбит/сек Каналы : 6 каналов Расположение каналов : Front: L C R, Side: L R, LFE Частота : 48,0 КГц Битовая глубина : 16 бит Метод сжатия : С потерями Размер потока : 337 Мбайт (23%) Заголовок : Источник DVD Dolby Digital 5,1 448kb MVO Язык : Russian Default : Да Forced : НетАудио #2: Идентификатор : 3 Формат : AC-3 Формат/Информация : Audio Coding 3 Расширение режима : CM (complete main) Параметр Endianness формата : Big Идентификатор кодека : A_AC3 Продолжительность : 1 ч. 45 м. Вид битрейта : Постоянный Битрейт : 448 Кбит/сек Каналы : 6 каналов Расположение каналов : Front: L C R, Side: L R, LFE Частота : 48,0 КГц Битовая глубина : 16 бит Метод сжатия : С потерями Размер потока : 337 Мбайт (23%) Заголовок : Источник DVD Dolby Digital 5,1 448kb MVO Язык : Russian Default : Нет Forced : Нет 1,46 Gb 5 1 15 сентября 2016 07:14 Настоящая Маккой / The Real McCoy (1993) DVDRip от New-Team .torrent   [Информация о файле (нажмите для просмотра)] Перевод: Профессиональный (многоголосый закадровый)Контейнер: AVIВидео: 640x336 (1,905:1), 23,976 fps, XviD ~ 853 kbps avg, 0.165 bit/pixelАудио: 48 kHz, MP3 2.0, 128 kbpsВидео: Идентификатор : 0 Формат : MPEG-4 Visual Профиль формата : Advanced [email protected] Параметр BVOP формата : 1 Параметр QPel формата : Нет Параметр GMC формата : Без точки перехода Параметр матрицы формата : Выборочная Идентификатор кодека : XVID Идентификатор кодека/Подсказка : XviD Продолжительность : 1 ч. 45 м. Битрейт : 853 Кбит/сек Ширина : 640 пикселей Высота : 336 пикселей Соотношение сторон : 1,905 Частота кадров : 23,976 кадра/сек Цветовое пространство : YUV Субдискретизация насыщенности : 4:2:0 Битовая глубина : 8 бит Тип развёртки : Прогрессивная Метод сжатия : С потерями Бит/(Пиксели*Кадры) : 0.165 Размер потока : 642 Мбайт (86%) Библиотека кодирования : XviD 73Аудио: Идентификатор : 1 Формат : MPEG Audio Версия формата : Version 1 Профиль формата : Layer 3 Идентификатор кодека : 55 Идентификатор кодека/Подсказка : MP3 Продолжительность : 1 ч. 45 м. Вид битрейта : Постоянный Битрейт : 128 Кбит/сек Каналы : 2 канала Частота : 48,0 КГц Метод сжатия : С потерями Размер потока : 96,3 Мбайт (13%) Выравнивание : Соединение по промежуткам Продолжительность промежутка : 42 мс. (1,00 видеокадр) Время предзагрузки промежутка : 504 мс. Библиотека кодирования : LAME3.99r Настройки программы : -m s -V 4 -q 2 -lowpass 17 -b 128 744,84 Mb 6 1 15 сентября 2016 07:14 Настоящая Маккой / The Real McCoy (1993) DVDRip .torrent   [Информация о файле (нажмите для просмотра)] Перевод: Профессиональный (многоголосый, закадровый)Кодек: XviDКачество: DVDRipВидео: 640x336 (1.905:1), 23,976 fps, XviD 1.1.2 Final, 1399 kbps, 0.271 bit/pixelЗвук: 48 kHz, AC3 Dolby Digital, 3/2 (L,C,R,l,r) + LFE ch, 448.00 kbps 1,36 Gb 11 2 15 сентября 2016 07:14 Настоящая Маккой / The Real McCoy (1993) DVDRip .torrent   [Информация о файле (нажмите для просмотра)] Перевод: Профессиональный (многоголосый закадровый)Перевод: Авторский (одноголосый закадровый) ГавриловПеревод: Авторский (одноголосый закадровый) ВолодарскийПеревод: Авторский (одноголосый закадровый) ГорчаковПеревод: Авторский (одноголосый закадровый) ЖивовВидео: 720x368 (1.96:1), 23.976 fps, XviD build 50 ~1524 kbps avg, 0.24 bit/pixelАудио: 48 kHz, AC3 Dolby Digital, 3/2 (L,C,R,l,r) + LFE ch, ~448 kbpsМногоголосыйАудио: 48 kHz, AC3 Dolby Digital, 2/0 (L,R) ch, ~192.00 kbps avgГаврилов - отдельноАудио: 48 kHz, AC3 Dolby Digital, 2/0 (L,R) ch, ~192.00 kbps avgВолодарский - отдельноАудио: 48 kHz, AC3 Dolby Digital, 2/0 (L,R) ch, ~192.00 kbps avgГорчаков - отдельноАудио: 48 kHz, AC3 Dolby Digital, 2/0 (L,R) ch, ~192.00 kbps avgЖивов - отдельноАудио: 48 kHz, AC3 Dolby Digital, 2/0 (L,R) ch, ~192.00 kbps avgАнглийский - отдельно 2,16 Gb 1 3

gig-torrent.net


Смотрите также