Скачать этажом ниже через торрент бесплатно в хорошем качестве


Скачать фильм Этажом ниже через торрент в хорошем качестве бесплатно BDRip

piratbit.ru

Раздают: 3 [ 0 KB/s ]
Размер: 1.45 GB | Добавлен: 10 мес. назад | Торрент скачан:239 раз
Реклама Дарим 3000 рублей за регистрацию, не упусти свой шанс получить шикарный бонус!!!

16-12-2016 05:27 Этажом ниже Скачать торрент  

Этажом ниже / The Ones Below

Год выпуска: 2015Страна: ВеликобританияЖанр: триллерПродолжительность: 01:26:15Перевод: Любительский одноголосый (datynet)

Режиссер: Дэвид Фарр

В ролях: Клеманс Поэзи, Дэвид Моррисси, Стивен Кэмпбелл Мур, Лаура Бирн, Дебора Файндлей, Наташа Алдерслэйд, Лайла Ай, Фрэнсис Эшман, Алекс Эйвери, Грэйс Калдер

Описание: Пара, ждущая первого ребенка, обнаруживает странную разницу между собой и семейной парой, живущей этажом ниже и тоже ждущей ребенка.

Качество: BDRip (The.Ones.Below.2015.BDRemux.1080p_by_vedigo)Формат: AVIВидео кодек: XviDАудио кодек: AC3Видео: XviD, 1817 Кбит/с, 720x384, 23.976 кадр/сАудио#1: AC3, 2 ch, 192 Кбит/с, 48 kHz | РусскийАудио#2: AC3, 6 ch, 384 Кбит/с, 48 kHz | AнглийскийРеклама отсутствуетРелиз от: Koenig

Скачать Этажом ниже через торрент http://picplus.ru/img/1612/16/bc131345.jpg Скачать фильм Этажом ниже через торрент бесплантно в хорошем качестве Описание: Пара, ждущая первого ребенка, обнаруживает странную разницу между собой и семейной парой, живущей этажом ниже и тоже ждущей ... 2016-12-16 05:27 10 10 4

Loading...

Loading...

Рекламный пират

Дорогой пользователь! Огромная просьба, поблагодарите релизера, оцените раздачу и оставьте свои комментарий, если Вы скачали Этажом ниже через торрент бесплатно! Внесите свою лепту в развитие PiratBit!

Комментировать посты могут только пользователи прошедшие не сложную регистрацию

Этажом ниже через торрент Скачать бесплатно Этажом ниже Этажом ниже скачать торрент Этажом ниже смотреть онлайн Cкачать фильм Этажом ниже бесплатно Этажом ниже скачать торрент в хорошем качестве Этажом ниже смотреть онлайн бесплатно в хорошем качестве

Вы не можете начинать темыВы не можете отвечать на сообщенияВы не можете редактировать свои сообщенияВы не можете удалять свои сообщенияВы не можете голосовать в опросахВы не можете прикреплять файлы к сообщениямВы можете скачивать файлы

Скачать фильм Этажом ниже через торрент в хорошем качестве бесплатно 1080p by msltel

ОбщееУникальный идентификатор : 173082917529361868204403716988474615749 (0x82368EB00212B8B7A1D6EC953301E7C5)Полное имя : D:\Video\Этажом ниже.2015.BDRip.1080p by msltel.mkvФормат : MatroskaВерсия формата : Version 4 / Version 2Размер файла : 10,3 ГбайтПродолжительность : 1 ч. 26 м.Общий поток : 17,1 Мбит/секНазвание фильма : Rip by msltelДата кодирования : UTC 2016-12-18 14:49:06Программа кодирования : mkvmerge v8.2.0 ('World of Adventure') 64bitБиблиотека кодирования : libebml v1.3.1 + libmatroska v1.4.2

ВидеоИдентификатор : 1Формат : AVCФормат/Информация : Advanced Video CodecПрофиль формата : [email protected]Параметр CABAC формата : ДаПараметр ReFrames формата : 4 кадраИдентификатор кодека : V_MPEG4/ISO/AVCПродолжительность : 1 ч. 26 м.Битрейт : 15,4 Мбит/секШирина : 1920 пикселейВысота : 1036 пикселейСоотношение сторон : 1,85:1Режим частоты кадров : ПостоянныйЧастота кадров : 23,976 (24000/1001) кадра/секЦветовое пространство : YUVСубдискретизация насыщенности : 4:2:0Битовая глубина : 8 битТип развёртки : ПрогрессивнаяБит/(Пиксели*Кадры) : 0.322Размер потока : 9,25 Гбайт (90%)Библиотека кодирования : x264 core 146 r2538 121396cНастройки программы : cabac=1 / ref=4 / deblock=1:-1:-1 / analyse=0x3:0x113 / me=umh / subme=9 / psy=1 / psy_rd=1.00:0.15 / mixed_ref=1 / me_range=32 / chroma_me=1 / trellis=1 / 8x8dct=1 / cqm=0 / deadzone=21,11 / fast_pskip=0 / chroma_qp_offset=-3 / threads=6 / lookahead_threads=1 / sliced_threads=0 / nr=0 / decimate=1 / interlaced=0 / bluray_compat=0 / constrained_intra=0 / bframes=11 / b_pyramid=2 / b_adapt=2 / b_bias=0 / direct=1 / weightb=0 / open_gop=0 / weightp=2 / keyint=230 / keyint_min=23 / scenecut=40 / intra_refresh=0 / rc_lookahead=40 / rc=crf / mbtree=0 / crf=17.5 / qcomp=0.60 / qpmin=0 / qpmax=69 / qpstep=4 / vbv_maxrate=50000 / vbv_bufsize=62500 / crf_max=0.0 / nal_hrd=none / filler=0 / ip_ratio=1.40 / pb_ratio=1.30 / aq=1:1.00Язык : EnglishDefault : ДаForced : Нет

Аудио #1Идентификатор : 2Формат : AC-3Формат/Информация : Audio Coding 3Расширение режима : CM (complete main)Параметр Endianness формата : BigИдентификатор кодека : A_AC3Продолжительность : 1 ч. 26 м.Вид битрейта : ПостоянныйБитрейт : 192 Кбит/секКаналы : 2 каналаРасположение каналов : Front: L RЧастота : 48,0 КГцЧастота кадров : 31,250 кадров/сек (1536 spf)Метод сжатия : С потерямиРазмер потока : 118 Мбайт (1%)Заголовок : любительский одноголосый, datynetЯзык : RussianDefault : ДаForced : Нет

Аудио #2Идентификатор : 3Формат : DTSФормат/Информация : Digital Theater SystemsРежим : 16Параметр Endianness формата : BigИдентификатор кодека : A_DTSПродолжительность : 1 ч. 26 м.Вид битрейта : ПостоянныйБитрейт : 1509 Кбит/секКаналы : 6 каналовРасположение каналов : Front: L C R, Side: L R, LFEЧастота : 48,0 КГцЧастота кадров : 93,750 кадра/сек (512 spf)Битовая глубина : 16 битМетод сжатия : С потерямиРазмер потока : 931 Мбайт (9%)Заголовок : originalЯзык : EnglishDefault : НетForced : Нет

Текст #1Идентификатор : 4Формат : UTF-8Идентификатор кодека : S_TEXT/UTF8Идентификатор кодека/Информация : UTF-8 Plain TextПродолжительность : 1 ч. 19 м.Битрейт : 63 бит/секCount of elements : 748Размер потока : 37,3 Кбайт (0%)Заголовок : русскиеЯзык : RussianDefault : НетForced : Нет

Текст #2Идентификатор : 5Формат : UTF-8Идентификатор кодека : S_TEXT/UTF8Идентификатор кодека/Информация : UTF-8 Plain TextПродолжительность : 1 ч. 20 м.Битрейт : 42 бит/секCount of elements : 847Размер потока : 25,1 Кбайт (0%)Заголовок : английскиеЯзык : EnglishDefault : НетForced : Нет

Меню00:00:00.000 : en:00:00:00.00000:07:42.754 : en:00:07:42.75400:13:35.064 : en:00:13:35.06400:23:48.302 : en:00:23:48.30200:29:28.976 : en:00:29:28.97600:36:43.952 : en:00:36:43.95200:41:08.174 : en:00:41:08.17400:49:04.275 : en:00:49:04.27500:57:59.476 : en:00:57:59.47601:08:11.963 : en:01:08:11.96301:12:34.225 : en:01:12:34.22501:21:36.850 : en:01:21:36.850

piratbit.ru

Скачать фильм Этажом ниже через торрент в хорошем качестве бесплатно Этажом ниже / The Ones Below (Дэвид Фарр ) [2015

GeneralUnique ID The.Ones.Below.2015.BluRay.1080p.DTS-HD.MA.5.1.AVC.REMUX-FraMeSToR\The.Ones.Below.2015.BluRay.1080p.DTS-HD.MA.5.1.AVC.REMUX-FraMeSToR.mkvFormat : MatroskaFormat version : Version 4 / Version 2File size : 13.1 GiBDuration : 1 h 26 minOverall bit rate mode : VariableOverall bit rate : 21.7 Mb/sMovie name : The Ones BelowEncoded date : UTC 2016-08-31 16:43:07Writing application : mkvmerge v9.4.0 ('Knurl') 64bitWriting library : libebml v1.3.4 + libmatroska v1.4.5

VideoID : 1Format : AVCFormat/Info : Advanced Video CodecFormat profile : [email protected] settings, CABAC : YesFormat settings, ReFrames : 4 framesCodec ID : V_MPEG4/ISO/AVCDuration : 1 h 26 minBit rate mode : VariableBit rate : 20.0 Mb/sMaximum bit rate : 35.0 Mb/sWidth : 1 920 pixelsHeight : 1 080 pixelsDisplay aspect ratio : 16:9Frame rate mode : ConstantFrame rate : 23.976 (24000/1001) FPSStandard : NTSCColor space : YUVChroma subsampling : 4:2:0Bit depth : 8 bitsScan type : ProgressiveBits/(Pixel*Frame) : 0.402Stream size : 12.0 GiB (92%)Default : YesForced : NoColor range : LimitedColor primaries : BT.709Transfer characteristics : BT.709Matrix coefficients : BT.709

AudioID : 2Format : DTSFormat/Info : Digital Theater SystemsFormat profile : MA / CoreMode : 16Format settings, Endianness : BigCodec ID : A_DTSDuration : 1 h 26 minBit rate mode : Variable / ConstantBit rate : 1 641 kb/s / 1 509 kb/sChannel(s) : 6 channelsChannel positions : Front: L C R, Side: L R, LFESampling rate : 48.0 kHzFrame rate : 93.750 FPS (512 spf)Bit depth : 16 bitsCompression mode : Lossless / LossyStream size : 1 013 MiB (8%)Title : DTS-HD MA 5.1Language : EnglishDefault : YesForced : No

Text #1ID : 3Format : PGSCodec ID : S_HDMV/PGSCodec ID/Info : Picture based subtitle format used on BDs/HD-DVDsDuration : 1 h 23 minBit rate : 46.3 kb/sCount of elements : 1638Stream size : 27.6 MiB (0%)Title : English (SDH)Language : EnglishDefault : YesForced : No

Text #2ID : 4Format : PGSCodec ID : S_HDMV/PGSCodec ID/Info : Picture based subtitle format used on BDs/HD-DVDsDuration : 1 h 19 minBit rate : 39.9 kb/sCount of elements : 1444Stream size : 22.8 MiB (0%)Title : Spanish (Latin American)Language : SpanishDefault : NoForced : No

Menu00:00:00.000 : en:Chapter 100:07:42.753 : en:Chapter 200:13:35.064 : en:Chapter 300:23:48.301 : en:Chapter 400:29:28.975 : en:Chapter 500:36:43.951 : en:Chapter 600:41:08.174 : en:Chapter 700:49:04.274 : en:Chapter 800:57:59.476 : en:Chapter 901:08:11.962 : en:Chapter 1001:12:34.224 : en:Chapter 1101:21:36.850 : en:Chapter 12

piratbit.ru

Скачать фильм Этажом ниже через торрент в хорошем качестве бесплатно 720p by msltel

ОбщееУникальный идентификатор : 212982730389729155810039861541323834751 (0xA03AFB57DDF0817B9C25B5EC4116857F)Полное имя : D:\Video\Этажом ниже.2015.BDRip.720p by msltel.mkvФормат : MatroskaВерсия формата : Version 4 / Version 2Размер файла : 3,70 ГбайтПродолжительность : 1 ч. 26 м.Общий поток : 6134 Кбит/секНазвание фильма : Rip by msltelДата кодирования : UTC 2016-12-17 11:23:09Программа кодирования : mkvmerge v8.2.0 ('World of Adventure') 64bitБиблиотека кодирования : libebml v1.3.1 + libmatroska v1.4.2

ВидеоИдентификатор : 1Формат : AVCФормат/Информация : Advanced Video CodecПрофиль формата : [email protected]Параметр CABAC формата : ДаПараметр ReFrames формата : 9 кадровИдентификатор кодека : V_MPEG4/ISO/AVCПродолжительность : 1 ч. 26 м.Битрейт : 5492 Кбит/секШирина : 1280 пикселейВысота : 690 пикселейСоотношение сторон : 1,85:1Режим частоты кадров : ПостоянныйЧастота кадров : 23,976 (24000/1001) кадра/секЦветовое пространство : YUVСубдискретизация насыщенности : 4:2:0Битовая глубина : 8 битТип развёртки : ПрогрессивнаяБит/(Пиксели*Кадры) : 0.259Размер потока : 3,31 Гбайт (90%)Библиотека кодирования : x264 core 146 r2538 121396cНастройки программы : cabac=1 / ref=9 / deblock=1:-1:-1 / analyse=0x3:0x113 / me=umh / subme=9 / psy=1 / psy_rd=1.00:0.15 / mixed_ref=1 / me_range=32 / chroma_me=1 / trellis=1 / 8x8dct=1 / cqm=0 / deadzone=21,11 / fast_pskip=0 / chroma_qp_offset=-3 / threads=6 / lookahead_threads=1 / sliced_threads=0 / nr=0 / decimate=1 / interlaced=0 / bluray_compat=0 / constrained_intra=0 / bframes=11 / b_pyramid=2 / b_adapt=2 / b_bias=0 / direct=1 / weightb=0 / open_gop=0 / weightp=2 / keyint=230 / keyint_min=23 / scenecut=40 / intra_refresh=0 / rc_lookahead=40 / rc=crf / mbtree=0 / crf=17.5 / qcomp=0.60 / qpmin=0 / qpmax=69 / qpstep=4 / vbv_maxrate=50000 / vbv_bufsize=62500 / crf_max=0.0 / nal_hrd=none / filler=0 / ip_ratio=1.40 / pb_ratio=1.30 / aq=1:1.00Язык : EnglishDefault : ДаForced : Нет

Аудио #1Идентификатор : 2Формат : AC-3Формат/Информация : Audio Coding 3Расширение режима : CM (complete main)Параметр Endianness формата : BigИдентификатор кодека : A_AC3Продолжительность : 1 ч. 26 м.Вид битрейта : ПостоянныйБитрейт : 192 Кбит/секКаналы : 2 каналаРасположение каналов : Front: L RЧастота : 48,0 КГцЧастота кадров : 31,250 кадров/сек (1536 spf)Метод сжатия : С потерямиРазмер потока : 118 Мбайт (3%)Заголовок : любительский одноголосый, datynetЯзык : RussianDefault : ДаForced : Нет

Аудио #2Идентификатор : 3Формат : AC-3Формат/Информация : Audio Coding 3Расширение режима : CM (complete main)Параметр Endianness формата : BigИдентификатор кодека : A_AC3Продолжительность : 1 ч. 26 м.Вид битрейта : ПостоянныйБитрейт : 448 Кбит/секКаналы : 6 каналовРасположение каналов : Front: L C R, Side: L R, LFEЧастота : 48,0 КГцЧастота кадров : 31,250 кадров/сек (1536 spf)Метод сжатия : С потерямиРазмер потока : 276 Мбайт (7%)Заголовок : originalЯзык : EnglishDefault : НетForced : Нет

Текст #1Идентификатор : 4Формат : UTF-8Идентификатор кодека : S_TEXT/UTF8Идентификатор кодека/Информация : UTF-8 Plain TextПродолжительность : 1 ч. 19 м.Битрейт : 63 бит/секCount of elements : 748Размер потока : 37,3 Кбайт (0%)Заголовок : русскиеЯзык : RussianDefault : НетForced : Нет

Текст #2Идентификатор : 5Формат : UTF-8Идентификатор кодека : S_TEXT/UTF8Идентификатор кодека/Информация : UTF-8 Plain TextПродолжительность : 1 ч. 20 м.Битрейт : 42 бит/секCount of elements : 847Размер потока : 25,1 Кбайт (0%)Заголовок : английскиеЯзык : EnglishDefault : НетForced : Нет

Меню00:00:00.000 : en:00:00:00.00000:07:42.754 : en:00:07:42.75400:13:35.064 : en:00:13:35.06400:23:48.302 : en:00:23:48.30200:29:28.976 : en:00:29:28.97600:36:43.952 : en:00:36:43.95200:41:08.174 : en:00:41:08.17400:49:04.275 : en:00:49:04.27500:57:59.476 : en:00:57:59.47601:08:11.963 : en:01:08:11.96301:12:34.225 : en:01:12:34.22501:21:36.850 : en:01:21:36.850

piratbit.ru


Смотрите также