Скачать девятые врата через торрент в хорошем качестве


Скачать фильм Девятые врата через торрент в хорошем качестве бесплатно DVDRip

piratbit.ru

Размер: 1.46 GB | Добавлен: 5 лет 6 мес. назад | Торрент скачан:342 раза
Реклама Дарим 3000 рублей за регистрацию, не упусти свой шанс получить шикарный бонус!!!

15-04-2012 10:29 Девятые врата Скачать торрент  

Девятые врата / The Ninth Gate

Год выпуска: 1999Страна: США, Франция, ИспанияЖанр: ужасы, детектив, триллерПродолжительность: 02:13:14Перевод: Дубляж (Лицензия)

Режиссер: Роман Полански

Бюджет: $38 000 000Премьера в мире: 25 августа 1999

В ролях: [font=Arial]Джонни Депп

, Фрэнк Ланджелла, Лена Улин, Эмманюэль Сенье, Барбара Джеффорд, Джек Тейлор, Хосе Лопес Родеро, Тони Амони, Джеймс Руссо, Уилли Холт

Описание: Дин Корсо, один из лучших специалистов по поиску, оценке и скупке раритетных изданий, принимает от владельца крупнейшей в мире библиотеки оккультных книг необычный, но крайне выгодный заказ: определить подлинность венца собрания, фолианта XVII века под названием «Девять врат в царство призраков», с помощью которого, по преданию, можно вызвать самого Люцифера. Ему предстоит полное опасностей и тайн путешествие по Европе.

Качество: DVDRipФормат: AVIВидео кодек: XviDАудио кодек: AC3Видео: 720x304 (2.37:1), 25 fps, XviD MPEG-4 ~1485 kbps avg, 0.27 bit/pixelАудио#1: 48 kHz, AC3 Dolby Digital, 2/0 (L,R) ch, ~192 kbps

Скачать Девятые врата через торрент http://pic.pb.wtf/images/2000/x2iy2uik4k.jpg Скачать фильм Девятые врата через торрент бесплантно в хорошем качестве Описание: Дин Корсо, один из лучших специалистов по поиску, оценке и скупке раритетных изданий, принимает от владельца крупнейшей в мире ... 2012-04-15 10:29 10 10 8

Loading...

Loading...

% Раздел Тема Автор DL S | L
Фильмы [HD 720p, 1080p] (Хороший звук DUB, MVO) [ 21.79 GB ] Девятые врата / The Ninth Gate [1999 BDRip 1080p by msltel] DUB 3 x MVO 2 x DVO 4 x AVO msltel Скачать
Фильмы [HD 720p, 1080p] (Хороший звук DUB, MVO) [ 8.32 GB ] Девятые врата / The Ninth Gate [1999 BDRip 720p by msltel] DUB 3 x MVO 2 x DVO 4 x AVO msltel Скачать
Фильмы [HD 720p, 1080p] (Хороший звук DUB, MVO) [ 7.76 GB ] Девятые врата / The Ninth Gate [1999 BDRip 1080p] DUB+MVO bober100 Скачать
R.G.Resident - Фильмы, Видео [ 3.36 GB ] Девятые врата / The Ninth Gate [1999 BDRip-AVC от R.G. Resident] -Lexx- Скачать
Фильмы [HD 720p, 1080p] (Хороший звук DUB, MVO) [ 7.39 GB ] Девятые врата / The Ninth Gate [1999 BDRip 720p] Kavasar Скачать
Фильмы [HD 720p, 1080p] (Хороший звук DUB, MVO) [ 11.76 GB ] Девятые врата / The Ninth Gate [1999 BDRip 1080p] DUB + MVO Arhangell Скачать
Фильмы до 2000 г. [ 2.18 GB ] Девятые врата / The Ninth Gate [1999 Мистический BDRip лицензия] CJ_Kastaneda Скачать

Рекламный пират

31-01-2014 15:16 Девятые врата Скачать торрент  

Отличный фильм...

07-11-2014 19:54 Девятые врата Скачать торрент  

Скорости дайте плиз для отличного фильма

22-06-2015 15:53 Девятые врата Скачать торрент  

Будьте добры, встаньте на раздачу пожалуйста

22-06-2015 16:02 Девятые врата Скачать торрент  

Barbas писал(а):

Будьте добры, встаньте на раздачу пожалуйста

Не актуально.

Дорогой пользователь! Огромная просьба, поблагодарите релизера, оцените раздачу и оставьте свои комментарий, если Вы скачали Девятые врата через торрент бесплатно! Внесите свою лепту в развитие PiratBit!

Комментировать посты могут только пользователи прошедшие не сложную регистрацию

Девятые врата через торрент Скачать бесплатно Девятые врата Девятые врата скачать торрент Девятые врата смотреть онлайн Cкачать фильм Девятые врата бесплатно Девятые врата скачать торрент в хорошем качестве Девятые врата смотреть онлайн бесплатно в хорошем качестве

Вы не можете начинать темыВы не можете отвечать на сообщенияВы не можете редактировать свои сообщенияВы не можете удалять свои сообщенияВы не можете голосовать в опросахВы не можете прикреплять файлы к сообщениямВы можете скачивать файлы

Скачать фильм Девятые врата через торрент в хорошем качестве бесплатно 1080p

ОбщееУникальный идентификатор : 172309119775531035515314406286863374903 (0x81A18783436CC6C580B2EF4E5CB01A37)Полное имя : E:\The.Ninth.Gate.1999.BDRip.1080p.mkvФормат : MatroskaВерсия формата : Version 2Размер файла : 11,8 ГбайтПродолжительность : 2 ч. 13 м.Общий поток : 12,6 Мбит/секНазвание фильма : The Ninth Gate (1999) [Olympus HDFilms]Дата кодирования : UTC 2009-08-20 22:22:45Программа кодирования : mkvmerge v2.9.7 ('Tenderness') built on Jul 1 2009 18:43:35Библиотека кодирования : libebml v0.7.7 + libmatroska v0.8.1

ВидеоИдентификатор : 1Формат : AVCФормат/Информация : Advanced Video CodecПрофиль формата : [email protected]Параметр CABAC формата : ДаПараметр ReFrames формата : 5 кадровИдентификатор кодека : V_MPEG4/ISO/AVCПродолжительность : 2 ч. 13 м.Битрейт : 9000 Кбит/секШирина : 1920 пикселейВысота : 814 пикселейСоотношение сторон : 2,35:1Режим частоты кадров : ПостоянныйЧастота кадров : 23,976 кадра/секЦветовое пространство : YUVСубдискретизация насыщенности : 4:2:0Битовая глубина : 8 битТип развёртки : ПрогрессивнаяБит/(Пиксели*Кадры) : 0.240Размер потока : 8,15 Гбайт (69%)Заголовок : 9mbps x264 1080pБиблиотека кодирования : x264 core 68 r1183M f21daffНастройки программы : cabac=1 / ref=5 / deblock=1:-3:-3 / analyse=0x3:0x133 / me=umh / subme=9 / psy_rd=1.0:0.0 / mixed_ref=1 / me_range=32 / chroma_me=1 / trellis=2 / 8x8dct=1 / cqm=0 / deadzone=21,11 / chroma_qp_offset=-2 / threads=12 / nr=0 / decimate=1 / mbaff=0 / bframes=3 / b_pyramid=1 / b_adapt=2 / b_bias=0 / direct=3 / wpredb=1 / keyint=250 / keyint_min=25 / scenecut=40 / rc=2pass / bitrate=9000 / ratetol=1.0 / qcomp=0.60 / qpmin=10 / qpmax=51 / qpstep=4 / cplxblur=20.0 / qblur=0.5 / vbv_maxrate=50000 / vbv_bufsize=50000 / ip_ratio=1.40 / pb_ratio=1.30 / aq=1:0.80Язык : EnglishDefault : ДаForced : Нет

Аудио #1Идентификатор : 2Формат : AC-3Формат/Информация : Audio Coding 3Расширение режима : CM (complete main)Параметр Endianness формата : BigИдентификатор кодека : A_AC3Продолжительность : 2 ч. 13 м.Вид битрейта : ПостоянныйБитрейт : 384 Кбит/секКаналы : 6 каналовРасположение каналов : Front: L C R, Side: L R, LFEЧастота : 48,0 КГцЧастота кадров : 31,250 кадров/сек (1536 spf)Битовая глубина : 16 битМетод сжатия : С потерямиРазмер потока : 366 Мбайт (3%)Заголовок : 384kbps 6ch AC-3 [Dublyaj]Язык : RussianDefault : ДаForced : Нет

Аудио #2Идентификатор : 3Формат : DTSФормат/Информация : Digital Theater SystemsРежим : 16Параметр Endianness формата : BigИдентификатор кодека : A_DTSПродолжительность : 2 ч. 13 м.Вид битрейта : ПостоянныйБитрейт : 1510 Кбит/секКаналы : 6 каналовРасположение каналов : Front: L C R, Side: L R, LFEЧастота : 48,0 КГцЧастота кадров : 93,750 кадра/сек (512 spf)Битовая глубина : 24 битМетод сжатия : С потерямиРазмер потока : 1,41 Гбайт (12%)Заголовок : 1510kbps 6ch DTS [Mnogogolosyy]Язык : RussianDefault : НетForced : Нет

Аудио #3Идентификатор : 4Формат : DTSФормат/Информация : Digital Theater SystemsРежим : 16Параметр Endianness формата : BigИдентификатор кодека : A_DTSПродолжительность : 2 ч. 13 м.Вид битрейта : ПостоянныйБитрейт : 1509 Кбит/секКаналы : 6 каналовРасположение каналов : Front: L C R, Side: L R, LFEЧастота : 48,0 КГцЧастота кадров : 93,750 кадра/сек (512 spf)Битовая глубина : 24 битМетод сжатия : С потерямиРазмер потока : 1,40 Гбайт (12%)Заголовок : 1510kbps 6ch DTSЯзык : EnglishDefault : НетForced : Нет

Аудио #4Идентификатор : 5Формат : AC-3Формат/Информация : Audio Coding 3Профиль формата : Dolby DigitalРасширение режима : CM (complete main)Параметр Endianness формата : BigИдентификатор кодека : A_AC3Продолжительность : 2 ч. 13 м.Вид битрейта : ПостоянныйБитрейт : 224 Кбит/секКаналы : 2 каналаРасположение каналов : Front: L RЧастота : 48,0 КГцЧастота кадров : 31,250 кадров/сек (1536 spf)Битовая глубина : 16 битМетод сжатия : С потерямиРазмер потока : 213 Мбайт (2%)Заголовок : 224kbps 2ch AC-3 [Commentary]Язык : EnglishDefault : НетForced : Нет

Текст #1Идентификатор : 6Формат : VobSubРежим смешивания : zlibИдентификатор кодека : S_VOBSUBИдентификатор кодека/Информация : Picture based subtitle format used on DVDsЯзык : RussianDefault : НетForced : Нет

Текст #2Идентификатор : 7Формат : VobSubРежим смешивания : zlibИдентификатор кодека : S_VOBSUBИдентификатор кодека/Информация : Picture based subtitle format used on DVDsЗаголовок : FullЯзык : EnglishDefault : НетForced : Нет

Текст #3Идентификатор : 8Формат : VobSubРежим смешивания : zlibИдентификатор кодека : S_VOBSUBИдентификатор кодека/Информация : Picture based subtitle format used on DVDsЯзык : EnglishDefault : НетForced : Нет

piratbit.ru

Скачать фильм Девятые врата через торрент в хорошем качестве бесплатно 720p by msltel] DUB

ОбщееУникальный идентификатор : 204626825510041358493696058082033727137 (0x99F1B16CDEA1854588D622532AFCF6A1)Полное имя : D:\Video\Девятые врата.1999.BDRip.720p by msltel.mkvФормат : MatroskaВерсия формата : Version 4 / Version 2Размер файла : 8,32 ГбайтПродолжительность : 2 ч. 13 м.Общий поток : 8944 Кбит/секНазвание фильма : Rip by msltelДата кодирования : UTC 2017-09-27 04:41:56Программа кодирования : mkvmerge v8.2.0 ('World of Adventure') 64bitБиблиотека кодирования : libebml v1.3.1 + libmatroska v1.4.2

ВидеоИдентификатор : 1Формат : AVCФормат/Информация : Advanced Video CodecПрофиль формата : [email protected]Параметр CABAC формата : ДаПараметр RefFrames формата : 9 кадровИдентификатор кодека : V_MPEG4/ISO/AVCПродолжительность : 2 ч. 13 м.Битрейт : 4844 Кбит/секШирина : 1280 пикселейВысота : 544 пикселяСоотношение сторон : 2,35:1Режим частоты кадров : ПостоянныйЧастота кадров : 23,976 (24000/1001) кадра/секЦветовое пространство : YUVСубдискретизация насыщенности : 4:2:0Битовая глубина : 8 битТип развёртки : ПрогрессивнаяБит/(Пиксели*Кадры) : 0.290Размер потока : 4,51 Гбайт (54%)Библиотека кодирования : x264 core 146 r2538 121396cНастройки программы : cabac=1 / ref=9 / deblock=1:-3:-2 / analyse=0x3:0x113 / me=umh / subme=11 / psy=1 / psy_rd=1.00:0.15 / mixed_ref=1 / me_range=32 / chroma_me=1 / trellis=2 / 8x8dct=1 / cqm=0 / deadzone=21,11 / fast_pskip=0 / chroma_qp_offset=-3 / threads=6 / lookahead_threads=1 / sliced_threads=0 / nr=0 / decimate=1 / interlaced=0 / bluray_compat=0 / constrained_intra=0 / bframes=7 / b_pyramid=2 / b_adapt=2 / b_bias=0 / direct=1 / weightb=1 / open_gop=0 / weightp=2 / keyint=230 / keyint_min=23 / scenecut=40 / intra_refresh=0 / rc_lookahead=40 / rc=crf / mbtree=0 / crf=18.0 / qcomp=0.60 / qpmin=0 / qpmax=69 / qpstep=4 / vbv_maxrate=62500 / vbv_bufsize=78125 / crf_max=0.0 / nal_hrd=none / filler=0 / ip_ratio=1.40 / pb_ratio=1.30 / aq=1:1.00Язык : EnglishDefault : ДаForced : Нет

Аудио #1Идентификатор : 2Формат : AC-3Формат/Информация : Audio Coding 3Параметр Endianness формата : BigИдентификатор кодека : A_AC3Продолжительность : 2 ч. 13 м.Вид битрейта : ПостоянныйБитрейт : 384 Кбит/секКаналы : 6 каналовРасположение каналов : Front: L C R, Side: L R, LFEЧастота : 48,0 КГцЧастота кадров : 31,250 кадров/сек (1536 SPF)Битовая глубина : 16 битМетод сжатия : С потерямиРазмер потока : 366 Мбайт (4%)Заголовок : DUBЯзык : RussianServiceKind/String : Complete MainDefault : ДаForced : Нет

Аудио #2Идентификатор : 3Формат : AC-3Формат/Информация : Audio Coding 3Параметр Endianness формата : BigИдентификатор кодека : A_AC3Продолжительность : 2 ч. 13 м.Вид битрейта : ПостоянныйБитрейт : 448 Кбит/секКаналы : 6 каналовРасположение каналов : Front: L C R, Side: L R, LFEЧастота : 48,0 КГцЧастота кадров : 31,250 кадров/сек (1536 SPF)Битовая глубина : 16 битМетод сжатия : С потерямиРазмер потока : 427 Мбайт (5%)Заголовок : MVOЯзык : RussianServiceKind/String : Complete MainDefault : НетForced : Нет

Аудио #3Идентификатор : 4Формат : AC-3Формат/Информация : Audio Coding 3Параметр Endianness формата : BigИдентификатор кодека : A_AC3Продолжительность : 2 ч. 13 м.Вид битрейта : ПостоянныйБитрейт : 192 Кбит/секКаналы : 2 каналаРасположение каналов : Front: L RЧастота : 48,0 КГцЧастота кадров : 31,250 кадров/сек (1536 SPF)Битовая глубина : 16 битМетод сжатия : С потерямиРазмер потока : 183 Мбайт (2%)Заголовок : MVO.HTBЯзык : RussianServiceKind/String : Complete MainDefault : НетForced : Нет

Аудио #4Идентификатор : 5Формат : AC-3Формат/Информация : Audio Coding 3Параметр Endianness формата : BigИдентификатор кодека : A_AC3Продолжительность : 2 ч. 13 м.Вид битрейта : ПостоянныйБитрейт : 192 Кбит/секКаналы : 2 каналаРасположение каналов : Front: L RЧастота : 48,0 КГцЧастота кадров : 31,250 кадров/сек (1536 SPF)Битовая глубина : 16 битМетод сжатия : С потерямиРазмер потока : 183 Мбайт (2%)Заголовок : MVO.TB3Язык : RussianServiceKind/String : Complete MainDefault : НетForced : Нет

Аудио #5Идентификатор : 6Формат : AC-3Формат/Информация : Audio Coding 3Параметр Endianness формата : BigИдентификатор кодека : A_AC3Продолжительность : 2 ч. 13 м.Вид битрейта : ПостоянныйБитрейт : 448 Кбит/секКаналы : 6 каналовРасположение каналов : Front: L C R, Side: L R, LFEЧастота : 48,0 КГцЧастота кадров : 31,250 кадров/сек (1536 SPF)Битовая глубина : 16 битМетод сжатия : С потерямиРазмер потока : 427 Мбайт (5%)Заголовок : DVO.HTB+Язык : RussianServiceKind/String : Complete MainDefault : НетForced : Нет

Аудио #6Идентификатор : 7Формат : AC-3Формат/Информация : Audio Coding 3Параметр Endianness формата : BigИдентификатор кодека : A_AC3Продолжительность : 2 ч. 13 м.Вид битрейта : ПостоянныйБитрейт : 192 Кбит/секКаналы : 2 каналаРасположение каналов : Front: L RЧастота : 48,0 КГцЧастота кадров : 31,250 кадров/сек (1536 SPF)Битовая глубина : 16 битМетод сжатия : С потерямиРазмер потока : 183 Мбайт (2%)Заголовок : DVO.TB6Язык : RussianServiceKind/String : Complete MainDefault : НетForced : Нет

Аудио #7Идентификатор : 8Формат : AC-3Формат/Информация : Audio Coding 3Параметр Endianness формата : BigИдентификатор кодека : A_AC3Продолжительность : 2 ч. 13 м.Вид битрейта : ПостоянныйБитрейт : 448 Кбит/секКаналы : 6 каналовРасположение каналов : Front: L C R, Side: L R, LFEЧастота : 48,0 КГцЧастота кадров : 31,250 кадров/сек (1536 SPF)Битовая глубина : 16 битМетод сжатия : С потерямиРазмер потока : 427 Мбайт (5%)Заголовок : Андрей ГавриловЯзык : RussianServiceKind/String : Complete MainDefault : НетForced : Нет

Аудио #8Идентификатор : 9Формат : AC-3Формат/Информация : Audio Coding 3Параметр Endianness формата : BigИдентификатор кодека : A_AC3Продолжительность : 2 ч. 13 м.Вид битрейта : ПостоянныйБитрейт : 448 Кбит/секКаналы : 6 каналовРасположение каналов : Front: L C R, Side: L R, LFEЧастота : 48,0 КГцЧастота кадров : 31,250 кадров/сек (1536 SPF)Битовая глубина : 16 битМетод сжатия : С потерямиРазмер потока : 427 Мбайт (5%)Заголовок : Юрий ЖивовЯзык : RussianServiceKind/String : Complete MainDefault : НетForced : Нет

Аудио #9Идентификатор : 10Формат : AC-3Формат/Информация : Audio Coding 3Параметр Endianness формата : BigИдентификатор кодека : A_AC3Продолжительность : 2 ч. 13 м.Вид битрейта : ПостоянныйБитрейт : 448 Кбит/секКаналы : 6 каналовРасположение каналов : Front: L C R, Side: L R, LFEЧастота : 48,0 КГцЧастота кадров : 31,250 кадров/сек (1536 SPF)Битовая глубина : 16 битМетод сжатия : С потерямиРазмер потока : 427 Мбайт (5%)Заголовок : Юрий СербинЯзык : RussianServiceKind/String : Complete MainDefault : НетForced : Нет

Аудио #10Идентификатор : 11Формат : AC-3Формат/Информация : Audio Coding 3Параметр Endianness формата : BigИдентификатор кодека : A_AC3Продолжительность : 2 ч. 13 м.Вид битрейта : ПостоянныйБитрейт : 448 Кбит/секКаналы : 6 каналовРасположение каналов : Front: L C R, Side: L R, LFEЧастота : 48,0 КГцЧастота кадров : 31,250 кадров/сек (1536 SPF)Битовая глубина : 16 битМетод сжатия : С потерямиРазмер потока : 427 Мбайт (5%)Заголовок : Владимир СонькинЯзык : RussianServiceKind/String : Complete MainDefault : НетForced : Нет

Аудио #11Идентификатор : 12Формат : AC-3Формат/Информация : Audio Coding 3Параметр Endianness формата : BigИдентификатор кодека : A_AC3Продолжительность : 2 ч. 13 м.Вид битрейта : ПостоянныйБитрейт : 448 Кбит/секКаналы : 6 каналовРасположение каналов : Front: L C R, Side: L R, LFEЧастота : 48,0 КГцЧастота кадров : 31,250 кадров/сек (1536 SPF)Битовая глубина : 16 битМетод сжатия : С потерямиРазмер потока : 427 Мбайт (5%)Заголовок : originalЯзык : EnglishServiceKind/String : Complete MainDefault : НетForced : Нет

Текст #1Идентификатор : 13Формат : UTF-8Идентификатор кодека : S_TEXT/UTF8Идентификатор кодека/Информация : UTF-8 Plain TextПродолжительность : 2 ч. 7 м.Битрейт : 59 бит/секElementCount : 1111Размер потока : 55,3 Кбайт (0%)Заголовок : русскиеЯзык : RussianDefault : НетForced : Нет

Текст #2Идентификатор : 14Формат : UTF-8Идентификатор кодека : S_TEXT/UTF8Идентификатор кодека/Информация : UTF-8 Plain TextПродолжительность : 2 ч. 2 м.Битрейт : 39 бит/секElementCount : 1022Размер потока : 35,4 Кбайт (0%)Заголовок : английскиеЯзык : EnglishDefault : НетForced : Нет

Меню00:00:00.000 : en:Chapter 0100:09:45.001 : en:Chapter 0200:18:08.671 : en:Chapter 0300:22:41.734 : en:Chapter 0400:32:16.226 : en:Chapter 0500:37:34.169 : en:Chapter 0600:44:55.860 : en:Chapter 0700:53:45.556 : en:Chapter 0801:02:16.232 : en:Chapter 0901:10:30.017 : en:Chapter 1001:21:04.276 : en:Chapter 1101:28:07.240 : en:Chapter 1201:34:33.334 : en:Chapter 1301:42:53.667 : en:Chapter 1401:51:42.696 : en:Chapter 1502:05:30.815 : en:Chapter 16

piratbit.ru

Скачать фильм Девятые врата через торрент в хорошем качестве бесплатно BDRip-AVC от R.G. Resident

GeneralUnique ID                                : 247215972532607515980544806545342439477 (0xB9FC107E08DEBFDF957730BA2421A035)Complete name                            : H:\The.Ninth.Gate.1999.BDRip.AVC.R.G.Resident.mkvFormat                                   : MatroskaFormat version                           : Version 4 / Version 2File size                                : 3.36 GiBDuration                                 : 2h 13mnOverall bit rate                         : 3 606 KbpsMovie name                               : The Ninth Gate (1999) BDRip-AVC by R.G. ResidentEncoded date                             : UTC 2015-11-28 22:08:23Writing application                      : mkvmerge v8.5.2 ('Crosses') 64bitWriting library                          : libebml v1.3.3 + libmatroska v1.4.4DURATION                                 : 02:02:17.913000000NUMBER_OF_FRAMES                         : 1022NUMBER_OF_BYTES                          : 36240_STATISTICS_WRITING_APP                  : mkvmerge v8.5.2 ('Crosses') 64bit_STATISTICS_WRITING_DATE_UTC             : 2015-11-28 22:08:23_STATISTICS_TAGS                         : BPS DURATION NUMBER_OF_FRAMES NUMBER_OF_BYTES

VideoID                                       : 1Format                                   : AVCFormat/Info                              : Advanced Video CodecFormat profile                           : [email protected] settings, CABAC                   : YesFormat settings, ReFrames                : 12 framesCodec ID                                 : V_MPEG4/ISO/AVCDuration                                 : 2h 13mnBit rate                                 : 2 772 KbpsWidth                                    : 1 040 pixelsHeight                                   : 440 pixelsDisplay aspect ratio                     : 2.35:1Frame rate                               : 23.976 fpsColor space                              : YUVChroma subsampling                       : 4:2:0Bit depth                                : 8 bitsScan type                                : ProgressiveBits/(Pixel*Frame)                       : 0.253Stream size                              : 2.52 GiB (75%)Title                                    : -Lexx-Writing library                          : x264 core 146 r2538 121396cEncoding settings                        : cabac=1 / ref=12 / deblock=1:-3:-3 / analyse=0x3:0x113 / me=umh / subme=11 / psy=1 / psy_rd=1.00:0.10 / mixed_ref=1 / me_range=32 / chroma_me=1 / trellis=2 / 8x8dct=1 / cqm=0 / deadzone=21,11 / fast_pskip=0 / chroma_qp_offset=-3 / threads=6 / lookahead_threads=2 / sliced_threads=0 / nr=0 / decimate=1 / interlaced=0 / bluray_compat=0 / constrained_intra=0 / bframes=12 / b_pyramid=2 / b_adapt=2 / b_bias=0 / direct=3 / weightb=1 / open_gop=0 / weightp=2 / keyint=240 / keyint_min=23 / scenecut=40 / intra_refresh=0 / rc=2pass / mbtree=0 / bitrate=2772 / ratetol=1.0 / qcomp=0.60 / qpmin=0 / qpmax=69 / qpstep=4 / cplxblur=20.0 / qblur=0.5 / ip_ratio=1.40 / pb_ratio=1.30 / aq=1:1.00Language                                 : EnglishDefault                                  : YesForced                                   : NoDURATION                                 : 02:13:14.779000000NUMBER_OF_FRAMES                         : 191683NUMBER_OF_BYTES                          : 2770418371_STATISTICS_WRITING_APP                  : mkvmerge v8.5.2 ('Crosses') 64bit_STATISTICS_WRITING_DATE_UTC             : 2015-11-28 22:08:23_STATISTICS_TAGS                         : BPS DURATION NUMBER_OF_FRAMES NUMBER_OF_BYTES

Audio #1ID                                       : 2Format                                   : AC-3Format/Info                              : Audio Coding 3Mode extension                           : CM (complete main)Codec ID                                 : A_AC3Duration                                 : 2h 13mnBit rate mode                            : ConstantBit rate                                 : 384 KbpsChannel(s)                               : 6 channelsChannel positions                        : Front: L C R, Side: L R, LFESampling rate                            : 48.0 KHzBit depth                                : 16 bitsCompression mode                         : LossyStream size                              : 366 MiB (11%)Title                                    : ДубляжLanguage                                 : RussianDefault                                  : YesForced                                   : No

Audio #2ID                                       : 3Format                                   : AC-3Format/Info                              : Audio Coding 3Mode extension                           : CM (complete main)Codec ID                                 : A_AC3Duration                                 : 2h 13mnBit rate mode                            : ConstantBit rate                                 : 448 KbpsChannel(s)                               : 6 channelsChannel positions                        : Front: L C R, Side: L R, LFESampling rate                            : 48.0 KHzBit depth                                : 16 bitsCompression mode                         : LossyStream size                              : 427 MiB (12%)Title                                    : ОригиналLanguage                                 : EnglishDefault                                  : NoForced                                   : No

Text #1ID                                       : 4Format                                   : UTF-8Codec ID                                 : S_TEXT/UTF8Codec ID/Info                            : UTF-8 Plain TextTitle                                    : FullLanguage                                 : RussianDefault                                  : NoForced                                   : No

Text #2ID                                       : 5Format                                   : UTF-8Codec ID                                 : S_TEXT/UTF8Codec ID/Info                            : UTF-8 Plain TextTitle                                    : FullLanguage                                 : EnglishDefault                                  : NoForced                                   : No

Menu00:00:00.000                             : :Chapter 0100:00:00.792                             : :Chapter 0200:00:30.572                             : :Chapter 0300:09:45.001                             : :Chapter 0400:18:08.670                             : :Chapter 0500:22:41.735                             : :Chapter 0600:32:16.225                             : :Chapter 0700:37:34.168                             : :Chapter 0800:44:55.859                             : :Chapter 0900:53:45.555                             : :Chapter 1001:02:16.232                             : :Chapter 1101:10:30.017                             : :Chapter 1201:21:04.276                             : :Chapter 1301:28:07.240                             : :Chapter 1401:34:33.334                             : :Chapter 1501:42:53.667                             : :Chapter 1601:51:42.696                             : :Chapter 1702:05:30.814                             : :Chapter 1802:13:14.569                             : :Chapter 19

piratbit.ru

Скачать фильм Девятые врата через торрент в хорошем качестве бесплатно BDRip

piratbit.ru

Раздают: 1 [ 0 KB/s ]
Размер: 2.18 GB | Добавлен: 7 лет 1 мес. назад | Торрент скачан:218 раз
Реклама Дарим 3000 рублей за регистрацию, не упусти свой шанс получить шикарный бонус!!!

19-09-2010 08:57 Девятые врата Скачать торрент  

[img=right]http:// СПАМ

Девятые врата / The Ninth Gate

Год выпуска: 1999Страна: США, Франция, ИспанияЖанр: Мистический триллерПродолжительность: 133 мин.Перевод: Профессиональный (многоголосый, закадровый)Тип релиза: Лицензия

Режиссер: Роман ПоланскиПродюссер: Роман ПоланскиСценарий: По роману Артуро Переса-Реверте «Клуб Дюма, или Тень Ришелье»

Бюджет: $38 000 000Премьера в мире: 25 августа 1999

R

-Лицам до 17 лет обязательно присутствие взрослогоМировой рейтинг IMDB 6.60 (50 469)

В ролях: Джонни Депп — Дин КорсоФрэнк Ланджелла — Борис БалканЛена Олин — Лиана ТелферЭммануэль Сенье — девушка (Вавилонская блудница)Барбара Джеффорд — баронесса КесслерДжек Тейлор — Виктор ФаргасХосе Лопес Родеро — Пабло Сениса, Педро Сениса(Ceniza-пепел(исп)), братья-близнецы, испанские реставраторы книгТони Амони — телохранитель ЛианыДжеймс Руссо — БерниУилли Холт — Эндрю ТелферАллен Гарфилд — УиткинЖак Дакмин — старикДжо Шеридан — сын старикаРебекка Поли — жена сынаКатрин Бенгиги — консьержка

Описание: Девять рисунков, сделанных, как гласит легенда, рукой Люцифера, упрятаны в трех идентичных печатных изданиях под названием «Девять врат в царство призраков» 1666 года, затерявшихся в библиотеках частных коллекционеров. В них зашифрована головоломка, разгадав которую, можно пройти сквозь девять адовых ворот и вызвать на грешную землю самого Князя Тьмы. Богатый коллекционер книг по ведьмоведению и демонологии из США, Борис Балкан (Фрэнк Ланджелла) нанимает эксперта и книготорговца Дина Корсо (Джонни Депп), чтобы тот сравнил имеющуюся у Балкана книгу с двумя другими экземплярами и установил подлинность одного из них. Во время выполнения задания Корсо сталкивается с таинственными убийствами владельцев книг и других, ни в чём не повинных людей. После нескольких неудачных покушений на самого Корсо, ему становится ясно, что всё это происходит не без вмешательства Лианы Телфер (Лена Олин) — жены таинственно умершего антиквара, который за день до смерти и продал свой экземпляр «Девятых врат» Балкану. Интересно, что события фильма повторяют некоторые сюжеты, изображённые на гравюрах книги. Так, например, один из рисунков изображает повешенного за ногу мужчину (XII карта Старших Арканов Таро — Повешенный) — именно в таком виде Корсо находит своего друга Берни (Джеймс Руссо), убитого за то, что он хранил у себя в книжной лавке экземпляр «Девятых врат». Корсо выходит на сатанистов, в чем ему помогает зеленоглазая незнакомка (Эммануэль Сенье). Она выручает его в щекотливых ситуациях, подчас проявляя сверхъестественные способности. Реставраторы-переплетчики Пабло и Педро Сенис говорят Корсо, что три гравюры из девяти в каждой книге писал Люцифер. В этом и заключалось его соавторство и ценность книг. Для проведения мистического ритуала открытия врат Ада необходимо собрать девять уникальных гравюр из трех книг. Балкан получает все гравюры и пытается провести обряд, но гибнет, так как одна из гравюр оказывается фальшивой. Оригинал находился у близнецов Пабло и Педро Сенис (Хосе Лопес Родеро), реставраторов-переплётчиков. На подлинной гравюре изображена Вавилонская блудница, въезжающая верхом на семиглавом звере в ворота замка, освещенного яркими лучами света (с подписью «Теперь я знаю, что из тьмы идет свет»). Визуальная схожесть блудницы с зеленоглазой незнакомкой, а также изображенного на гравюре замка с найденными археологическими руинами вселяют в Корсо надежду на возможность успешного проведения обряда и прохождения всех девяти врат Ада. Фильм заканчивается сценой где Корсо на рассвете направляется к руинам замка, где Балкан провел неудачный обряд. Над башней поднимается луч солнца, а перед Корсо открываются двери откуда виден яркий свет…

Качество: BDRipФормат: AVIВидео кодек: DivXАудио кодек: AC3Видео: 720x304 (2.37:1), 23.976 fps, XviD build 50 ~1287 kbps avg, 0.25 bit/pixelАудио: 48 kHz, AC3 Dolby Digital, 3/2 (L,C,R,l,r) LFE ch, ~448 kbps

Скачать Девятые врата через торрент http://www.kinopoisk.ru/rating/11637.gif Скачать фильм Девятые врата через торрент бесплантно в хорошем качестве Описание: Девять рисунков, сделанных, как гласит легенда, рукой Люцифера, упрятаны в трех идентичных печатных изданиях под названием ... 2010-09-19 09:30 10 10 1

Loading...

Loading...

% Раздел Тема Автор DL S | L
Фильмы [HD 720p, 1080p] (Хороший звук DUB, MVO) [ 21.79 GB ] Девятые врата / The Ninth Gate [1999 BDRip 1080p by msltel] DUB 3 x MVO 2 x DVO 4 x AVO msltel Скачать
Фильмы [HD 720p, 1080p] (Хороший звук DUB, MVO) [ 8.32 GB ] Девятые врата / The Ninth Gate [1999 BDRip 720p by msltel] DUB 3 x MVO 2 x DVO 4 x AVO msltel Скачать
Фильмы [HD 720p, 1080p] (Хороший звук DUB, MVO) [ 7.76 GB ] Девятые врата / The Ninth Gate [1999 BDRip 1080p] DUB+MVO bober100 Скачать
R.G.Resident - Фильмы, Видео [ 3.36 GB ] Девятые врата / The Ninth Gate [1999 BDRip-AVC от R.G. Resident] -Lexx- Скачать
Фильмы до 2000 г. [ 1.46 GB ] Девятые врата / The Ninth Gate [1999 DVDRip DUB ] sasha2345678 Скачать
Фильмы [HD 720p, 1080p] (Хороший звук DUB, MVO) [ 7.39 GB ] Девятые врата / The Ninth Gate [1999 BDRip 720p] Kavasar Скачать
Фильмы [HD 720p, 1080p] (Хороший звук DUB, MVO) [ 11.76 GB ] Девятые врата / The Ninth Gate [1999 BDRip 1080p] DUB + MVO Arhangell Скачать

Последний раз редактировалось: CJ_Kastaneda (2010-09-19 16:35), всего редактировалось 1 раз

Рекламный пират

19-09-2010 11:05 Девятые врата Скачать торрент  

Размер постера не должен при вешать 700*700 пикселей.Исправите пишите в лс.

01-10-2010 13:18 Девятые врата Скачать торрент  

Дайте скорости плз!

Дорогой пользователь! Огромная просьба, поблагодарите релизера, оцените раздачу и оставьте свои комментарий, если Вы скачали Девятые врата через торрент бесплатно! Внесите свою лепту в развитие PiratBit!

Комментировать посты могут только пользователи прошедшие не сложную регистрацию

Девятые врата через торрент Скачать бесплатно Девятые врата Девятые врата скачать торрент Девятые врата смотреть онлайн Cкачать фильм Девятые врата бесплатно Девятые врата скачать торрент в хорошем качестве Девятые врата смотреть онлайн бесплатно в хорошем качестве

Вы не можете начинать темыВы не можете отвечать на сообщенияВы не можете редактировать свои сообщенияВы не можете удалять свои сообщенияВы не можете голосовать в опросахВы не можете прикреплять файлы к сообщениямВы можете скачивать файлы


Смотрите также