Скачать день независимости 2 через торрент в хорошем качестве hd 1080


Скачать торрент День независимости: Возрождение / Independence Day: Resurgence (2016) WEBRip 1080р

День независимости: Возрождение / Independence Day: Resurgence

Страна: США Производство: 20th Century Fox Film CorporationГод выпуска: 2016Жанр: фантастика, боевик, приключенияПродолжительность: 01:58:29

Режиссер: Роланд ЭммерихАвторы сценария: Николас Райт, Джеймс А. Вудс, Дин Девлин

В ролях: Майка Монро, Джои Кинг, Лиам Хемсворт, Джефф Голдблюм, Уильям Фихтнер, Джесси Ашер, Билл Пуллман, Вивика А. Фокс

Описание: Используя инопланетные технологии, жители Земли создали специальную программу по защите планеты. Но ничего не может нас спасти от нового, еще более разрушительного и масштабного инопланетного вторжения — только смелость нескольких героев, которые единственные могут спасти наш мир от уничтожения...

Перевод: Профессиональный (полное дублирование) | чистый звукСубтитры: корейские (вшитые)

Качество: WEBRip 1080рФормат: МКVВидео кодек: AVCАудио кодек: АС3Видео: 1920x1080 (16:9), 29.970 fps, MPEG-4 AVC ~4 465 kbps avgАудио: 48.0 kHz, AC3 Dolby Digital, 2/0 (L,R) ch, ~384 kbps

Дата премьеры (мир): 22 июня 2016Дата премьеры (РФ): 23 июня 2016, «Двадцатый Век Фокс СНГ»

ПРИМЕЧАНИЕ: ПРИСУТСТВУЕТ РЕКЛАМА!

Media Info

General Уникальный идентификатор : 213502147340141128983488421619333510116 (0xA09F04937A5CB515B58552DB9EFAB3E4) Полное имя : Den.NezaViSimosTi.2O16.D.WEBRip.1O8Op.mkv Формат : Matroska Версия формата : Version 2 Размер файла : 4,09 Гбайт Продолжительность : 1 ч. 58 м. Режим общего битрейта : Постоянный Общий поток : 4947 Кбит/сек Дата кодирования : UTC 2016-08-19 17:35:47 Программа кодирования : mkvmerge v8.3.0 ('Over the Horizon') 64bit Библиотека кодирования : libebml v1.3.1 + libmatroska v1.4.2

Видео Идентификатор : 1 Формат : AVC Формат/Информация : Advanced Video Codec Профиль формата : [email protected] Параметр CABAC формата : Да Параметр ReFrames формата : 4 кадра Идентификатор кодека : V_MPEG4/ISO/AVC Продолжительность : 1 ч. 58 м. Вид битрейта : Постоянный Битрейт : 4465 Кбит/сек Номинальный битрейт : 5000 Кбит/сек Ширина : 1920 пикселей Высота : 1080 пикселей Соотношение сторон : 16:9 Режим частоты кадров : Постоянный Частота кадров : 29,970 (30000/1001) кадров/сек Стандарт вещания : Component Цветовое пространство : YUV Субдискретизация насыщенности : 4:2:0 Битовая глубина : 8 бит Тип развёртки : Прогрессивная Бит/(Пиксели*Кадры) : 0.072 Размер потока : 3,70 Гбайт (90%) Default : Да Forced : Нет Цветовой диапазон : Limited Основные цвета : BT.709 Характеристики трансфера : BT.709 Коэффициенты матрицы : BT.709

Аудио Идентификатор : 2 Формат : AC-3 Формат/Информация : Audio Coding 3 Расширение режима : CM (complete main) Параметр Endianness формата : Big Идентификатор кодека : A_AC3 Продолжительность : 1 ч. 58 м. Вид битрейта : Постоянный Битрейт : 384 Кбит/сек Каналы : 2 канала Расположение каналов : Front: L R Частота : 48,0 КГц Частота кадров : 31,250 кадров/сек (1536 spf) Метод сжатия : С потерями Размер потока : 325 Мбайт (8%) Язык : Russian Default : Да Forced : Нет

krutor.org

Скачать торрент День независимости: Возрождение / Independence Day: Resurgence (2016) BDRip 1080p | 3D-Video | halfOU

«У нас было двадцать лет на подготовку. У них тоже»

Информация о фильмеНазвание: День независимости: ВозрождениеОригинальное название: Independence Day: Resurgence Год выхода: 2016Жанр: Фантастика, боевик, приключенияРежиссер: Роланд ЭммерихРоли озвучивают: Лиам Хемсворт, Джефф Голдблюм, Джесси Ашер, Билл Пуллман, Майка Монро, Села Уорд, Уильям Фихтнер, Джадд Хёрш, Брент Спайнер, Патрик Ст. Эсприт

О фильме: Используя инопланетные технологии, жители Земли создали специальную программу по защите планеты. Но ничего не может нас спасти от нового, еще более разрушительного и масштабного инопланетного вторжения — только смелость нескольких героев, которые единственные могут спасти наш мир от уничтожения.

Знаете ли вы, что...

• На волне успеха фильма «День независимости» (1996) кинокомпания «20th Century Fox» заплатила Дину Девлину кругленькую сумму, чтобы тот написал сценарий к сиквелу. Девлин сценарий написал, но вместо того, чтобы предоставить его кинокомпании, вернул аванс. Ему показалось, что написанный им сценарий сиквела не дотягивает до уровня первого фильма. Лишь спустя почти 15 лет Девлин вновь встретился с Роландом Эммерихом и сделал вторую попытку, которая, как они оба решили, увенчалась успехом. • В среду 4 марта 2015 года режиссёр Роланд Эммерих подтвердил, что в фильме «День независимости: Возрождение» (2016) Джефф Голдблюм вновь сыграет Дэвида Левинсона. • В этом сиквеле Джесси Ашер исполнит роль сына персонажа, сыгранного в первом фильме Уиллом Смитом, а Лиам Хемсворт сыграет зятя бывшего президента, чью роль исполнил Билл Пуллман. • Кинокомпания «20th Century Fox» официально дала старт проекту 27 ноября 2014 года. • Это второй фильм, над которым вместе работают режиссёр Роланд Эммерих и актриса Села Уорд. Первым стал фильм-катастрофа «Послезавтра» (2004). • Съёмки некоторых сцен проходили на высохшем солёном озере Бонневилль на северо-западе штата Юта. Пейзажи высохшего озера можно увидеть и в других фильмах: «Воздушная тюрьма» Саймона Уэста (1997), «Джон Картер» Эндрю Стэнтона (2012), «Пираты Карибского моря: На краю Света» Гора Вербински (2007), «Древо жизни» Терренса Малика (2010), «Самый быстрый Indian» Роджера Дональдсона (2005) и «День независимости» (1996). • Это первый сиквел в режиссёрской карьере Роланда Эммериха. • Фильм снят в анаморфированном киноформате (это разновидность широкоэкранных кинематографических систем, использующих при съёмке и проекции кинофильма оптическое анаморфированное изображение). Первый фильм «День независимости» (1996) был снят в формате «Супер-35» (кинематографическая система, предусматривающая использование стандартной 35-мм киноплёнки и сферической киносъёмочной оптики). • Лиам Хемсворт отверг предложение сыграть в фильме Ларса фон Триера «Нимфоманка: Часть 1» (2013) и «Нимфоманка: Часть 2» (2013), где ему была уготована роль любовника Джо в исполнении Шарлотты Генсбур. Хемсворт и Генсбур появятся вместе в фильме «День независимости: Возрождение». • Полковник Хиллер погиб во время испытательного полёта на гибридном истребителе пришельцев за несколько лет до событий, о которых рассказано во втором фильме. Его доблесть в отражении первого нашествия пришельцев в 1996 году, когда он уничтожил вражеский звездолёт-матку, сделала Хиллера любимцем всей планеты. У него осталась жена Жасмин и сын Дилан. • Работа над продолжением фильма «День независимости» (1996) началась вскоре после его выхода в прокат. Связать продолжение с первым фильмом оказалось непростой задачей, ведь авторы фильма постарались донести до зрителя мысль, что обладавшая коллективным разумом цивилизация пришельцев погибла. В качестве одного из вариантов рассматривалась мысль о внесении неких изменений в первый фильм, чтобы логически обосновать сюжет сиквела. Если верить произошедшей в 1996 году утечке в прессу, во втором фильме Дилан Хиллер во главе небольшого отряда применяет инопланетные технологии и вылетает навстречу второй волне инопланетного нашествия, в то время как президент Уитмор продолжает поддерживать с инопланетным разумом телепатическую связь. По неподтверждённым данным, Дин Девлин и Роланд Эммерих отказались заниматься сиквелом после ссоры с руководством кинокомпании, когда телеканал «Fox TV» положил конец их проекту «Гость». • Роль капитана Стивена Хиллера вновь предназначалась Уиллу Смиту, однако кинокомпания '20th Century Fox' решила отказаться от его услуг, когда актёр запросил за съёмки в двух сиквелах гонорар в $50 миллионов. В интервью газете 'Daily News' в июне 2013 года Роланд Эммерих подтвердил отсутствие Смита в сиквеле, но сказал, что Дэвида Левинсона вновь сыграет Джефф Голдблюм. Майка Монро сменила Мэй Уитман в роли Патрисии Уитмор. Уитман это обстоятельство никак не прокомментировала. Она просто ре-твитнула на своей страничке статью под названием 'Об отсутствии Мэй Уитман в актёрском составе 'Дня независимости 2', в которой намекалось, что к ней даже не обращались с предложением вновь сыграть персонаж из первого фильма. Не обратились с подобным предложением авторы фильма и к Россу Бэгли, который в фильме 'День независимости' (1996) сыграл роль Дилана Дюброу. • Джесси Ашер сыграл в фильме роль приёмного сына персонажа Уилла Смита, а Лиам Хемсворт - роль зятя бывшего президента США в исполнении Билла Пуллмана. • Джефф Голдблюм, Билл Пуллман, Джадд Хёрш, Вивика А. Фокс и Брент Спайнер - единственные из актёрского состава фильма Роланда Эммериха «День независимости» (1996), кто снова сыграл тех же персонажей в сиквеле 2016 года (соответственно Дэвида Левинсона, Уитмора, Джулиуса Левинсона, Дюброу-Хиллер и Окуна). • Сьюзан Сарандон нашла присланный ей сценарий невразумительным и от роли в фильме отказалась. • Бурю негодования в социальных сетях произвело объявление, что роль дочери персонажа Билла Пуллмана, которую в фильме «День независимости» (1996) сыграла Мэй Уитман, в сиквеле будет исполнять Майка Монро. Подруга Уитман актриса и певица Анна Кендрик была в «Твиттере» особенно красноречива. Согласно общепринятому мнению, авторы фильма решили, что Уитман для появления в сиквеле «недостаточно хороша». Сама Уитман, чья актёрская карьера началась ещё в 1994 году и включает в себя успешную комедию Эри Сандел «Простушка» (2015), от комментариев отказывается. • В связи со смертью Джеймса Ребхорна в 2012 году и Роберта Лоджа в 2015, исполнивших в фильме «День независимости» (1996) роли Альберта Нимзицки и Уильяма Грэя, этих персонажей в сиквеле не будет. • Дэвид Арнольд, автор музыки к фильму Роланда Эммериха «День независимости» (1996), написал в «Твиттере», что сотрудничество при работе над фильмом «День независимости: Возрождение» (2016) ему не предлагали, а композиторы, нанятые для работы в сиквеле, могут воспользоваться написанной им музыкой к первому фильму, раз уж правами на неё всё равно владеет студия.

Страна: СШАСтудия: 20th Century Fox Film CorporationПродолжительность: 01:59:44 Перевод: Профессиональный (полное дублирование)[BD EUR]

ФайлКачество: BDRip 1080p Кодек: x264Видео: AVC / 1920x1080p / 16:9 / 23,976 fps / 7037 Кbps / 0.142 bit/pixАудио 1: Русский / DTS / 48 KHz / 5.1 ch / 768 KbpsАудио 2: Украинский / AC3 / 48 KHz / 5.1 ch / 448 Kbps Аудио 3: Английский / DTS-ES / 48 KHz / 5.1 ch / 1509 Kbps

Субтитры : Вшитые (softsub):#1 - Русские Форсированные (включены по умолчанию)#2 - Русские #3 - English Forced#4 - English

Формат 3D: Half OverUnder / Вертикальная анаморфная стереопараПорядок ракурсов: левый ракурс первый

Инфо-файл

Общее Уникальный идентификатор : 181222723978502135171801754757384893193 (0x88563A215949A716B8052D443313F309) Полное имя : D:TorrentsЗавершенныеIndependence Day 3D by D_I_A_B_L_O.mkv Формат : Matroska Версия формата : Version 4 / Version 2 Размер файла : 8,33 Гбайт Продолжительность : 1 ч. 59 м. Общий поток : 9961 Кбит/сек Название фильма : День независимости: Возрождение в 3D by D_I_A_B_L_O Дата кодирования : UTC 2016-10-10 13:20:19 Программа кодирования : mkvmerge v7.2.0 ('On Every Street') 64bit built on Sep 13 2014 15:52:10 Библиотека кодирования : libebml v1.3.0 + libmatroska v1.4.1 _STATISTICS_WRITING_APP : mkvmerge v7.2.0 ('On Every Street') 64bit built on Sep 13 2014 15:52:10 _STATISTICS_WRITING_DATE_UTC : 2016-10-10 13:20:19 _STATISTICS_TAGS : BPS DURATION NUMBER_OF_FRAMES NUMBER_OF_BYTES DURATION : 01:49:45.417000000 NUMBER_OF_FRAMES : 1725 NUMBER_OF_BYTES : 83480

Видео Идентификатор : 1 Формат : AVC Формат/Информация : Advanced Video Codec Профиль формата : [email protected] Параметр CABAC формата : Да Параметр ReFrames формата : 4 кадра Идентификатор кодека : V_MPEG4/ISO/AVC Продолжительность : 1 ч. 59 м. Битрейт : 7037 Кбит/сек Ширина : 1920 пикселей Высота : 1080 пикселей Соотношение сторон : 16:9 Режим частоты кадров : Постоянный Частота кадров : 23,976 кадра/сек Цветовое пространство : YUV Субдискретизация насыщенности : 4:2:0 Битовая глубина : 8 бит Тип развёртки : Прогрессивная Бит/(Пиксели*Кадры) : 0.142 Размер потока : 5,89 Гбайт (71%) Заголовок : День независимости: Возрождение в 3D by D_I_A_B_L_O Библиотека кодирования : x264 core 148 r2638 7599210 Настройки программы : cabac=1 / ref=4 / deblock=1:-3:-3 / analyse=0x3:0x133 / me=umh / subme=10 / psy=1 / psy_rd=1.05:0.00 / mixed_ref=1 / me_range=32 / chroma_me=1 / trellis=2 / 8x8dct=1 / cqm=0 / deadzone=21,11 / fast_pskip=1 / chroma_qp_offset=-2 / threads=12 / lookahead_threads=2 / sliced_threads=0 / nr=0 / decimate=0 / interlaced=0 / bluray_compat=0 / constrained_intra=0 / bframes=8 / b_pyramid=2 / b_adapt=2 / b_bias=0 / direct=3 / weightb=1 / open_gop=0 / weightp=2 / keyint=240 / keyint_min=23 / scenecut=40 / intra_refresh=0 / rc_lookahead=60 / rc=crf / mbtree=1 / crf=14.5 / qcomp=0.60 / qpmin=0 / qpmax=69 / qpstep=4 / vbv_maxrate=62500 / vbv_bufsize=78125 / crf_max=0.0 / nal_hrd=none / filler=0 / ip_ratio=1.40 / aq=1:0.80 Default : Да Forced : Нет

Аудио #1 Идентификатор : 2 Формат : DTS Формат/Информация : Digital Theater Systems Режим : 16 Параметр Endianness формата : Big Идентификатор кодека : A_DTS Продолжительность : 1 ч. 59 м. Вид битрейта : Постоянный Битрейт : 768 Кбит/сек Каналы : 6 каналов Расположение каналов : Front: L C R, Side: L R, LFE Частота : 48,0 КГц Битовая глубина : 24 бит Метод сжатия : С потерями Размер потока : 658 Мбайт (8%) Заголовок : Дубляж Язык : Russian Default : Да Forced : Нет

Аудио #2 Идентификатор : 3 Формат : AC-3 Формат/Информация : Audio Coding 3 Расширение режима : CM (complete main) Параметр Endianness формата : Big Идентификатор кодека : A_AC3 Продолжительность : 1 ч. 59 м. Вид битрейта : Постоянный Битрейт : 448 Кбит/сек Каналы : 6 каналов Расположение каналов : Front: L C R, Side: L R, LFE Частота : 48,0 КГц Метод сжатия : С потерями Размер потока : 384 Мбайт (4%) Заголовок : Дубляж Язык : Ukrainian Default : Нет Forced : Нет

Аудио #3 Идентификатор : 4 Формат : DTS Формат/Информация : Digital Theater Systems Профиль формата : ES Режим : 16 Параметр Endianness формата : Big Идентификатор кодека : A_DTS Продолжительность : 1 ч. 59 м. Вид битрейта : Постоянный Битрейт : 1509 Кбит/сек Каналы : 6 каналов Расположение каналов : Front: L C R, Side: L R, LFE Частота : 48,0 КГц Битовая глубина : 24 бит Метод сжатия : С потерями Размер потока : 1,26 Гбайт (15%) Заголовок : Оригинал Язык : English Default : Нет Forced : Нет

Текст #1 Идентификатор : 5 Формат : UTF-8 Идентификатор кодека : S_TEXT/UTF8 Идентификатор кодека/Информация : UTF-8 Plain Text Заголовок : forced Язык : Russian Default : Да Forced : Нет

Текст #2 Идентификатор : 6 Формат : UTF-8 Идентификатор кодека : S_TEXT/UTF8 Идентификатор кодека/Информация : UTF-8 Plain Text Язык : Russian Default : Нет Forced : Нет

Текст #3 Идентификатор : 7 Формат : UTF-8 Идентификатор кодека : S_TEXT/UTF8 Идентификатор кодека/Информация : UTF-8 Plain Text Заголовок : forced Язык : English Default : Нет Forced : Нет

Текст #4 Идентификатор : 8 Формат : UTF-8 Идентификатор кодека : S_TEXT/UTF8 Идентификатор кодека/Информация : UTF-8 Plain Text Язык : English Default : Нет Forced : Нет

Меню 00:00:00.000 : en:1 - 0:00:00 00:05:37.336 : en:2 - 0:05:37 00:09:15.471 : en:3 - 0:09:15 00:14:06.720 : en:4 - 0:14:07 00:19:40.470 : en:5 - 0:19:40 00:22:59.002 : en:6 - 0:22:59 00:27:10.253 : en:7 - 0:27:10 00:31:37.645 : en:8 - 0:31:38 00:39:11.974 : en:9 - 0:39:12 00:43:41.118 : en:10 - 0:43:41 00:47:46.613 : en:11 - 0:47:47 00:52:32.190 : en:12 - 0:52:32 00:59:10.255 : en:13 - 0:59:10 01:02:00.133 : en:14 - 1:02:00 01:07:12.069 : en:15 - 1:07:12 01:09:54.815 : en:16 - 1:09:55 01:13:11.720 : en:17 - 1:13:12 01:18:27.452 : en:18 - 1:18:27 01:22:45.502 : en:19 - 1:22:46 01:27:51.808 : en:20 - 1:27:52 01:32:36.717 : en:21 - 1:32:37 01:39:38.138 : en:22 - 1:39:38 01:47:20.142 : en:23 - 1:47:20 01:50:36.713 : en:24 - 1:50:37 01:59:43.926 : en:25 - 1:59:44

krutor.org

Скачать торрент День независимости: Возрождение / Independence Day: Resurgence (2016) BDRip 1080p от Ash61 | 3D-Video

День независимости: ВозрождениеIndependence Day: Resurgence«У нас было двадцать лет на подготовку. У них тоже»Год выпуска: 2016Страна: США (20th Century Fox, TSG Entertainment, Centropolis / Electric Entertainment)Жанр: Фантастика, Боевик, ПриключенияПродолжительность: 01:59:43

Перевод: Профессиональный дублированный (Лицензия)

Режиссер: Роланд Эммерих / Roland Emmerich

Роли исполняли (дублировали):

Jake Morrison - Лиам Хемсворт (Александр Разбаш) David Levinson - Джефф Голдблюм (Давид Бродский) Dylan Hiller - Джесси Ашер (Глеб Гаврилов) President Whitmore - Билл Пуллман (Валентин Морозов) Patricia Whitmore - Майка Монро (Екатерина Тихомирова) President Lanford - Села Уорд (Регина Щукина) General Adams - Уильям Фихтнер (Геннадий Меньшиков) Julius Levinson - Джадд Хёрш (Юрий Лазарев) Dr. Brakish Okun - Брент Спайнер (Алексей Макрецкий) Secretary of Defense Tanner - Патрик Ст. Эсприт (Максим Сергеев) Jasmine Hiller - Вивика А. Фокс (Юлия Зоркина) Rain Lao - Анджела Бейби (Елизавета Захарьева) Catherine Marceaux - Шарлотта Генсбур (Марианна Семенова)

Описание: Используя инопланетные технологии, жители Земли создали специальную программу по защите планеты. Но ничего не может нас спасти от нового, еще более разрушительного и масштабного инопланетного вторжения — только смелость нескольких героев, которые единственные могут спасти наш мир от уничтожения.Доп. инфо: Для сомневающихся в достаточности битрейта видео, лог кодирования внизу.

Знаете ли вы, что...

  • На волне успеха фильма «День независимости» (1996) кинокомпания «20th Century Fox» заплатила Дину Девлину кругленькую сумму, чтобы тот написал сценарий к сиквелу. Девлин сценарий написал, но вместо того, чтобы предоставить его кинокомпании, вернул аванс. Ему показалось, что написанный им сценарий сиквела не дотягивает до уровня первого фильма. Лишь спустя почти 15 лет Девлин вновь встретился с Роландом Эммерихом и сделал вторую попытку, которая, как они оба решили, увенчалась успехом.
  • В среду 4 марта 2015 года режиссёр Роланд Эммерих подтвердил, что в фильме «День независимости: Возрождение» (2016) Джефф Голдблюм вновь сыграет Дэвида Левинсона.
  • Кинокомпания «20th Century Fox» официально дала старт проекту 27 ноября 2014 года.
  • Это второй фильм, над которым вместе работают режиссёр Роланд Эммерих и актриса Села Уорд. Первым стал фильм-катастрофа «Послезавтра» (2004).
  • Съёмки некоторых сцен проходили на высохшем солёном озере Бонневилль на северо-западе штата Юта. Пейзажи высохшего озера можно увидеть и в других фильмах: «Воздушная тюрьма» Саймона Уэста (1997), «Джон Картер» Эндрю Стэнтона (2012), «Пираты Карибского моря: На краю Света» Гора Вербински (2007), «Древо жизни» Терренса Малика (2010), «Самый быстрый Indian» Роджера Дональдсона (2005) и «День независимости» (1996).
  • Это первый сиквел в режиссёрской карьере Роланда Эммериха.
  • Фильм снят в анаморфированном киноформате (это разновидность широкоэкранных кинематографических систем, использующих при съёмке и проекции кинофильма оптическое анаморфированное изображение). Первый фильм «День независимости» (1996) был снят в формате «Супер-35» (кинематографическая система, предусматривающая использование стандартной 35-мм киноплёнки и сферической киносъёмочной оптики).
  • Лиам Хемсворт отверг предложение сыграть в фильме Ларса фон Триера «Нимфоманка: Часть 1» (2013) и «Нимфоманка: Часть 2» (2013), где ему была уготована роль любовника Джо в исполнении Шарлотты Генсбур. Хемсворт и Генсбур появятся вместе в фильме «День независимости: Возрождение».
  • Полковник Хиллер погиб во время испытательного полёта на гибридном истребителе пришельцев за несколько лет до событий, о которых рассказано во втором фильме. Его доблесть в отражении первого нашествия пришельцев в 1996 году, когда он уничтожил вражеский звездолёт-матку, сделала Хиллера любимцем всей планеты. У него осталась жена Жасмин и сын Дилан.
  • Работа над продолжением фильма «День независимости» (1996) началась вскоре после его выхода в прокат. Связать продолжение с первым фильмом оказалось непростой задачей, ведь авторы фильма постарались донести до зрителя мысль, что обладавшая коллективным разумом цивилизация пришельцев погибла. В качестве одного из вариантов рассматривалась мысль о внесении неких изменений в первый фильм, чтобы логически обосновать сюжет сиквела. Если верить произошедшей в 1996 году утечке в прессу, во втором фильме Дилан Хиллер во главе небольшого отряда применяет инопланетные технологии и вылетает навстречу второй волне инопланетного нашествия, в то время как президент Уитмор продолжает поддерживать с инопланетным разумом телепатическую связь. По неподтверждённым данным, Дин Девлин и Роланд Эммерих отказались заниматься сиквелом после ссоры с руководством кинокомпании, когда телеканал «Fox TV» положил конец их проекту «Гость».
  • Роль капитана Стивена Хиллера вновь предназначалась Уиллу Смиту, однако кинокомпания «20th Century Fox» решила отказаться от его услуг, когда актёр запросил за съёмки в двух сиквелах гонорар в $50 миллионов. В интервью газете «Daily News» в июне 2013 года Роланд Эммерих подтвердил отсутствие Смита в сиквеле, но сказал, что Дэвида Левинсона вновь сыграет Джефф Голдблюм. Майка Монро сменила Мэй Уитман в роли Патрисии Уитмор. Уитман это обстоятельство никак не прокомментировала. Она просто ре-твитнула на своей страничке статью под названием «Об отсутствии Мэй Уитман в актёрском составе „Дня независимости 2“, в которой намекалось, что к ней даже не обращались с предложением вновь сыграть персонаж из первого фильма. Не обратились с подобным предложением авторы фильма и к Россу Бэгли, который в фильме „День независимости“ (1996) сыграл роль Дилана Дюброу.
  • Джесси Ашер сыграл в фильме роль приёмного сына персонажа Уилла Смита, а Лиам Хемсворт — роль зятя бывшего президента США в исполнении Билла Пуллмана.
  • Джефф Голдблюм, Билл Пуллман, Джадд Хёрш, Вивика А. Фокс и Брент Спайнер — единственные из актёрского состава фильма Роланда Эммериха «День независимости» (1996), кто снова сыграл тех же персонажей в сиквеле 2016 года (соответственно Дэвида Левинсона, Уитмора, Джулиуса Левинсона, Дюброу-Хиллер и Окуна).
  • Сьюзан Сарандон нашла присланный ей сценарий невразумительным и от роли в фильме отказалась.
  • Бурю негодования в социальных сетях произвело объявление, что роль дочери персонажа Билла Пуллмана, которую в фильме «День независимости» (1996) сыграла Мэй Уитман, в сиквеле будет исполнять Майка Монро. Подруга Уитман актриса и певица Анна Кендрик была в «Твиттере» особенно красноречива. Согласно общепринятому мнению, авторы фильма решили, что Уитман для появления в сиквеле «недостаточно хороша». Сама Уитман, чья актёрская карьера началась ещё в 1994 году и включает в себя успешную комедию Эри Сандел «Простушка» (2015), от комментариев отказывается.
  • В связи со смертью Джеймса Ребхорна в 2012 году и Роберта Лоджа в 2015, исполнивших в фильме «День независимости» (1996) роли Альберта Нимзицки и Уильяма Грэя, этих персонажей в сиквеле не будет.
  • Дэвид Арнольд, автор музыки к фильму Роланда Эммериха «День независимости» (1996), написал в «Твиттере», что сотрудничество при работе над фильмом «День независимости: Возрождение» (2016) ему не предлагали, а композиторы, нанятые для работы в сиквеле, могут воспользоваться написанной им музыкой к первому фильму, раз уж правами на неё всё равно владеет студия.
  • Премьера: 20 июня 2016 (23 июня 2016)Бюджет: $165 000 000Кассовые сборы: $386 441 206

    Качество: BDRip (by Ash61)Контейнер: MKVФормат 3D: Half OverUnder / Вертикальная анаморфная стереопараПорядок ракурсов: левый ракурс первыйВидео: AVC / 1920х1080p / 23,976 fps / 6900 Kbps

    Аудио:#1 - Русский / AC3 / 48 KHz / 5.1 ch / 640 Kbps (Дубляж - BD 3D Eur)#2 - Украинский / AC3 / 48 KHz / 5.1 ch / 448 Kbps (Дубляж - BD 3D Eur)#3 - Английский / AC3 / 48 KHz / 5.1 ch / 640 Kbps (Original - BD 3D Eur)

    Субтитры (SRT):Вшитые (softsub):#1 - Русские Форсированные расширенные [вер. Ash61](включены по умолчанию)#2 - Русские Полные#3 - Украинские Форсированные#4 - Украинские Полные#5 - English Forced#6 - English Full#7 - English SDH#8 - English SDH-Colored

    Внешние (UTF-8):#1 - Русские Форсированные расширенные [вер. Ash61] (включены по умолчанию)#2 - Украинские Форсированные

    Лог кодирования и MediaInfo

    General Unique ID : 224542169555374313890020804834949689615 (0xA8ED3FB22C0053A8AAFAF168AE11710F) Complete name : E:IndependenceDay2(2016)3D-halfOU(Ash61)IndependenceDay2(2016)3D-halfOU(Ash61).mkv Format : Matroska Format version : Version 2 File size : 7.36 GiB Duration : 1h 59mn Overall bit rate : 8 803 Kbps Movie name : День независимости: Возрождение / Independence Day: Resurgence (2016) в 3Д Encoded date : UTC 2016-10-12 15:41:35 Writing application : mkvmerge v5.8.0 ('No Sleep / Pillow') built on Sep 2 2012 15:37:04 Writing library : libebml v1.2.3 + libmatroska v1.3.0

    Video ID : 1 Format : AVC Format/Info : Advanced Video Codec Format profile : [email protected] Format settings, CABAC : Yes Format settings, ReFrames : 4 frames Codec ID : V_MPEG4/ISO/AVC Duration : 1h 59mn Bit rate : 6 900 Kbps Width : 1 920 pixels Height : 1 080 pixels Display aspect ratio : 16:9 Frame rate mode : Constant Frame rate : 23.976 fps Color space : YUV Chroma subsampling : 4:2:0 Bit depth : 8 bits Scan type : Progressive Bits/(Pixel*Frame) : 0.139 Stream size : 5.77 GiB (78%) Title : BDRip by Ash61 Writing library : x264 core 146 r2538 121396c Encoding settings : cabac=1 / ref=4 / deblock=1:-3:-3 / analyse=0x3:0x113 / me=umh / subme=10 / psy=1 / psy_rd=1.00:0.00 / mixed_ref=1 / me_range=32 / chroma_me=1 / trellis=2 / 8x8dct=1 / cqm=0 / deadzone=21,11 / fast_pskip=1 / chroma_qp_offset=-2 / threads=12 / lookahead_threads=2 / sliced_threads=0 / nr=0 / decimate=1 / interlaced=0 / bluray_compat=0 / constrained_intra=0 / bframes=9 / b_pyramid=2 / b_adapt=2 / b_bias=0 / direct=3 / weightb=1 / open_gop=0 / weightp=2 / keyint=250 / keyint_min=23 / scenecut=40 / intra_refresh=0 / rc_lookahead=60 / rc=crf / mbtree=1 / crf=15.5 / qcomp=0.70 / qpmin=0 / qpmax=69 / qpstep=4 / vbv_maxrate=40000 / vbv_bufsize=30000 / crf_max=0.0 / nal_hrd=none / filler=0 / frame-packing=4 / ip_ratio=1.40 / aq=1:0.70 Language : English Default : Yes Forced : No

    Audio #1 ID : 2 Format : AC-3 Format/Info : Audio Coding 3 Mode extension : CM (complete main) Format settings, Endianness : Big Codec ID : A_AC3 Duration : 1h 59mn Bit rate mode : Constant Bit rate : 640 Kbps Channel(s) : 6 channels Channel positions : Front: L C R, Side: L R, LFE Sampling rate : 48.0 KHz Bit depth : 16 bits Compression mode : Lossy Stream size : 548 MiB (7%) Title : Дубляж - BD 3D Eur Language : Russian Default : Yes Forced : No

    Audio #2 ID : 3 Format : AC-3 Format/Info : Audio Coding 3 Mode extension : CM (complete main) Format settings, Endianness : Big Codec ID : A_AC3 Duration : 1h 59mn Bit rate mode : Constant Bit rate : 448 Kbps Channel(s) : 6 channels Channel positions : Front: L C R, Side: L R, LFE Sampling rate : 48.0 KHz Bit depth : 16 bits Compression mode : Lossy Stream size : 384 MiB (5%) Title : Дубляж - BD 3D Eur Language : Ukrainian Default : No Forced : No

    Audio #3 ID : 4 Format : AC-3 Format/Info : Audio Coding 3 Mode extension : CM (complete main) Format settings, Endianness : Big Codec ID : A_AC3 Duration : 1h 59mn Bit rate mode : Constant Bit rate : 640 Kbps Channel(s) : 6 channels Channel positions : Front: L C R, Side: L R, LFE Sampling rate : 48.0 KHz Bit depth : 16 bits Compression mode : Lossy Stream size : 548 MiB (7%) Title : Original - BD 3D Eur Language : English Default : No Forced : No

    Text #1 ID : 5 Format : UTF-8 Codec ID : S_TEXT/UTF8 Codec ID/Info : UTF-8 Plain Text Title : Форсированные расширенные (вер. Ash61) Language : Russian Default : Yes Forced : No

    Text #2 ID : 6 Format : UTF-8 Codec ID : S_TEXT/UTF8 Codec ID/Info : UTF-8 Plain Text Title : Полные Language : Russian Default : No Forced : No

    Text #3 ID : 7 Format : UTF-8 Codec ID : S_TEXT/UTF8 Codec ID/Info : UTF-8 Plain Text Title : Форсированные Language : Ukrainian Default : No Forced : No

    Text #4 ID : 8 Format : UTF-8 Codec ID : S_TEXT/UTF8 Codec ID/Info : UTF-8 Plain Text Title : Полные Language : Ukrainian Default : No Forced : No

    Text #5 ID : 9 Format : UTF-8 Codec ID : S_TEXT/UTF8 Codec ID/Info : UTF-8 Plain Text Title : Forced Language : English Default : No Forced : No

    Text #6 ID : 10 Format : UTF-8 Codec ID : S_TEXT/UTF8 Codec ID/Info : UTF-8 Plain Text Title : Full Language : English Default : No Forced : No

    Text #7 ID : 11 Format : UTF-8 Codec ID : S_TEXT/UTF8 Codec ID/Info : UTF-8 Plain Text Title : SDH Language : English Default : No Forced : No

    Text #8 ID : 12 Format : UTF-8 Codec ID : S_TEXT/UTF8 Codec ID/Info : UTF-8 Plain Text Title : SDH-Colored Language : English Default : No Forced : No

    Menu 00:00:00.000 : :1 00:05:37.337 : :2 00:09:15.472 : :3 00:14:06.721 : :4 00:19:40.471 : :5 00:22:59.003 : :6 00:27:10.254 : :7 00:31:37.646 : :8 00:39:11.975 : :9 00:43:41.118 : :10 00:47:46.614 : :11 00:52:32.191 : :12 00:59:10.255 : :13 01:02:00.133 : :14 01:07:12.070 : :15 01:09:54.816 : :16 01:13:11.721 : :17 01:18:27.453 : :18 01:22:45.502 : :19 01:27:51.808 : :20 01:32:36.718 : :21 01:39:38.139 : :22 01:47:20.142 : :23 01:50:36.713 : :24

    О форматах и методах просмотра 3D

    krutor.org

    Скачать торрент День независимости: Возрождение / Independence Day: Resurgence (2016) BDRip HEVC 1080p

    Общее Уникальный идентификатор : 202181386909294383569086950234512467133 (0x981AB7FE5672D1A98FEC462F5DE4A4BD) Полное имя : E:HEVCIndependence Day (2016)Independence.Day.Resurgence.2016.1080p_HEVCCLUB.mkv Формат : Matroska Версия формата : Version 4 / Version 2 Размер файла : 8,48 Гбайт Продолжительность : 1 ч. 59 м. Общий поток : 10,1 Мбит/сек Название фильма : Independence Day: Resurgence (2016) - HEVC.CLUB Дата кодирования : UTC 2016-10-14 16:09:52 Программа кодирования : mkvmerge v9.4.0 ('Knurl') 64bit Библиотека кодирования : libebml v1.3.4 + libmatroska v1.4.5 Обложка : Yes Attachments : cover.jpg

    Видео Идентификатор : 1 Формат : HEVC Формат/Информация : High Efficiency Video Coding Профиль формата : [email protected]@Main Идентификатор кодека : V_MPEGH/ISO/HEVC Продолжительность : 1 ч. 59 м. Битрейт : 8283 Кбит/сек Ширина : 1920 пикселей Высота : 800 пикселей Соотношение сторон : 2,40:1 Режим частоты кадров : Переменный Частота кадров : 23,976 кадра/сек Цветовое пространство : YUV Субдискретизация насыщенности : 4:2:0 Битовая глубина : 8 бит Бит/(Пиксели*Кадры) : 0.225 Размер потока : 6,93 Гбайт (82%) Заголовок : HEVC.CLUB Библиотека кодирования : x265 2.0+65-d20b78d6d138:[Windows][GCC 5.4.0][64 bit] 8bit Настройки программы : wpp / ctu=64 / min-cu-size=8 / max-tu-size=32 / tu-intra-depth=1 / tu-inter-depth=1 / me=2 / subme=6 / merange=92 / no-rect / no-amp / max-merge=2 / temporal-mvp / no-early-skip / rskip / rdpenalty=0 / no-tskip / no-tskip-fast / strong-intra-smoothing / no-lossless / no-cu-lossless / no-constrained-intra / no-fast-intra / open-gop / no-temporal-layers / interlace=0 / keyint=230 / min-keyint=23 / scenecut=40 / rc-lookahead=60 / lookahead-slices=5 / bframes=10 / bframe-bias=0 / b-adapt=2 / ref=6 / limit-refs=3 / no-limit-modes / weightp / weightb / aq-mode=1 / qg-size=32 / aq-strength=1.00 / cbqpoffs=0 / crqpoffs=0 / rd=3 / psy-rd=2.00 / rdoq-level=0 / psy-rdoq=0.00 / log2-max-poc-lsb=8 / no-rd-refine / signhide / deblock=-2:-2 / sao / no-sao-non-deblock / b-pyramid / cutree / no-intra-refresh / rc=2 / pass / bitrate=8284 / qcomp=0.60 / qpmin=0 / qpmax=69 / qpstep=4 / cplxblur=20.0 / qblur=0.6 / ipratio=1.40 / pbratio=1.30 Default : Да Forced : Нет

    Аудио #1 Идентификатор : 2 Формат : DTS Формат/Информация : Digital Theater Systems Режим : 16 Параметр Endianness формата : Big Идентификатор кодека : A_DTS Продолжительность : 1 ч. 59 м. Вид битрейта : Постоянный Битрейт : 768 Кбит/сек Каналы : 6 каналов Расположение каналов : Front: L C R, Side: L R, LFE Частота : 48,0 КГц Частота кадров : 93,750 кадра/сек (512 spf) Битовая глубина : 24 бит Метод сжатия : С потерями Задержка видео : 5 мс. Размер потока : 658 Мбайт (8%) Заголовок : Dub Язык : Russian Default : Нет Forced : Нет

    Аудио #2 Идентификатор : 3 Формат : AC-3 Формат/Информация : Audio Coding 3 Расширение режима : CM (complete main) Параметр Endianness формата : Big Идентификатор кодека : A_AC3 Продолжительность : 1 ч. 59 м. Вид битрейта : Постоянный Битрейт : 448 Кбит/сек Каналы : 6 каналов Расположение каналов : Front: L C R, Side: L R, LFE Частота : 48,0 КГц Частота кадров : 31,250 кадров/сек (1536 spf) Метод сжатия : С потерями Задержка видео : 5 мс. Размер потока : 384 Мбайт (4%) Заголовок : Dub Язык : Ukrainian Default : Нет Forced : Нет

    Аудио #3 Идентификатор : 4 Формат : AC-3 Формат/Информация : Audio Coding 3 Расширение режима : CM (complete main) Параметр Endianness формата : Big Идентификатор кодека : A_AC3 Продолжительность : 1 ч. 59 м. Вид битрейта : Постоянный Битрейт : 640 Кбит/сек Каналы : 6 каналов Расположение каналов : Front: L C R, Side: L R, LFE Частота : 48,0 КГц Частота кадров : 31,250 кадров/сек (1536 spf) Метод сжатия : С потерями Размер потока : 548 Мбайт (6%) Заголовок : Original Язык : English Default : Нет Forced : Нет

    Текст #1 Идентификатор : 5 Формат : UTF-8 Идентификатор кодека : S_TEXT/UTF8 Идентификатор кодека/Информация : UTF-8 Plain Text Продолжительность : 1 ч. 57 м. Битрейт : 1 бит/сек Count of elements : 15 Размер потока : 931 байт (0%) Заголовок : Forced Язык : Russian Default : Да Forced : Нет

    Текст #2 Идентификатор : 6 Формат : UTF-8 Идентификатор кодека : S_TEXT/UTF8 Идентификатор кодека/Информация : UTF-8 Plain Text Продолжительность : 1 ч. 58 м. Битрейт : 94 бит/сек Count of elements : 1736 Размер потока : 82,0 Кбайт (0%) Заголовок : iTunes Язык : Russian Default : Нет Forced : Нет

    Текст #3 Идентификатор : 7 Формат : UTF-8 Идентификатор кодека : S_TEXT/UTF8 Идентификатор кодека/Информация : UTF-8 Plain Text Продолжительность : 7 с. 464 мс. Битрейт : 114 бит/сек Count of elements : 3 Размер потока : 107 байт (0%) Заголовок : Forced Язык : English Default : Нет Forced : Нет

    Текст #4 Идентификатор : 8 Формат : UTF-8 Идентификатор кодека : S_TEXT/UTF8 Идентификатор кодека/Информация : UTF-8 Plain Text Продолжительность : 1 ч. 49 м. Битрейт : 62 бит/сек Count of elements : 1711 Размер потока : 50,3 Кбайт (0%) Заголовок : Full Язык : English Default : Нет Forced : Нет

    Текст #5 Идентификатор : 9 Формат : UTF-8 Идентификатор кодека : S_TEXT/UTF8 Идентификатор кодека/Информация : UTF-8 Plain Text Продолжительность : 1 ч. 49 м. Битрейт : 70 бит/сек Count of elements : 2154 Размер потока : 56,9 Кбайт (0%) Заголовок : SDH Язык : English Default : Нет Forced : Нет

    Текст #6 Идентификатор : 10 Формат : UTF-8 Идентификатор кодека : S_TEXT/UTF8 Идентификатор кодека/Информация : UTF-8 Plain Text Продолжительность : 1 ч. 49 м. Битрейт : 95 бит/сек Count of elements : 2154 Размер потока : 77,1 Кбайт (0%) Заголовок : SDH-Colored Язык : English Default : Нет Forced : Нет

    Меню 00:00:00.000 : en:(01)00:00:00:000 00:05:37.336 : en:(02)00:05:37:336 00:09:15.471 : en:(03)00:09:15:471 00:14:06.720 : en:(04)00:14:06:720 00:19:40.470 : en:(05)00:19:40:470 00:22:59.002 : en:(06)00:22:59:002 00:27:10.253 : en:(07)00:27:10:253 00:31:37.645 : en:(08)00:31:37:645 00:39:11.974 : en:(09)00:39:11:974 00:43:41.118 : en:(10)00:43:41:118 00:47:46.613 : en:(11)00:47:46:613 00:52:32.190 : en:(12)00:52:32:190 00:59:10.255 : en:(13)00:59:10:255 01:02:00.133 : en:(14)01:02:00:133 01:07:12.069 : en:(15)01:07:12:069 01:09:54.815 : en:(16)01:09:54:815 01:13:11.720 : en:(17)01:13:11:720 01:18:27.452 : en:(18)01:18:27:452 01:22:45.502 : en:(19)01:22:45:502 01:27:51.808 : en:(20)01:27:51:808 01:32:36.717 : en:(21)01:32:36:717 01:39:38.138 : en:(22)01:39:38:138 01:47:20.142 : en:(23)01:47:20:142 01:50:36.713 : en:(24)01:50:36:713 01:59:43.926 : en:(25)01:59:43:926

    krutor.org

    Возрождение в 3D (2016) скачать торрент в хорошем качестве hd

    Название: День независимости: Возрождение Оригинальное название: Independence Day: Resurgence Год выхода: 2016 Жанр: Фантастика, боевик, приключения Режиссер: Роланд Эммерих Роли озвучивают: Лиам Хемсворт, Джефф Голдблюм, Джесси Ашер, Билл Пуллман, Майка Монро, Села Уорд, Уильям Фихтнер, Джадд Хёрш, Брент Спайнер, Патрик Ст. Эсприт

    Погружение в независимость и понимание всего происходящего при столкновении с инопланетным разумом, может полностью перевернуть человеческие приоритеты. Ведь, это может быть, как мирная миссия, так и серьезная угроза человеческому существованию. Тем самым давая возможности совершенствоваться в военном мастерстве или получать желание выживать, навязывая свою линию сражений. Так и великолепном продолжении о вторжении инопланетян на планету земля. Но в этот раз каждому человеку грядет не рабство, а полное уничтожение. Сюжетом для данного боевика День независимости 2: Возрождение станет инопланетное вторжение, а если быть точнее, то возвращение инопланетян ко дню независимости США, что позволит дать последний бой. Применяемые технологии были применены для привычного земного вооружения и вот спустя 20 лет, были сделаны новые попытки для создания защиты и щита, который позволит сохранить вам жизнь и дать новые критерии для личного существования. Но смогут ли теперь земляне сразиться и дать бой тем, кто желает полностью уничтожить планет Земля. Или же все погибнут и не останется живых на планете, где раньше были мир и покой. Сражение, которое будет предполагаться самоотдачи и желания спасаться бегством, с плоскости привычного обитания и жизни на просторах планеты. Это будет новое оружие и виды боев, за собственную независимость. Авторы второй части про день независимости смогли качественно проиллюстрировать все знанием события и действия, закрепить новое понимание и осознанность в умах каждого зрителя, что фантастическая атака инопланетян может иметь место и что стоит готовиться к самостоятельной защите и совершенствовать свое вооружение. Также показанные варианты самоотдачи и решительности среди главных героев, дадут повод верить, что каждый будет готов сражаться в случае реалистичного сюжета событий. За это все киноленту можно наградить 10 из 10. Позволив понять на что способно человечество ради выживания собственной расы.

    Страна: США Студия: 20th Century Fox Film Corporation Продолжительность: 01:59:44 Перевод: Профессиональный (полное дублирование)[BD EUR]

    Качество: BDRip 1080p Кодек: x264 Видео: AVC / 1920x1080p / 16:9 / 23,976 fps / 7037 Кbps / 0.142 bit/pix Аудио 1: Русский / DTS / 48 KHz / 5.1 ch / 768 Kbps Аудио 2: Украинский / AC3 / 48 KHz / 5.1 ch / 448 Kbps Аудио 3: Английский / DTS-ES / 48 KHz / 5.1 ch / 1509 Kbps

    Субтитры :Вшитые (softsub): #1 - Русские Форсированные (включены по умолчанию) #2 - Русские #3 - English Forced #4 - English Формат 3D: Half OverUnder / Вертикальная анаморфная стереопара Порядок ракурсов: левый ракурс первый

    Поиск торрент раздач, пожалуйста подождите!

    Информация о торрент файле

    Скачать торрент Торрент: Зарегистрирован Статус: v Проверено Просмотров: 2 678 Категория: фантастика 3D Общий размер: 8.33 GB

    Поделитесь ссылкой на наш сайт с друзьями в соц.сетях ↓

    mega-torrent.co

    Скачать торрент День независимости: Возрождение / Independence Day Resurgence (2016) BDRip 1080p 60FPS

    Информация о фильмеНазвание: День независимости ВозрождениеОригинальное название: Independence Day ResurgenceГод выхода: 2016Жанр: Фантастика, боевик, приключенияРежиссер: Роланд ЭммерихВ ролях: Лиам Хемсворт, Джефф Голдблюм, Джесси Ашер, Билл Пуллман, Майка Монро, Села Уорд, Уильям Фихтнер, Джадд Хёрш, Брент Спайнер, Патрик Ст. Эсприт, Вивика А. Фокс, Анджела Бейби

    О фильме: Используя инопланетные технологии, жители Земли создали специальную программу по защите планеты. Но ничего не может нас спасти от нового, еще более разрушительного и масштабного инопланетного вторжения — только смелость нескольких героев, которые единственные могут спасти наш мир от уничтожения.

    Страна: СШАСтудия: 20th Century Fox Film CorporationПродолжительность: 01:59:44Перевод: Дублированный | Лицензия Blu-Ray EUR

    ФайлКодек: h364Качество: BD 1080 60FPSВидео: 1920х800 , 10 000 kb/s , 59.940FPSЗвук:

  • 48 kHz, AC3, 5.1, 448 Kbps | Дублированный | Лицензия |Субтитры: Русские (full, forced)

    MI

    General Unique ID : 232328719674228375795611554100673946703 (0xAEC8E241C6DCE152898EBE30C786A44F) Complete name : F:Торент60fpsIndependence.Day.Resurgence.2016.BDRip.(1080p).60FPS.GTP.mkv Format : Matroska Format version : Version 4 / Version 2 File size : 8.72 GiB Duration : 1 h 59 min Overall bit rate : 10.4 Mb/s Movie name : День независимости: Возрождение.2016 GTP Encoded date : UTC 2016-10-13 15:54:06 Writing application : mkvmerge v9.4.0 ('Knurl') 64bit Writing library : libebml v1.3.4 + libmatroska v1.4.5 Cover : Yes Attachments : Cover - Independence.Day.Resurgence.png

    Video ID : 1 Format : AVC Format/Info : Advanced Video Codec Format profile : [email protected] Format settings, CABAC : Yes Format settings, ReFrames : 4 frames Codec ID : V_MPEG4/ISO/AVC Duration : 1 h 59 min Bit rate : 10 000 kb/s Width : 1 920 pixels Height : 800 pixels Display aspect ratio : 2.40:1 Frame rate mode : Constant Frame rate : 59.940 (59940/1000) FPS Color space : YUV Chroma subsampling : 4:2:0 Bit depth : 8 bits Scan type : Progressive Bits/(Pixel*Frame) : 0.109 Stream size : 8.34 GiB (96%) Title : GTP Writing library : x264 core 146 r2538 121396c Encoding settings : cabac=1 / ref=4 / deblock=1:0:0 / analyse=0x3:0x113 / me=umh / subme=9 / psy=1 / psy_rd=1.00:0.01 / mixed_ref=1 / me_range=32 / chroma_me=1 / trellis=2 / 8x8dct=1 / cqm=0 / deadzone=21,11 / fast_pskip=0 / chroma_qp_offset=-3 / threads=12 / lookahead_threads=3 / sliced_threads=0 / nr=0 / decimate=1 / interlaced=0 / bluray_compat=0 / constrained_intra=0 / bframes=16 / b_pyramid=2 / b_adapt=2 / b_bias=0 / direct=3 / weightb=1 / open_gop=0 / weightp=2 / keyint=600 / keyint_min=59 / scenecut=40 / intra_refresh=0 / rc_lookahead=40 / rc=2pass / mbtree=0 / bitrate=10000 / ratetol=1.0 / qcomp=0.60 / qpmin=0 / qpmax=69 / qpstep=4 / cplxblur=20.0 / qblur=0.5 / vbv_maxrate=14000 / vbv_bufsize=14000 / nal_hrd=none / filler=0 / ip_ratio=1.40 / pb_ratio=1.30 / aq=1:1.00 Language : English Default : Yes Forced : No

    Audio ID : 2 Format : AC-3 Format/Info : Audio Coding 3 Mode extension : CM (complete main) Format settings, Endianness : Big Codec ID : A_AC3 Duration : 1 h 59 min Bit rate mode : Constant Bit rate : 448 kb/s Channel(s) : 6 channels Channel positions : Front: L C R, Side: L R, LFE Sampling rate : 48.0 kHz Frame rate : 31.250 FPS (1536 spf) Compression mode : Lossy Stream size : 384 MiB (4%) Title : Дублированный (Лицензия) Language : Russian Default : Yes Forced : No

    Text #1 ID : 3 Format : UTF-8 Codec ID : S_TEXT/UTF8 Codec ID/Info : UTF-8 Plain Text Duration : 1 h 57 min Bit rate : 1 b/s Count of elements : 15 Stream size : 1.02 KiB (0%) Title : Forced Language : Russian Default : Yes Forced : No

    Text #2 ID : 4 Format : UTF-8 Codec ID : S_TEXT/UTF8 Codec ID/Info : UTF-8 Plain Text Duration : 1 h 58 min Bit rate : 94 b/s Count of elements : 1736 Stream size : 82.0 KiB (0%) Title : Full Language : Russian Default : No Forced : No

    Menu 00:00:00.000 : en:Chapter 01 00:05:37.336 : en:Chapter 03 00:09:15.471 : en:Chapter 05 00:14:06.720 : en:Chapter 07 00:19:40.470 : en:Chapter 09 00:22:59.002 : en:Chapter 11 00:27:10.253 : en:Chapter 13 00:31:37.645 : en:Chapter 15 00:39:11.974 : en:Chapter 17 00:43:41.118 : en:Chapter 19 00:47:46.613 : en:Chapter 21 00:52:32.190 : en:Chapter 23 00:59:10.255 : en:Chapter 25 01:02:00.133 : en:Chapter 27 01:07:12.069 : en:Chapter 29 01:09:54.815 : en:Chapter 31 01:13:11.720 : en:Chapter 33 01:18:27.452 : en:Chapter 35 01:22:45.502 : en:Chapter 37 01:27:51.808 : en:Chapter 39 01:32:36.717 : en:Chapter 41 01:39:38.138 : en:Chapter 43 01:47:20.142 : en:Chapter 45 01:50:36.713 : en:Chapter 47 01:59:43.926 : en:Chapter 49

  • krutor.org

    Возрождение через торрент в хорошем качестве бесплатно 1080p

    GeneralUnique ID                                : 198469365397361450218193151444683847837 (0x954FCF33EFA01E8788F3214021A3F89D)Complete name                            : E:\ID_RESURGENCE_WEB_DL_1080.mkvFormat                                   : MatroskaFormat version                           : Version 4 / Version 2File size                                : 4.46 GiBDuration                                 : 2 h 0 minOverall bit rate                         : 5 313 kb/sMovie name                               : ID_RESURGENCE_WEB_DL_1080-BLUEBIRDEncoded date                             : UTC 2016-09-28 18:23:53Writing application                      : mkvmerge v7.1.0 ('Good Love') 64bit built on Jul 27 2014 13:06:55Writing library                          : libebml v1.3.0 + libmatroska v1.4.1

    VideoID                                       : 1Format                                   : AVCFormat/Info                              : Advanced Video CodecFormat profile                           : [email protected] settings, CABAC                   : YesFormat settings, ReFrames                : 5 framesCodec ID                                 : V_MPEG4/ISO/AVCDuration                                 : 2 h 0 minBit rate                                 : 4 439 kb/sWidth                                    : 1 916 pixelsHeight                                   : 798 pixelsDisplay aspect ratio                     : 2.40:1Frame rate mode                          : ConstantFrame rate                               : 24.000 FPSColor space                              : YUVChroma subsampling                       : 4:2:0Bit depth                                : 8 bitsScan type                                : ProgressiveBits/(Pixel*Frame)                       : 0.121Stream size                              : 3.73 GiB (84%)Title                                    : ID_RESURGENCE_WEB_DL_1080-BLUEBIRDLanguage                                 : EnglishDefault                                  : YesForced                                   : NoColor range                              : LimitedColor primaries                          : BT.709Transfer characteristics                 : BT.709Matrix coefficients                      : BT.709

    Audio #1ID                                       : 2Format                                   : AC-3Format/Info                              : Audio Coding 3Mode extension                           : CM (complete main)Format settings, Endianness              : BigCodec ID                                 : A_AC3Duration                                 : 2 h 0 minBit rate mode                            : ConstantBit rate                                 : 384 kb/sChannel(s)                               : 6 channelsChannel positions                        : Front: L C R, Side: L R, LFESampling rate                            : 48.0 kHzFrame rate                               : 31.250 FPS (1536 spf)Compression mode                         : LossyStream size                              : 330 MiB (7%)Title                                    : [DUB] DD 5.1 @ 384 kbps (iTunes)Language                                 : RussianDefault                                  : NoForced                                   : No

    Audio #2ID                                       : 3Format                                   : AC-3Format/Info                              : Audio Coding 3Mode extension                           : CM (complete main)Format settings, Endianness              : BigCodec ID                                 : A_AC3Duration                                 : 2 h 0 minBit rate mode                            : ConstantBit rate                                 : 384 kb/sChannel(s)                               : 6 channelsChannel positions                        : Front: L C R, Side: L R, LFESampling rate                            : 48.0 kHzFrame rate                               : 31.250 FPS (1536 spf)Compression mode                         : LossyStream size                              : 330 MiB (7%)Title                                    : [ORIGINAL] DD 5.1 @ 384 kbps (iTunes)Language                                 : EnglishDefault                                  : NoForced                                   : No

    Text #1ID                                       : 4Format                                   : UTF-8Codec ID                                 : S_TEXT/UTF8Codec ID/Info                            : UTF-8 Plain TextTitle                                    : ForcedLanguage                                 : RussianDefault                                  : NoForced                                   : Yes

    Text #2ID                                       : 5Format                                   : UTF-8Codec ID                                 : S_TEXT/UTF8Codec ID/Info                            : UTF-8 Plain TextTitle                                    : Full-lenthLanguage                                 : RussianDefault                                  : NoForced                                   : No

    Text #3ID                                       : 6Format                                   : UTF-8Codec ID                                 : S_TEXT/UTF8Codec ID/Info                            : UTF-8 Plain TextTitle                                    : Full-lenthLanguage                                 : UkrainianDefault                                  : NoForced                                   : No

    Text #4ID                                       : 7Format                                   : UTF-8Codec ID                                 : S_TEXT/UTF8Codec ID/Info                            : UTF-8 Plain TextTitle                                    : Full-lengthLanguage                                 : EnglishDefault                                  : NoForced                                   : No

    Menu00:00:00.000                             : en:100:05:36.378                             : en:200:09:14.512                             : en:300:14:05.761                             : en:400:19:39.511                             : en:500:22:58.042                             : en:600:27:09.293                             : en:700:31:36.685                             : en:800:39:11.014                             : en:900:43:40.158                             : en:1000:47:45.653                             : en:1100:52:31.230                             : en:1200:59:09.294                             : en:1301:01:59.172                             : en:1401:07:11.108                             : en:1501:09:53.854                             : en:1601:13:10.759                             : en:1701:18:26.491                             : en:1801:22:44.540                             : en:1901:27:50.846                             : en:2001:32:35.755                             : en:2101:39:37.176                             : en:2201:47:19.179                             : en:2301:50:35.750                             : en:24

    piratbit.ru


    Смотрите также