Скачать демон внутри через торрент бесплатно в хорошем качестве


Скачать фильм Демон внутри через торрент в хорошем качестве бесплатно 720p

GeneralUnique ID : 237587613259331525236261432300170798639 (0xB2BDB5BAA411B0EB98130039B9CE662F)Complete name : The.Autopsy.of.Jane.Doe.2016.BDRip.720p.ExKInoRay.mkvFormat : MatroskaFormat version : Version 4 / Version 2File size : 4.91 GiBDuration : 1 h 26 minOverall bit rate : 8 143 kb/sEncoded date : UTC 2017-04-18 09:30:04Writing application : mkvmerge v10.0.0 ('To Drown In You') 64bitWriting library : libebml v1.3.4 + libmatroska v1.4.5

VideoID : 1Format : AVCFormat/Info : Advanced Video CodecFormat profile : [email protected] settings, CABAC : YesFormat settings, ReFrames : 12 framesCodec ID : V_MPEG4/ISO/AVCDuration : 1 h 26 minBit rate : 6 250 kb/sWidth : 1 280 pixelsHeight : 536 pixelsDisplay aspect ratio : 2.40:1Frame rate mode : ConstantFrame rate : 23.976 (24000/1001) FPSColor space : YUVChroma subsampling : 4:2:0Bit depth : 8 bitsScan type : ProgressiveBits/(Pixel*Frame) : 0.380Stream size : 3.77 GiB (77%)Writing library : x264 core 142 r2431+42 c69a006 tMod [[email protected] X86_64]Encoding settings : cabac=1 / ref=12 / deblock=1:-3:-3 / analyse=0x3:0x133 / me=umh / subme=11 / psy=1 / fade_compensate=0.00 / psy_rd=1.05:0.15 / mixed_ref=1 / me_range=48 / chroma_me=1 / trellis=2 / 8x8dct=1 / cqm=0 / deadzone=21,11 / fast_pskip=1 / chroma_qp_offset=-3 / threads=16 / lookahead_threads=2 / sliced_threads=0 / nr=0 / decimate=0 / interlaced=0 / bluray_compat=0 / constrained_intra=0 / fgo=0 / bframes=8 / b_pyramid=2 / b_adapt=2 / b_bias=0 / direct=3 / weightb=1 / open_gop=0 / weightp=2 / keyint=240 / keyint_min=23 / scenecut=40 / intra_refresh=0 / rc_lookahead=60 / rc=2pass / mbtree=1 / bitrate=6250 / ratetol=1.0 / qcomp=0.70 / qpmin=0:0:0 / qpmax=69:69:69 / qpstep=4 / cplxblur=20.0 / qblur=0.5 / vbv_maxrate=50000 / vbv_bufsize=62500 / nal_hrd=none / filler=0 / ip_ratio=1.30 / aq=1:0.80 / aq-sensitivity=10.00 / aq-factor=1.00:1.00:1.00 / aq2=0 / aq3=0Language : EnglishDefault : YesForced : NoColor range : LimitedColor primaries : BT.709Transfer characteristics : BT.709Matrix coefficients : BT.709

Audio #1ID : 2Format : AC-3Format/Info : Audio Coding 3Mode extension : CM (complete main)Format settings, Endianness : BigCodec ID : A_AC3Duration : 1 h 26 minBit rate mode : ConstantBit rate : 384 kb/sChannel(s) : 6 channelsChannel positions : Front: L C R, Side: L R, LFESampling rate : 48.0 kHzFrame rate : 31.250 FPS (1536 spf)Compression mode : LossyStream size : 237 MiB (5%)Title : iTunesLanguage : RussianDefault : YesForced : No

Audio #2ID : 3Format : DTSFormat/Info : Digital Theater SystemsMode : 16Format settings, Endianness : BigCodec ID : A_DTSDuration : 1 h 26 minBit rate mode : ConstantBit rate : 1 509 kb/sChannel(s) : 6 channelsChannel positions : Front: L C R, Side: L R, LFESampling rate : 48.0 kHzFrame rate : 93.750 FPS (512 spf)Bit depth : 16 bitsCompression mode : LossyStream size : 932 MiB (19%)Title : OriginalLanguage : EnglishDefault : NoForced : No

Text #1ID : 4Format : UTF-8Codec ID : S_TEXT/UTF8Codec ID/Info : UTF-8 Plain TextDuration : 1 h 19 minBit rate : 46 b/sCount of elements : 702Stream size : 27.2 KiB (0%)Title : FullLanguage : RussianDefault : NoForced : No

Text #2ID : 5Format : UTF-8Codec ID : S_TEXT/UTF8Codec ID/Info : UTF-8 Plain TextDuration : 1 h 18 minBit rate : 32 b/sCount of elements : 600Stream size : 18.4 KiB (0%)Title : FullLanguage : EnglishDefault : NoForced : No

Text #3ID : 6Format : UTF-8Codec ID : S_TEXT/UTF8Codec ID/Info : UTF-8 Plain TextDuration : 1 h 22 minBit rate : 48 b/sCount of elements : 925Stream size : 29.3 KiB (0%)Title : SDH {Colored)Language : EnglishDefault : NoForced : No

Menu00:00:00.000 : en:00:00:00.00000:08:38.601 : en:00:08:38.60100:17:04.607 : en:00:17:04.60700:26:37.971 : en:00:26:37.97100:36:47.706 : en:00:36:47.70600:45:33.898 : en:00:45:33.89800:53:16.819 : en:00:53:16.81901:00:45.600 : en:01:00:45.60001:06:12.635 : en:01:06:12.63501:10:49.746 : en:01:10:49.74601:16:26.499 : en:01:16:26.49901:18:22.448 : en:01:18:22.448

piratbit.ru

Скачать фильм Демон внутри через торрент в хорошем качестве бесплатно BDRip от Twi7ter

piratbit.ru

Раздают: 8 [ 27 KB/s ]
Размер: 1.42 GB | Добавлен: 6 мес. назад | Торрент скачан:613 раз
Реклама Дарим 3000 рублей за регистрацию, не упусти свой шанс получить шикарный бонус!!!

17-04-2017 20:34 Демон внутри Скачать торрент  

Демон внутри / Вскрытие Джейн Доу / The Autopsy of Jane Doe

«И что могло пойти не так»

Год выпуска: 2016Страна: Великобритания, СШАЖанр: ужасы, детективПродолжительность: 01:26:22Перевод: Профессиональный (многоголосый, закадровый) [iTunes]Субтитры: НетРежиссер: Андре ОвредалВ ролях: Брайан Кокс (Tommy), Эмиль Хирш (Austin), Офелия Ловибонд (Emma), Майкл МакЭлхаттон (Sheriff Burke), Олуэн Катрин Келли (Jane Doe), Джейн Перри (Lieutenant Wade), Паркер Сойерс (Trooper Cole), Мэри Дадди (Irene Daniels), Mark Phoenix (Louis Tannis), Sydney (Stanley the Cat), Ив О’Хара (Deputy Ballard, в титрах не указан)Описание: Патологоанатомы маленького городка получают тело жертвы таинственного убийства - красивой и молодой девушки без видимой причины смерти. Они пытаются выяснить, кто она и как умерла, обнаруживая все более причудливые подсказки, которые ведут к тайнам её жизни и смерти.Рейтинг:

MPAA: R - Лицам до 17 лет обязательно присутствие взрослого

Качество: BDRip | исх. The.Autopsy.of.Jane.Doe.2016.REMUX.1080p.BluRay.AVC.DTS-HD.MA.5.1-iFT |Формат: AVIВидео кодек: XviDАудио кодек: AC3Видео: 720x304 (2.37:1), 23.976 fps, XviD build 73 ~1964 kbps avg, 0.37 bit/pixelАудио: 48 kHz, AC3 Dolby Digital, 3/2 (L,C,R,l,r) + LFE ch, ~384 kbps

Релиз: &

Скачать Демон внутри через торрент http://s020.radikal.ru/i703/1704/79/dce7bbb7cc75.png Скачать фильм Демон внутри через торрент бесплантно в хорошем качестве Описание: Патологоанатомы маленького городка получают тело жертвы таинственного убийства - красивой и молодой девушки без видимой причины ... 2017-04-17 20:34 8.8 10 19

Loading...

Loading...

% Раздел Тема Автор DL S | L
Фильмы (Blu-ray, BD-Remux, HDDVD) [ 17.24 GB ] Демон внутри / Вскрытие Джейн Доу / The Autopsy of Jane Doe [2016 BD Remux 1080p] MVO bober100 Скачать
Фильмы [HD 720p, 1080p] (Хороший звук DUB, MVO) [ 9.58 GB ] Демон внутри / Вскрытие Джейн Доу / The Autopsy of Jane Doe [2016 BDRip 1080p] MVO sheker187 Скачать
Фильмы (WEB-DL 720p, 1080p) [ 3.21 GB ] Демон внутри / Вскрытие Джейн Доу / The Autopsy of Jane Doe [2016 WEB-DL 1080p] многоголосый [AlexFilm] killermax2013 Скачать
Фильмы (HD 720p, 1080p) (48-60 fps) [ 13.06 GB ] Демон внутри / Вскрытие Джейн Доу / The Autopsy of Jane Doe [2016 BDRip 1080p / 60fps] MVO+2xVO sheker187 Скачать
Фильмы 2016 [DVDrip, WEB-DLRip, HDrip] (DUB, MVO) [ 1.42 GB ] Демон внутри / Вскрытие Джейн Доу / The Autopsy of Jane Doe [2016 BDRip] многоголосый [AlexFilm] Twi7ter Скачать
Фильмы [HD 720p, 1080p] (Хороший звук DUB, MVO) [ 4.91 GB ] Демон внутри / Вскрытие Джейн Доу / The Autopsy of Jane Doe [2016 BDRip 720p] MVO sheker187 Скачать
Фильмы 2016 [DVDrip, WEB-DLRip, HDrip] (DUB, MVO) [ 1.37 GB ] Демон внутри / Вскрытие Джейн Доу / The Autopsy of Jane Doe [2016 HDRip] MVO [AlexFilm] bober100 Скачать

Рекламный пират

Дорогой пользователь! Огромная просьба, поблагодарите релизера, оцените раздачу и оставьте свои комментарий, если Вы скачали Демон внутри через торрент бесплатно! Внесите свою лепту в развитие PiratBit!

Комментировать посты могут только пользователи прошедшие не сложную регистрацию

Демон внутри через торрент Скачать бесплатно Демон внутри Демон внутри скачать торрент Демон внутри смотреть онлайн Cкачать фильм Демон внутри бесплатно Демон внутри скачать торрент в хорошем качестве Демон внутри смотреть онлайн бесплатно в хорошем качестве

Вы не можете начинать темыВы не можете отвечать на сообщенияВы не можете редактировать свои сообщенияВы не можете удалять свои сообщенияВы не можете голосовать в опросахВы не можете прикреплять файлы к сообщениямВы можете скачивать файлы

Скачать фильм Демон внутри через торрент в хорошем качестве бесплатно BDRip от Twi7ter

piratbit.ru

Раздают: 5 [ 2 KB/s ] Качают: 1 [ 0 KB/s ]
Размер: 1.42 GB | Добавлен: 6 мес. назад | Торрент скачан:445 раз
Реклама Дарим 3000 рублей за регистрацию, не упусти свой шанс получить шикарный бонус!!!

14-04-2017 04:33 Демон внутри Скачать торрент  

Демон внутри / Вскрытие Джейн Доу / The Autopsy of Jane Doe

«И что могло пойти не так»

Год выпуска: 2016Страна: Великобритания, СШАЖанр: ужасы, детективПродолжительность: 01:26:22Перевод: Профессиональный (многоголосый, закадровый) [AlexFilm]Субтитры: НетРежиссер: Андре ОвредалВ ролях: Брайан Кокс (Tommy), Эмиль Хирш (Austin), Офелия Ловибонд (Emma), Майкл МакЭлхаттон (Sheriff Burke), Олуэн Катрин Келли (Jane Doe), Джейн Перри (Lieutenant Wade), Паркер Сойерс (Trooper Cole), Мэри Дадди (Irene Daniels), Mark Phoenix (Louis Tannis), Sydney (Stanley the Cat), Ив О’Хара (Deputy Ballard, в титрах не указан)Описание: Патологоанатомы маленького городка получают тело жертвы таинственного убийства - красивой и молодой девушки без видимой причины смерти. Они пытаются выяснить, кто она и как умерла, обнаруживая все более причудливые подсказки, которые ведут к тайнам её жизни и смерти.Рейтинг:

MPAA: R - Лицам до 17 лет обязательно присутствие взрослого

Качество: BDRip | исх. The.Autopsy.of.Jane.Doe.2016.REMUX.1080p.BluRay.AVC.DTS-HD.MA.5.1-iFT |Формат: AVIВидео кодек: XviDАудио кодек: AC3Видео: 720x304 (2.37:1), 23.976 fps, XviD build 73 ~1964 kbps avg, 0.37 bit/pixelАудио: 48 kHz, AC3 Dolby Digital, 3/2 (L,C,R,l,r) + LFE ch, ~384 kbps

Релиз: &

Скачать Демон внутри через торрент http://s020.radikal.ru/i703/1704/79/dce7bbb7cc75.png Скачать фильм Демон внутри через торрент бесплантно в хорошем качестве Описание: Патологоанатомы маленького городка получают тело жертвы таинственного убийства - красивой и молодой девушки без видимой причины ... 2017-04-14 04:33 9.4 10 9

Loading...

Loading...

% Раздел Тема Автор DL S | L
Фильмы (Blu-ray, BD-Remux, HDDVD) [ 17.24 GB ] Демон внутри / Вскрытие Джейн Доу / The Autopsy of Jane Doe [2016 BD Remux 1080p] MVO bober100 Скачать
Фильмы [HD 720p, 1080p] (Хороший звук DUB, MVO) [ 9.58 GB ] Демон внутри / Вскрытие Джейн Доу / The Autopsy of Jane Doe [2016 BDRip 1080p] MVO sheker187 Скачать
Фильмы (WEB-DL 720p, 1080p) [ 3.21 GB ] Демон внутри / Вскрытие Джейн Доу / The Autopsy of Jane Doe [2016 WEB-DL 1080p] многоголосый [AlexFilm] killermax2013 Скачать
Фильмы (HD 720p, 1080p) (48-60 fps) [ 13.06 GB ] Демон внутри / Вскрытие Джейн Доу / The Autopsy of Jane Doe [2016 BDRip 1080p / 60fps] MVO+2xVO sheker187 Скачать
Фильмы [HD 720p, 1080p] (Хороший звук DUB, MVO) [ 4.91 GB ] Демон внутри / Вскрытие Джейн Доу / The Autopsy of Jane Doe [2016 BDRip 720p] MVO sheker187 Скачать
Фильмы 2016 [DVDrip, WEB-DLRip, HDrip] (DUB, MVO) [ 1.42 GB ] Демон внутри / Вскрытие Джейн Доу / The Autopsy of Jane Doe [2016 BDRip] многоголосый Twi7ter Скачать
Фильмы 2016 [DVDrip, WEB-DLRip, HDrip] (DUB, MVO) [ 1.37 GB ] Демон внутри / Вскрытие Джейн Доу / The Autopsy of Jane Doe [2016 HDRip] MVO [AlexFilm] bober100 Скачать

Последний раз редактировалось: Twi7ter (2017-04-14 14:46), всего редактировалось 1 раз

Рекламный пират

14-04-2017 06:37 Демон внутри Скачать торрент  

Что то я не припоминаю героев с постера в данном фильме... лол полный.

14-04-2017 06:47 Демон внутри Скачать торрент  

Самое забавное, что слоган на постере вполне себе подходит и к "Демону внутри"

25-04-2017 21:04 Демон внутри Скачать торрент  

Фильм на разок глянуть.

27-04-2017 18:41 Демон внутри Скачать торрент  

Всем обязательно к просмотру !!! Смотрел один, вечером, чуть не обгадился !!!! Весь фильм держало в напряге !!! Вот так подумаешь, патологоанатомом работать...

Дорогой пользователь! Огромная просьба, поблагодарите релизера, оцените раздачу и оставьте свои комментарий, если Вы скачали Демон внутри через торрент бесплатно! Внесите свою лепту в развитие PiratBit!

Комментировать посты могут только пользователи прошедшие не сложную регистрацию

Демон внутри через торрент Скачать бесплатно Демон внутри Демон внутри скачать торрент Демон внутри смотреть онлайн Cкачать фильм Демон внутри бесплатно Демон внутри скачать торрент в хорошем качестве Демон внутри смотреть онлайн бесплатно в хорошем качестве

Вы не можете начинать темыВы не можете отвечать на сообщенияВы не можете редактировать свои сообщенияВы не можете удалять свои сообщенияВы не можете голосовать в опросахВы не можете прикреплять файлы к сообщениямВы можете скачивать файлы

Скачать фильм Демон внутри через торрент в хорошем качестве бесплатно BDRip

piratbit.ru

Размер: 1.41 GB | Добавлен: 6 мес. назад | Торрент скачан:193 раза
Реклама Дарим 3000 рублей за регистрацию, не упусти свой шанс получить шикарный бонус!!!

12-04-2017 13:16 Демон внутри Скачать торрент  

Демон внутри / Вскрытие Джейн Доу / The Autopsy of Jane Doe

Год выпуска: 2016Страна: Великобритания, СШАЖанр: триллер, ужасы, детективПродолжительность: 01:26:22Перевод: Профессиональный многоголосый - [AlexFilm]Субтитры: отсутствуют

Режиссер: Андре Овредал

В ролях:

Брайан Кокс, Эмиль Хирш, Офелия Ловибонд, Майкл МакЭлхаттон, Олуэн Катрин Келли, Джейн Перри, Паркер Сойерс, Мэри Дадди

Описание:

Патологоанатомы маленького городка получают тело жертвы таинственного убийства — красивой и молодой девушки без видимой причины смерти. Они пытаются выяснить, кто она и как умерла, обнаруживая все более причудливые подсказки, которые ведут к тайнам её жизни и смерти.

Качество: BDRipФормат: AVIВидео кодек: XviDАудио кодек: AC3

Видео: 720x304 (2.37:1), 23.976 fps, XviD build 67 ~1943 kbps, 0.38 bit/pixelАудио#1: 48 kHz, AC3 Dolby Digital, 3/2 (L,C,R,l,r) + LFE ch, ~384 kbps

Скачать Демон внутри через торрент http://s019.radikal.ru/i617/1704/05/92ee42bf54eb.jpg Скачать фильм Демон внутри через торрент бесплантно в хорошем качестве Описание: Патологоанатомы маленького городка получают тело жертвы таинственного убийства — красивой и молодой девушки без видимой причины ... 2017-04-12 13:16 9.8 10 12

Loading...

Loading...

% Раздел Тема Автор DL S | L
Фильмы (Blu-ray, BD-Remux, HDDVD) [ 17.24 GB ] Демон внутри / Вскрытие Джейн Доу / The Autopsy of Jane Doe [2016 BD Remux 1080p] MVO bober100 Скачать
Фильмы [HD 720p, 1080p] (Хороший звук DUB, MVO) [ 9.58 GB ] Демон внутри / Вскрытие Джейн Доу / The Autopsy of Jane Doe [2016 BDRip 1080p] MVO sheker187 Скачать
Фильмы (WEB-DL 720p, 1080p) [ 3.21 GB ] Демон внутри / Вскрытие Джейн Доу / The Autopsy of Jane Doe [2016 WEB-DL 1080p] многоголосый [AlexFilm] killermax2013 Скачать
Фильмы (HD 720p, 1080p) (48-60 fps) [ 13.06 GB ] Демон внутри / Вскрытие Джейн Доу / The Autopsy of Jane Doe [2016 BDRip 1080p / 60fps] MVO+2xVO sheker187 Скачать
Фильмы 2016 [DVDrip, WEB-DLRip, HDrip] (DUB, MVO) [ 1.42 GB ] Демон внутри / Вскрытие Джейн Доу / The Autopsy of Jane Doe [2016 BDRip] многоголосый [AlexFilm] Twi7ter Скачать
Фильмы [HD 720p, 1080p] (Хороший звук DUB, MVO) [ 4.91 GB ] Демон внутри / Вскрытие Джейн Доу / The Autopsy of Jane Doe [2016 BDRip 720p] MVO sheker187 Скачать
Фильмы 2016 [DVDrip, WEB-DLRip, HDrip] (DUB, MVO) [ 1.42 GB ] Демон внутри / Вскрытие Джейн Доу / The Autopsy of Jane Doe [2016 BDRip] многоголосый Twi7ter Скачать

Рекламный пират

12-04-2017 14:54 Демон внутри Скачать торрент  

12-04-2017 15:30 Демон внутри Скачать торрент  

shurgan1980 писал(а):

фильм супер

поддерживаю, бомбический кин. любителям жанра к просмотру обязательно

Дорогой пользователь! Огромная просьба, поблагодарите релизера, оцените раздачу и оставьте свои комментарий, если Вы скачали Демон внутри через торрент бесплатно! Внесите свою лепту в развитие PiratBit!

Комментировать посты могут только пользователи прошедшие не сложную регистрацию

Демон внутри через торрент Скачать бесплатно Демон внутри Демон внутри скачать торрент Демон внутри смотреть онлайн Cкачать фильм Демон внутри бесплатно Демон внутри скачать торрент в хорошем качестве Демон внутри смотреть онлайн бесплатно в хорошем качестве

Вы не можете начинать темыВы не можете отвечать на сообщенияВы не можете редактировать свои сообщенияВы не можете удалять свои сообщенияВы не можете голосовать в опросахВы не можете прикреплять файлы к сообщениямВы можете скачивать файлы

Скачать фильм Демон внутри через торрент в хорошем качестве бесплатно 1080p

piratbit.ru

Раздают: 4 [ 0 KB/s ]
Размер: 9.58 GB | Добавлен: 6 мес. назад | Торрент скачан:450 раз
Реклама Дарим 3000 рублей за регистрацию, не упусти свой шанс получить шикарный бонус!!!

18-04-2017 12:24 Демон внутри Скачать торрент  

Демон внутри / Вскрытие Джейн ДоуThe Autopsy of Jane Doe«Есть вещи страшнее смерти» Год выпуска: 2016Страна: Великобритания, СШАЖанр: ужасы, детективПродолжительность: 01:26:22Перевод: Профессиональный многоголосый | iTunesСубтитры: русские (Full), английские (Full), английские (SDH {Colored))Режиссер: Андре ОвредалВ ролях: Брайан Кокс (Tommy), Эмиль Хирш (Austin), Офелия Ловибонд (Emma), Майкл МакЭлхаттон (Sheriff Burke), Олуэн Катрин Келли (Jane Doe), Джейн Перри (Lieutenant Wade), Паркер Сойерс (Trooper Cole), Мэри Дадди (Irene Daniels), Марк Феникс (Louis Tannis), Сидни (Stanley the Cat), Ив О’Хара (Deputy Ballard, в титрах не указан)Описание: Патологоанатомы маленького городка получают тело жертвы таинственного убийства - красивой и молодой девушки без видимой причины смерти. Они пытаются выяснить, кто она и как умерла, обнаруживая все более причудливые подсказки, которые ведут к тайнам её жизни и смерти.Рейтинг: MPAA: R - Лицам до 17 лет обязательно присутствие взрослогоКачество: BDRip 1080pФормат: MKVВидео: AVC, 1920x800 (2.40:1), 14000 kbps, 23,976 fps, 0,380 bppАудио №1: русский / AC3 / 5.1 / 48 kHz / 384 kbps / || Аудио №2: английский / DTS / 5.1 / 48 kHz / 1509 kbps / 16 bitНавигация по главам: естьРелиз от: Автор релиза: GeneralUnique ID : 192297495778450261493460033083182658067 (0x90AB268976DFBD9DB50C45B602BBB213)Complete name : The.Autopsy.of.Jane.Doe.2016.BDRip.1080p.ExKInoRay.mkvFormat : MatroskaFormat version : Version 4 / Version 2File size : 9.58 GiBDuration : 1 h 26 minOverall bit rate : 15.9 Mb/sEncoded date : UTC 2017-04-18 09:34:27Writing application : mkvmerge v10.0.0 ('To Drown In You') 64bitWriting library : libebml v1.3.4 + libmatroska v1.4.5

VideoID : 1Format : AVCFormat/Info : Advanced Video CodecFormat profile : [email protected] settings, CABAC : YesFormat settings, ReFrames : 5 framesCodec ID : V_MPEG4/ISO/AVCDuration : 1 h 26 minBit rate : 14.0 Mb/sWidth : 1 920 pixelsHeight : 800 pixelsDisplay aspect ratio : 2.40:1Frame rate mode : ConstantFrame rate : 23.976 (24000/1001) FPSColor space : YUVChroma subsampling : 4:2:0Bit depth : 8 bitsScan type : ProgressiveBits/(Pixel*Frame) : 0.380Stream size : 8.44 GiB (88%)Writing library : x264 core 142 r2431+42 c69a006 tMod [[email protected] X86_64]Encoding settings : cabac=1 / ref=5 / deblock=1:-3:-3 / analyse=0x3:0x133 / me=umh / subme=11 / psy=1 / fade_compensate=0.00 / psy_rd=1.05:1.05 / mixed_ref=1 / me_range=48 / chroma_me=1 / trellis=2 / 8x8dct=1 / cqm=0 / deadzone=21,11 / fast_pskip=0 / chroma_qp_offset=-4 / threads=16 / lookahead_threads=2 / sliced_threads=0 / nr=0 / decimate=0 / interlaced=0 / bluray_compat=0 / constrained_intra=0 / fgo=0 / bframes=8 / b_pyramid=2 / b_adapt=2 / b_bias=0 / direct=3 / weightb=1 / open_gop=0 / weightp=2 / keyint=240 / keyint_min=23 / scenecut=40 / intra_refresh=0 / rc_lookahead=150 / rc=2pass / mbtree=0 / bitrate=14000 / ratetol=1.0 / qcomp=0.80 / qpmin=0:0:0 / qpmax=69:69:69 / qpstep=4 / cplxblur=20.0 / qblur=0.5 / vbv_maxrate=62500 / vbv_bufsize=78125 / nal_hrd=none / filler=0 / ip_ratio=1.30 / pb_ratio=1.20 / aq=2:0.65 / aq-sensitivity=10.00 / aq-factor=1.00:1.00:1.00 / aq2=0 / aq3=0Language : EnglishDefault : YesForced : NoColor range : LimitedColor primaries : BT.709Transfer characteristics : BT.709Matrix coefficients : BT.709

Audio #1ID : 2Format : AC-3Format/Info : Audio Coding 3Mode extension : CM (complete main)Format settings, Endianness : BigCodec ID : A_AC3Duration : 1 h 26 minBit rate mode : ConstantBit rate : 384 kb/sChannel(s) : 6 channelsChannel positions : Front: L C R, Side: L R, LFESampling rate : 48.0 kHzFrame rate : 31.250 FPS (1536 spf)Compression mode : LossyStream size : 237 MiB (2%)Title : iTunesLanguage : RussianDefault : YesForced : No

Audio #2ID : 3Format : DTSFormat/Info : Digital Theater SystemsMode : 16Format settings, Endianness : BigCodec ID : A_DTSDuration : 1 h 26 minBit rate mode : ConstantBit rate : 1 509 kb/sChannel(s) : 6 channelsChannel positions : Front: L C R, Side: L R, LFESampling rate : 48.0 kHzFrame rate : 93.750 FPS (512 spf)Bit depth : 16 bitsCompression mode : LossyStream size : 932 MiB (10%)Title : OriginalLanguage : EnglishDefault : NoForced : No

Text #1ID : 4Format : UTF-8Codec ID : S_TEXT/UTF8Codec ID/Info : UTF-8 Plain TextDuration : 1 h 19 minBit rate : 46 b/sCount of elements : 702Stream size : 27.2 KiB (0%)Title : FullLanguage : RussianDefault : NoForced : No

Text #2ID : 5Format : UTF-8Codec ID : S_TEXT/UTF8Codec ID/Info : UTF-8 Plain TextDuration : 1 h 18 minBit rate : 32 b/sCount of elements : 600Stream size : 18.4 KiB (0%)Title : FullLanguage : EnglishDefault : NoForced : No

Text #3ID : 6Format : UTF-8Codec ID : S_TEXT/UTF8Codec ID/Info : UTF-8 Plain TextDuration : 1 h 22 minBit rate : 48 b/sCount of elements : 925Stream size : 29.3 KiB (0%)Title : SDH {Colored)Language : EnglishDefault : NoForced : No

Menu00:00:00.000 : en:00:00:00.00000:08:38.601 : en:00:08:38.60100:17:04.607 : en:00:17:04.60700:26:37.971 : en:00:26:37.97100:36:47.706 : en:00:36:47.70600:45:33.898 : en:00:45:33.89800:53:16.819 : en:00:53:16.81901:00:45.600 : en:01:00:45.60001:06:12.635 : en:01:06:12.63501:10:49.746 : en:01:10:49.74601:16:26.499 : en:01:16:26.49901:18:22.448 : en:01:18:22.448

• Норвежский режиссер Андре Овредал был вдохновлен сделать фильм ужасов после посещения показа фильма «Заклятие». Он немедленно позвонил своим агентам и сказал им, что они должны попытаться найти хороший сценарий ужасов для него. Через месяц они показали ему этот сценарий, и он сразу же заинтересовался.• Мартин Шин был первоначально заявлен на роль Томми, но ему пришлось отказаться из-за несогласованности расписаний съемок. Он был заменен Брайаном Коксом.• Песня, играющая на протяжении всего фильма, так же играла во «Флинстоунах». «Let the Sunshine in» в исполнении Pebbles.• Имена Джон Доу (John Doe) и Джейн Доу (Jane Doe) — принятый в английском праве термин для обозначения неизвестного или анонимного участника процесса, зачастую истца. Позже термин перешел в медицину, где его используют для обозначения безымянного трупа или пациента без данных о личности (амнезия, бессознательное состояние).• Любимая сцена режиссера в фильме — сцена в лифте, когда главные герои обсуждают смерть матери. Он сказал: «Я только поставил камеру, и мы наблюдали фантастическое выступление Брайана Кокса и Эмиля Хирша». Сцена, которой он больше всего гордился, как режиссер, была сцена раскрытия символов под кожей Джейн Доу. Как было заявлено на фестивале «Монстры кино» в Стокгольме 2016 года.

• Когда мы впервые видим Эмму (в коридоре возле морга), она носит колготки. Когда она заходит в морг ее ноги голые.• После того, как тело Джейн Доу вносится в морге на тележке, Эмма уходит. На внешнем кадре, показывающим, как машина Эммы уезжает прочь, видно, что дорога заблокирована. Там нет места для скорой помощи или любого другого транспортного средства, чтобы оно смогло проехать мимо машины Эммы, и при этом нет достаточного места, чтобы подтолкнуть тележку к дому.

Скриншоты Скачать Демон внутри через торрент http://i90.fastpic.ru/big/2017/0418/81/0754cceaa1730d4f77eba6d11133ad81.png Скачать фильм Демон внутри через торрент бесплантно в хорошем качестве Описание: Патологоанатомы маленького городка получают тело жертвы таинственного убийства - красивой и молодой девушки без видимой причины ... 2017-04-18 12:24 9.8 10 15

Loading...

Loading...

% Раздел Тема Автор DL S | L
Фильмы (Blu-ray, BD-Remux, HDDVD) [ 17.24 GB ] Демон внутри / Вскрытие Джейн Доу / The Autopsy of Jane Doe [2016 BD Remux 1080p] MVO bober100 Скачать
Фильмы (WEB-DL 720p, 1080p) [ 3.21 GB ] Демон внутри / Вскрытие Джейн Доу / The Autopsy of Jane Doe [2016 WEB-DL 1080p] многоголосый [AlexFilm] killermax2013 Скачать
Фильмы (HD 720p, 1080p) (48-60 fps) [ 13.06 GB ] Демон внутри / Вскрытие Джейн Доу / The Autopsy of Jane Doe [2016 BDRip 1080p / 60fps] MVO+2xVO sheker187 Скачать
Фильмы 2016 [DVDrip, WEB-DLRip, HDrip] (DUB, MVO) [ 1.42 GB ] Демон внутри / Вскрытие Джейн Доу / The Autopsy of Jane Doe [2016 BDRip] многоголосый [AlexFilm] Twi7ter Скачать
Фильмы [HD 720p, 1080p] (Хороший звук DUB, MVO) [ 4.91 GB ] Демон внутри / Вскрытие Джейн Доу / The Autopsy of Jane Doe [2016 BDRip 720p] MVO sheker187 Скачать
Фильмы 2016 [DVDrip, WEB-DLRip, HDrip] (DUB, MVO) [ 1.42 GB ] Демон внутри / Вскрытие Джейн Доу / The Autopsy of Jane Doe [2016 BDRip] многоголосый Twi7ter Скачать
Фильмы 2016 [DVDrip, WEB-DLRip, HDrip] (DUB, MVO) [ 1.37 GB ] Демон внутри / Вскрытие Джейн Доу / The Autopsy of Jane Doe [2016 HDRip] MVO [AlexFilm] bober100 Скачать

Рекламный пират

18-04-2017 19:13 Демон внутри Скачать торрент  

Кто смотрел? стоит время тратить или нет? На что похож?

21-04-2017 17:11 Демон внутри Скачать торрент  

о , да ... смотреть однозначно стоит !!!! желательно ночью ! даже не знаю на что похож . смесь мистики , триллера и ужасов ! мне очень понравился !

04-05-2017 13:10 Демон внутри Скачать торрент  

Сам Стивен Кинг охарактеризовал этот фильм,как один из самых жутких,что он видел в этом жанре.

17-07-2017 15:48 Демон внутри Скачать торрент  

да фильм хорош

Дорогой пользователь! Огромная просьба, поблагодарите релизера, оцените раздачу и оставьте свои комментарий, если Вы скачали Демон внутри через торрент бесплатно! Внесите свою лепту в развитие PiratBit!

Комментировать посты могут только пользователи прошедшие не сложную регистрацию

Демон внутри через торрент Скачать бесплатно Демон внутри Демон внутри скачать торрент Демон внутри смотреть онлайн Cкачать фильм Демон внутри бесплатно Демон внутри скачать торрент в хорошем качестве Демон внутри смотреть онлайн бесплатно в хорошем качестве

Вы не можете начинать темыВы не можете отвечать на сообщенияВы не можете редактировать свои сообщенияВы не можете удалять свои сообщенияВы не можете голосовать в опросахВы не можете прикреплять файлы к сообщениямВы можете скачивать файлы


Смотрите также