Скачать цвет ночи торрент в хорошем качестве


Скачать фильм Цвет ночи через торрент в хорошем качестве бесплатно 720p by msltel] 2 x MVO

ОбщееУникальный идентификатор : 204681524953206133246189358371765140067 (0x99FC3A50E7D8DE55ABE2C8A74D86BA63)Полное имя : D:\Video\Цвет ночи.1994.DirCut.BDRip.720p by msltel.mkvФормат : MatroskaВерсия формата : Version 4 / Version 2Размер файла : 6,43 ГбайтПродолжительность : 2 ч. 19 м.Общий поток : 6606 Кбит/секНазвание фильма : Rip by msltelДата кодирования : UTC 2017-09-22 12:10:00Программа кодирования : mkvmerge v8.2.0 ('World of Adventure') 64bitБиблиотека кодирования : libebml v1.3.1 + libmatroska v1.4.2

ВидеоИдентификатор : 1Формат : AVCФормат/Информация : Advanced Video CodecПрофиль формата : [email protected]Параметр CABAC формата : ДаПараметр RefFrames формата : 9 кадровИдентификатор кодека : V_MPEG4/ISO/AVCПродолжительность : 2 ч. 19 м.Битрейт : 5835 Кбит/секШирина : 1280 пикселейВысота : 692 пикселяСоотношение сторон : 1,85:1Режим частоты кадров : ПостоянныйЧастота кадров : 23,976 (24000/1001) кадра/секЦветовое пространство : YUVСубдискретизация насыщенности : 4:2:0Битовая глубина : 8 битТип развёртки : ПрогрессивнаяБит/(Пиксели*Кадры) : 0.275Размер потока : 5,68 Гбайт (88%)Библиотека кодирования : x264 core 146 r2538 121396cНастройки программы : cabac=1 / ref=9 / deblock=1:-3:-2 / analyse=0x3:0x113 / me=umh / subme=11 / psy=1 / psy_rd=1.00:0.15 / mixed_ref=1 / me_range=32 / chroma_me=1 / trellis=2 / 8x8dct=1 / cqm=0 / deadzone=21,11 / fast_pskip=0 / chroma_qp_offset=-3 / threads=6 / lookahead_threads=1 / sliced_threads=0 / nr=0 / decimate=1 / interlaced=0 / bluray_compat=0 / constrained_intra=0 / bframes=12 / b_pyramid=2 / b_adapt=2 / b_bias=0 / direct=1 / weightb=1 / open_gop=0 / weightp=2 / keyint=230 / keyint_min=23 / scenecut=40 / intra_refresh=0 / rc_lookahead=40 / rc=crf / mbtree=0 / crf=20.0 / qcomp=0.60 / qpmin=0 / qpmax=69 / qpstep=4 / vbv_maxrate=62500 / vbv_bufsize=78125 / crf_max=0.0 / nal_hrd=none / filler=0 / ip_ratio=1.40 / pb_ratio=1.30 / aq=1:1.00Язык : EnglishDefault : ДаForced : Нет

Аудио #1Идентификатор : 2Формат : AC-3Формат/Информация : Audio Coding 3Параметр Endianness формата : BigИдентификатор кодека : A_AC3Продолжительность : 2 ч. 19 м.Вид битрейта : ПостоянныйБитрейт : 192 Кбит/секКаналы : 2 каналаРасположение каналов : Front: L RЧастота : 48,0 КГцЧастота кадров : 31,250 кадров/сек (1536 SPF)Битовая глубина : 16 битМетод сжатия : С потерямиРазмер потока : 191 Мбайт (3%)Заголовок : MVO.Нева-1Язык : RussianServiceKind/String : Complete MainDefault : ДаForced : Нет

Аудио #2Идентификатор : 3Формат : AC-3Формат/Информация : Audio Coding 3Параметр Endianness формата : BigИдентификатор кодека : A_AC3Продолжительность : 2 ч. 19 м.Вид битрейта : ПостоянныйБитрейт : 192 Кбит/секКаналы : 2 каналаРасположение каналов : Front: L RЧастота : 48,0 КГцЧастота кадров : 31,250 кадров/сек (1536 SPF)Битовая глубина : 16 битМетод сжатия : С потерямиРазмер потока : 191 Мбайт (3%)Заголовок : MVO.Ren TVЯзык : RussianServiceKind/String : Complete MainDefault : НетForced : Нет

Аудио #3Идентификатор : 4Формат : AC-3Формат/Информация : Audio Coding 3Параметр Endianness формата : BigИдентификатор кодека : A_AC3Продолжительность : 2 ч. 19 м.Вид битрейта : ПостоянныйБитрейт : 192 Кбит/секКаналы : 2 каналаРасположение каналов : Front: L RЧастота : 48,0 КГцЧастота кадров : 31,250 кадров/сек (1536 SPF)Битовая глубина : 16 битМетод сжатия : С потерямиРазмер потока : 191 Мбайт (3%)Заголовок : Юрий ЖивовЯзык : RussianServiceKind/String : Complete MainDefault : НетForced : Нет

Аудио #4Идентификатор : 5Формат : AC-3Формат/Информация : Audio Coding 3Параметр Endianness формата : BigИдентификатор кодека : A_AC3Продолжительность : 2 ч. 19 м.Вид битрейта : ПостоянныйБитрейт : 192 Кбит/секКаналы : 2 каналаРасположение каналов : Front: L RЧастота : 48,0 КГцЧастота кадров : 31,250 кадров/сек (1536 SPF)Битовая глубина : 16 битМетод сжатия : С потерямиРазмер потока : 191 Мбайт (3%)Заголовок : originalЯзык : EnglishServiceKind/String : Complete MainDefault : НетForced : Нет

Текст #1Идентификатор : 6Формат : UTF-8Идентификатор кодека : S_TEXT/UTF8Идентификатор кодека/Информация : UTF-8 Plain TextПродолжительность : 2 ч. 17 м.Битрейт : 102 бит/секElementCount : 1658Размер потока : 103 Кбайт (0%)Заголовок : русскиеЯзык : RussianDefault : НетForced : Нет

Текст #2Идентификатор : 7Формат : UTF-8Идентификатор кодека : S_TEXT/UTF8Идентификатор кодека/Информация : UTF-8 Plain TextПродолжительность : 2 ч. 17 м.Битрейт : 60 бит/секElementCount : 2059Размер потока : 60,5 Кбайт (0%)Заголовок : английскиеЯзык : EnglishDefault : НетForced : Нет

Меню00:00:00.000 : en:00:00:00.00000:08:27.465 : en:00:08:27.46500:17:53.197 : en:00:17:53.19700:29:09.706 : en:00:29:09.70600:37:53.104 : en:00:37:53.10400:46:50.099 : en:00:46:50.09900:56:37.477 : en:00:56:37.47701:04:18.063 : en:01:04:18.06301:16:07.104 : en:01:16:07.10401:29:03.463 : en:01:29:03.46301:52:58.897 : en:01:52:58.89702:04:57.448 : en:02:04:57.448

piratbit.ru

Скачать фильм Цвет ночи через торрент в хорошем качестве бесплатно BDRip

GeneralComplete name                    : Cvet.nochi.1994.PENTA.BDRip.XviD.AC3.aviFormat                           : AVIFormat/Info                      : Audio Video InterleaveFormat profile                   : OpenDMLFile size                        : 2.91 GiBDuration                         : 2h 19mnOverall bit rate                 : 2 990 Kbps

VideoID                               : 0Format                           : MPEG-4 VisualFormat profile                   : Advanced [email protected] settings, BVOP            : YesFormat settings, QPel            : NoFormat settings, GMC             : No warppointsFormat settings, Matrix          : CustomCodec ID                         : XVIDCodec ID/Hint                    : XviDDuration                         : 2h 19mnBit rate                         : 1 998 KbpsWidth                            : 704 pixelsHeight                           : 384 pixelsDisplay aspect ratio             : 16:9Frame rate                       : 23.976 fpsColor space                      : YUVChroma subsampling               : 4:2:0Bit depth                        : 8 bitsScan type                        : ProgressiveBits/(Pixel*Frame)               : 0.308Stream size                      : 1.94 GiB (67%)Writing library                  : XviD 65

Audio #1ID                               : 1Format                           : AC-3Format/Info                      : Audio Coding 3Mode extension                   : CM (complete main)Codec ID                         : 2000Duration                         : 2h 19mnBit rate mode                    : ConstantBit rate                         : 192 KbpsChannel(s)                       : 2 channelsChannel positions                : Front: L RSampling rate                    : 48.0 KHzBit depth                        : 16 bitsStream size                      : 191 MiB (6%)Alignment                        : Split accross interleavesInterleave, duration             : 42 ms (1.00 video frame)Interleave, preload duration     : 500 ms

Audio #2ID                               : 2Format                           : AC-3Format/Info                      : Audio Coding 3Mode extension                   : CM (complete main)Codec ID                         : 2000Duration                         : 2h 19mnBit rate mode                    : ConstantBit rate                         : 192 KbpsChannel(s)                       : 2 channelsChannel positions                : Front: L RSampling rate                    : 48.0 KHzBit depth                        : 16 bitsStream size                      : 191 MiB (6%)Alignment                        : Split accross interleavesInterleave, duration             : 42 ms (1.00 video frame)Interleave, preload duration     : 500 ms

Audio #3ID                               : 3Format                           : AC-3Format/Info                      : Audio Coding 3Mode extension                   : CM (complete main)Codec ID                         : 2000Duration                         : 2h 19mnBit rate mode                    : ConstantBit rate                         : 192 KbpsChannel(s)                       : 2 channelsChannel positions                : Front: L RSampling rate                    : 48.0 KHzBit depth                        : 16 bitsStream size                      : 191 MiB (6%)Alignment                        : Split accross interleavesInterleave, duration             : 42 ms (1.00 video frame)Interleave, preload duration     : 500 ms

Audio #4ID                               : 4Format                           : AC-3Format/Info                      : Audio Coding 3Mode extension                   : CM (complete main)Codec ID                         : 2000Duration                         : 2h 19mnBit rate mode                    : ConstantBit rate                         : 192 KbpsChannel(s)                       : 2 channelsChannel positions                : Front: L RSampling rate                    : 48.0 KHzBit depth                        : 16 bitsStream size                      : 191 MiB (6%)Alignment                        : Split accross interleavesInterleave, duration             : 42 ms (1.00 video frame)Interleave, preload duration     : 500 ms

Audio #5ID                               : 5Format                           : AC-3Format/Info                      : Audio Coding 3Mode extension                   : CM (complete main)Codec ID                         : 2000Duration                         : 2h 19mnBit rate mode                    : ConstantBit rate                         : 192 KbpsChannel(s)                       : 2 channelsChannel positions                : Front: L RSampling rate                    : 48.0 KHzBit depth                        : 16 bitsStream size                      : 191 MiB (6%)Alignment                        : Split accross interleavesInterleave, duration             : 42 ms (1.00 video frame)Interleave, preload duration     : 500 ms

piratbit.ru

Скачать фильм Цвет ночи через торрент в хорошем качестве бесплатно 1080p by msltel] 2 x MVO

ОбщееУникальный идентификатор : 231344248656231745409471118157331545761 (0xAE0B48169A21B986A6B1379FE45FBEA1)Полное имя : D:\Video\Цвет ночи.1994.DirCut.BDRip.1080p by msltel.mkvФормат : MatroskaВерсия формата : Version 4 / Version 2Размер файла : 17,6 ГбайтПродолжительность : 2 ч. 19 м.Общий поток : 18,1 Мбит/секНазвание фильма : Rip by msltelДата кодирования : UTC 2017-09-23 16:03:54Программа кодирования : mkvmerge v8.2.0 ('World of Adventure') 64bitБиблиотека кодирования : libebml v1.3.1 + libmatroska v1.4.2

ВидеоИдентификатор : 1Формат : AVCФормат/Информация : Advanced Video CodecПрофиль формата : [email protected]Параметр CABAC формата : ДаПараметр RefFrames формата : 4 кадраИдентификатор кодека : V_MPEG4/ISO/AVCПродолжительность : 2 ч. 19 м.Битрейт : 15,7 Мбит/секШирина : 1920 пикселейВысота : 1038 пикселейСоотношение сторон : 1,85:1Режим частоты кадров : ПостоянныйЧастота кадров : 23,976 (24000/1001) кадра/секЦветовое пространство : YUVСубдискретизация насыщенности : 4:2:0Битовая глубина : 8 битТип развёртки : ПрогрессивнаяБит/(Пиксели*Кадры) : 0.328Размер потока : 15,2 Гбайт (87%)Библиотека кодирования : x264 core 146 r2538 121396cНастройки программы : cabac=1 / ref=4 / deblock=1:-3:-2 / analyse=0x3:0x113 / me=umh / subme=11 / psy=1 / psy_rd=1.00:0.15 / mixed_ref=1 / me_range=32 / chroma_me=1 / trellis=2 / 8x8dct=1 / cqm=0 / deadzone=21,11 / fast_pskip=0 / chroma_qp_offset=-3 / threads=6 / lookahead_threads=1 / sliced_threads=0 / nr=0 / decimate=1 / interlaced=0 / bluray_compat=0 / constrained_intra=0 / bframes=11 / b_pyramid=2 / b_adapt=2 / b_bias=0 / direct=1 / weightb=1 / open_gop=0 / weightp=2 / keyint=230 / keyint_min=23 / scenecut=40 / intra_refresh=0 / rc_lookahead=40 / rc=crf / mbtree=0 / crf=19.1 / qcomp=0.60 / qpmin=0 / qpmax=69 / qpstep=4 / vbv_maxrate=62500 / vbv_bufsize=78125 / crf_max=0.0 / nal_hrd=none / filler=0 / ip_ratio=1.40 / pb_ratio=1.30 / aq=1:1.00Язык : EnglishDefault : ДаForced : Нет

Аудио #1Идентификатор : 2Формат : AC-3Формат/Информация : Audio Coding 3Параметр Endianness формата : BigИдентификатор кодека : A_AC3Продолжительность : 2 ч. 19 м.Вид битрейта : ПостоянныйБитрейт : 192 Кбит/секКаналы : 2 каналаРасположение каналов : Front: L RЧастота : 48,0 КГцЧастота кадров : 31,250 кадров/сек (1536 SPF)Битовая глубина : 16 битМетод сжатия : С потерямиРазмер потока : 191 Мбайт (1%)Заголовок : MVO.Нева-1Язык : RussianServiceKind/String : Complete MainDefault : ДаForced : Нет

Аудио #2Идентификатор : 3Формат : AC-3Формат/Информация : Audio Coding 3Параметр Endianness формата : BigИдентификатор кодека : A_AC3Продолжительность : 2 ч. 19 м.Вид битрейта : ПостоянныйБитрейт : 192 Кбит/секКаналы : 2 каналаРасположение каналов : Front: L RЧастота : 48,0 КГцЧастота кадров : 31,250 кадров/сек (1536 SPF)Битовая глубина : 16 битМетод сжатия : С потерямиРазмер потока : 191 Мбайт (1%)Заголовок : MVO.Ren TVЯзык : RussianServiceKind/String : Complete MainDefault : НетForced : Нет

Аудио #3Идентификатор : 4Формат : DTSФормат/Информация : Digital Theater SystemsРежим : 16Параметр Endianness формата : BigИдентификатор кодека : A_DTSПродолжительность : 2 ч. 19 м.Вид битрейта : ПостоянныйБитрейт : 510 Кбит/секКаналы : 2 каналаРасположение каналов : Front: L RЧастота : 48,0 КГцЧастота кадров : 93,750 кадра/сек (512 SPF)Битовая глубина : 24 битМетод сжатия : С потерямиРазмер потока : 508 Мбайт (3%)Заголовок : Юрий ЖивовЯзык : RussianDefault : НетForced : Нет

Аудио #4Идентификатор : 5Формат : DTSФормат/Информация : Digital Theater SystemsРежим : 16Параметр Endianness формата : BigИдентификатор кодека : A_DTSПродолжительность : 2 ч. 19 м.Вид битрейта : ПостоянныйБитрейт : 1509 Кбит/секКаналы : 2 каналаРасположение каналов : Front: L RЧастота : 48,0 КГцЧастота кадров : 93,750 кадра/сек (512 SPF)Битовая глубина : 24 битМетод сжатия : С потерямиРазмер потока : 1,47 Гбайт (8%)Заголовок : originalЯзык : EnglishDefault : НетForced : Нет

Текст #1Идентификатор : 6Формат : UTF-8Идентификатор кодека : S_TEXT/UTF8Идентификатор кодека/Информация : UTF-8 Plain TextПродолжительность : 2 ч. 17 м.Битрейт : 102 бит/секElementCount : 1658Размер потока : 103 Кбайт (0%)Заголовок : русскиеЯзык : RussianDefault : НетForced : Нет

Текст #2Идентификатор : 7Формат : UTF-8Идентификатор кодека : S_TEXT/UTF8Идентификатор кодека/Информация : UTF-8 Plain TextПродолжительность : 2 ч. 17 м.Битрейт : 60 бит/секElementCount : 2059Размер потока : 60,5 Кбайт (0%)Заголовок : английскиеЯзык : EnglishDefault : НетForced : Нет

Меню00:00:00.000 : en:00:00:00.00000:08:27.465 : en:00:08:27.46500:17:53.197 : en:00:17:53.19700:29:09.706 : en:00:29:09.70600:37:53.104 : en:00:37:53.10400:46:50.099 : en:00:46:50.09900:56:37.477 : en:00:56:37.47701:04:18.063 : en:01:04:18.06301:16:07.104 : en:01:16:07.10401:29:03.463 : en:01:29:03.46301:52:58.897 : en:01:52:58.89702:04:57.448 : en:02:04:57.448

piratbit.ru

/ Color of Night ( / Richard Rush) [1994, , , , , , BDRip-AVC] MVO (-1, ) + AVO (. ) + Sub Rus + Original Eng

General Unique ID : 208313325000440399174351876148803674727 (0x9CB7AFE21236393298AFF209EFB82267) Complete name : F:\FILMS\___ - R - ___\Color of Night (Director's Cut).mkv Format : Matroska Format version : Version 2 File size : 4.37 GiB Duration : 2h 19mn Overall bit rate : 4 488 Kbps Encoded date : UTC 2012-11-22 20:40:08 Writing application : mkvmerge v5.6.0 ('Kenya Kane') built on May 27 2012 16:44:04 Writing library : libebml v1.2.3 + libmatroska v1.3.0

Video

ID : 1 Format : AVC Format/Info : Advanced Video Codec Format profile : [email protected] Format settings, CABAC : Yes Format settings, ReFrames : 12 frames Codec ID : V_MPEG4/ISO/AVC Duration : 2h 19mn Bit rate : 3 720 Kbps Width : 1 120 pixels Height : 606 pixels Display aspect ratio : 1.85:1 Frame rate mode : Constant Frame rate : 23.976 fps Color space : YUV Chroma subsampling : 4:2:0 Bit depth : 8 bits Scan type : Progressive Bits/(Pixel*Frame) : 0.229 Stream size : 3.53 GiB (81%) Title : AVC [email protected] fps ~3720 kBit/s 2-pass High 4.1 Writing library : x264 core 122 r2184bm 5c85e0a Encoding settings : cabac=1 / ref=12 / deblock=1:-2:-2 / analyse=0x3:0x133 / me=umh / subme=10 / psy=1 / psy_rd=1.00:0.05 / mixed_ref=1 / me_range=48 / chroma_me=1 / trellis=2 / 8x8dct=1 / cqm=0 / deadzone=21,11 / fast_pskip=0 / chroma_qp_offset=-3 / threads=6 / sliced_threads=0 / nr=0 / decimate=0 / interlaced=0 / bluray_compat=0 / constrained_intra=0 / bframes=12 / b_pyramid=2 / b_adapt=2 / b_bias=0 / direct=3 / weightb=1 / open_gop=0 / weightp=2 / keyint=250 / keyint_min=23 / scenecut=40 / intra_refresh=0 / rc=2pass / mbtree=0 / bitrate=3720 / ratetol=1.0 / qcomp=0.90 / qpmin=0 / qpmax=69 / qpstep=4 / cplxblur=20.0 / qblur=0.5 / ip_ratio=1.40 / pb_ratio=1.35 / aq=2:0.80 Language : English Default : Yes Forced : No

Audio #1

ID : 2 Format : AC-3 Format/Info : Audio Coding 3 Mode extension : CM (complete main) Format settings, Endianness : Big Codec ID : A_AC3 Duration : 2h 19mn Bit rate mode : Constant Bit rate : 192 Kbps Channel(s) : 2 channels Channel positions : Front: L R Sampling rate : 48.0 KHz Bit depth : 16 bits Compression mode : Lossy Stream size : 191 MiB (4%) Title : MVO -1 AC3 192 kBit/s 48 kHz 2.0 DD Language : Russian Default : Yes Forced : No

Audio #2

ID : 3 Format : AC-3 Format/Info : Audio Coding 3 Mode extension : CM (complete main) Format settings, Endianness : Big Codec ID : A_AC3 Duration : 2h 19mn Bit rate mode : Constant Bit rate : 192 Kbps Channel(s) : 2 channels Channel positions : Front: L R Sampling rate : 48.0 KHz Bit depth : 16 bits Compression mode : Lossy Stream size : 191 MiB (4%) Title : MVO AC3 192 kBit/s 48 kHz 2.0 DD Language : Russian Default : No Forced : No

Audio #3

ID : 4 Format : AC-3 Format/Info : Audio Coding 3 Mode extension : CM (complete main) Format settings, Endianness : Big Codec ID : A_AC3 Duration : 2h 19mn Bit rate mode : Constant Bit rate : 192 Kbps Channel(s) : 2 channels Channel positions : Front: L R Sampling rate : 48.0 KHz Bit depth : 16 bits Compression mode : Lossy Stream size : 191 MiB (4%) Title : AVO AC3 192 kBit/s 48 kHz 2.0 DD Language : Russian Default : No Forced : No

Audio #4

ID : 5 Format : AC-3 Format/Info : Audio Coding 3 Mode extension : CM (complete main) Format settings, Endianness : Big Codec ID : A_AC3 Duration : 2h 19mn Bit rate mode : Constant Bit rate : 192 Kbps Channel(s) : 2 channels Channel positions : Front: L R Sampling rate : 48.0 KHz Bit depth : 16 bits Compression mode : Lossy Stream size : 191 MiB (4%) Title : English AC3 192 kBit/s 48 kHz 2.0 DD Language : English Default : No Forced : No

Text #1

ID : 6 Format : UTF-8 Codec ID : S_TEXT/UTF8 Codec ID/Info : UTF-8 Plain Text Language : Russian Default : No Forced : No

Text #2

ID : 7 Format : UTF-8 Codec ID : S_TEXT/UTF8 Codec ID/Info : UTF-8 Plain Text Language : English Default : No Forced : No

unionpeer.com

Скачать фильм цвет ночи через торрент в хорошем качестве

 

 

 

 

Что-бы бесплатно и без регистрации скачать Цвет ночи (1994) через торрент - воспользутейсь данной инструкцией. Здесь Вы можете загрузить данное кино в нескольких качествах: DVDRip, HDRip, BDRip и тд. Скачать торрент-файл Цвет ночи / Color of Night (1994) в хорошем качестве. Скачать торрент: Темнее ночи.torrent. Качество: . Скачать фильм Темнее ночи (2014) через торрент. Год выхода: 1994. Название: Цвет ночи. Режиссер: Ричард Раш. Фильм Ночь тамплиера (2012) Скачать Через Торрент. Качество: HDRip. Сайт не распространяет и не хранит электронные версии произведений, а лишь предоставляет доступ к создаваемому kinokachestvo.com. Найти. Многие видели в Цвете ночи неудачную попытку копировать Основной инстинкт Пола Верховена. У нас вы можете скачать Цвет ночи через торрент бесплатно. Фильм хороший, советую если кто ещё не видел. Мои черничные ночи (2007) » Скачать фильмы через торрент. Цвет ночи / Color of Night (1994) BDRip 1080p от FREEISLAND. Чтобы скачать торрент Цвет ночи бесплатно, вам необходимо пролистать страницу чуть ниже, где под описанием фильма, Вы найдете список torrent раздач. Inglide 20-Ноя-12 19:18 (4 года 6 месяцев назад, ред. Цвет ночи скачать через торрент / Color of Night (Ричард Раш). 2.63 ГБ.

Как скачать фильм бесплатно с файлообменников? Что такое торрент и как через него скачать фильмы? Синие ночи [01-12 из 12] 2008 DVDRip скачать через торрент. Как скачивать Что такое torrent (торрент). Психоаналитик Билл Капа прекращает свою медицинскую практику после того, как пациентка выбрасывается из окна.. 80. 25.12.2010 Публикаций: 0 Комментариев: 46 Статус: Оффлайн ICQ: 12345. Скачать бесплатно торрент файл Цвет ночи / Color of Night (1994) HDRip | Режиссерская версия. Все новые фильмы, игры, сериалы, книги и музыка за 2013 и 2014 годы через торрент бесплатно.

Огромная просьба, оставляйте свои комментарии, если скачали фильм Темнее ночи (2014) через торрент бесплатно! Цвет ночи скачать торрент в хорошем качестве бесплатно. Цвет ночи | смотреть онлайн, скачать torrent бесплатно. Либо он невиновен, либо хороший лжец. Фильм Хозяева ночи скачать торрент. Информация о фильме: Название: Цвет ночи Оригинальное название: Color of Night Год выхода: 1994 Жанр: триллер, драма, мелодрама, детектив Режиссер: Ричард Раш В ролях Цвет ночи скачать торрент бесплатно. Скачать фильмы бесплатно » Главная » скачать фильм Цвет ночи (1994) бесплатно с торрента. Скачать Cvet.nochi.1994.PENTA.BDRip.XviD.AC3.-HQCLUB.av.torrent. Цвет ночи / Color of Night (1994) HDRip | Режиссерская версия. Этот торрент Вы сможете скачать бесплатно и без регистрации. Качество: DVDRip Формат: MKV Видео: 720x344 23.976 fps 1140 Kbps] Аудио: 1. Скачивайте через торрент Цвет ночи / Color of Night (1994) НDRip бесплатно, в хорошем качестве. Мегрэ: Ночь на перекрёстке / Maigret: Night at the Crossroads. Торрент трекер Russ-Tracker скачать торрент » Фильмы » Эротика » Цвет ночи / Color of Странная ночь (2016) фильм скачать через торрент в хорошем. Закон ночи (2017) скачать торрент в хорошем качестве бесплатно. Скачать Цвет ночи (1994) через торрент бесплатно, Цвет ночи (1994) .torrent полная версия на русском языке. Качество Скачать фильмы Цвет ночи - ТОРРЕНТИНО - торрент трекер. Скачать Цвет ночи через torrent: скачать [17,35 Kb] (cкачиваний: 136). Цвет ночи / Color of Night (Ричард Раш / Richard Rush) [1994, США. скачать фильм Цвет ночи (1994) бесплатно с торрента. 14-02-1994, 11:14 Качество: HD Скачиваний: 18456. Цвет ночи (1994) смотреть онлайн или скачать фильм через. [Цитировать]. Здравствуйте! Вы скачали раздачу. Файл. Как тут качать? Фильм Цвет ночи скачать в хорошем качестве HD. Журнал «MAXIM» назвал эротические сцены в фильме лучшими за всю историю Цвет ночи (1994) скачать фильм через торрент бесплатно. Чудовищная ночь / Mischief Night (2014) скачать через торрент. искать в разделе фильмы сериалы торренты игра. Цвет ночи / Color of Night (1994) 1080p. Цвет ночи (1994) HDRip скачать торрент - Детектив - Каталог. Спасибо отличный фильм смотрел в 90 помню был шокирован на первых минутах когда дама Цвет ночи 1994 - скачать бесплатно через торрент в хорошем. Информация о фильме. О торрент фильме: Герой фильма Цвет ночи (Color of Night) нью-йоркский психолог, который потерял пациентку. Темнее ночи (2014) » Торрент фильмы бесплатно. А что знает его сестра, беззащитная красавица Эльза? И что заставляет всех на перекрестке «Трёх вдов» быть такими скрытными? Скачать кино цвет черемухи торрент. Темнее ночи / Ms negro que la noche (2014) BDRip | D | Лицензия. Скачать фильм торрент Цвет ночи. Цвет ночи / Color of night (1994) BDRip-AVC через торрент. Цвет ночи / Color of Night (1994) DVDRip | Режиссерская версия. Год выпуска: 1994. 20-Ноя-12 20:03).

Размер файла. Фильм Цвет ночи (1994) скачать торрент в хорошем качестве. Темнее ночи / Mas negro que la noche (2014/WEBRip) | Чистый звук. Цвет ночи (1994) смотреть онлайн бесплатно в хорошем. Скачать фильм Цвет ночи через торрент в хорошем качестве. Скачать Цвет ночи торрент бесплатно без регистрации. Качество: DVDRip Озвучивание: Профессиональное (многоголосое) Время: 02:21:17 Видео: XviD, 1279 kbps, 688x368 Аудио дорожка 1: русский, AC3 2.0, 192 kbps. new-rutor.org :: Цвет ночи / Color of Night (1994) BDRip от HQCLUB. Приглашаем всех любителей кино насладится последними новинками и признанной классикой в хорошем качестве. Скачать Темнее ночи через торрент - фильм в хорошем. Сделайте и нам хорошее дело! Скачать Цвет ночи через торрент бесплатно. О фильме: Брюс Уиллис в роли нью-йоркского психиатра, потерявшего пациентку - она выбросилась в окно прямо во время сеанса. Цвет ночи. 1. Информация о фильме Название: Цвет ночи Оригинальное название: Color of night Год выхода: 1994 Жанр Синие ночи [1 сезон] (2008) DVDRip скачать торрент в хорошем. Загрузил: 8 декабря 2015 14:45 Статус: Проверено. Перевод. Цвет ночи » Скачать торрент фильмы. скачать торрентом: Цвет ночи торрент: Color of Night Год: 1994 Жанр: триллер, драма Цвет ночи / Color of Night (1994) НDRip скачать торрент бесплатно. Молодой ещё Уиллис Да и сюжет детективно-триллерный довольно интересен. Скачать фильм 30 дней ночи: Темные времена (2010) через. Файл Кодек: h364 Качество: BDRip-AVC Видео: MPEG-4 AVC, 2435 Кбит/с, 1024x554, 23.976 кадр/с. Качество. Скачать торрент. Цвет ночи (1994) скачать торрент файл бесплатно. Скачать Цвет ночи через торрент в хорошем качестве скачать. Скачать бесплатно через торрент в хорошем качестве HD » Детектив » Цвет ночи (1994). Однозначно фильм хорошим или плохим назвать нельзя. Главная » Фильмы » Фильмы в хорошем качестве » Цвет ночи (1994). Скачивайте фильмы в хорошем качестве, игры для пк, xbox, playstation без регистрации. Скачать Цвет ночи - Color of Night (1993) торрент трекер. Информация о фильме Название: Цвет ночи Оригинальное название: Color of Night Год выхода: 1994 Жанр Скачать фильм Цвет ночи / Color of Night [Режиссерская версия]. скачать фильм Цвет ночи BDRip бесплатно. Скачать торрент Цвет ночи - Color of Night. AAC-LC 48 Темнее ночи 2014 скачать фильм через торрент в хорошем. «Цвет ночи» скачать торрент [1994] - 99Torrents.Club. Цвет ночи На нашем сайте вы можете бесплатно скачать любой фильм с файлообменника по прямой ссылке или через торрент, причем без регистрации. Цвет ночи / Color of Night. Сообщить о появлении в хорошем качестве. Скачать торрент-файл Цвет ночи. Режиссерские версии » Скачать торрент Цвет ночи / Color of Night [Режиссерская версия] (Ричард Цвет ночи (1994) скачать торрент бесплатно | Похожие фильмы. Жанр: Детектив, Триллер. Темнее ночи (2014) скачать торрент в хорошем HD качестве. Vip-File: Cкачать. Скачать фильм Цвет ночи через torrent: скачать (cкачиваний: 870). Скачать без. Кроме того, фильм еще на момент продакшена был подвергнут жесткой критике со стороны цензуры. Рейтинг лучших фильмов, комментарии пользователей, рейтинг, сеансы, новости, рейтинг фильма.

www.tiavo.ru


Смотрите также