Скачать через торрент затащи меня в ад в хорошем качестве


Скачать фильм Затащи меня в Ад через торрент в хорошем качестве бесплатно HDRip

piratbit.ru

Размер: 1.37 GB | Добавлен: 6 лет 3 мес. назад | Торрент скачан:719 раз
Реклама Дарим 3000 рублей за регистрацию, не упусти свой шанс получить шикарный бонус!!!

03-07-2011 12:03 Затащи меня в Ад Скачать торрент  

Затащи меня в Ад / Drag Me to Hell

Год выпуска: 2009Страна: СШАЖанр: Ужасы, триллерПродолжительность: 01:39:05Перевод: Профессиональный (полное дублирование) [Лицензия]

Режиссер: Сэм Рэйми / Sam Raimi

В ролях: Элисон Ломан, Джастин Лонг, Лорна Рэвер, Дилип Рао, Дэвид Пэймер, Адриана Барраза, Челси Росс, Регги Ли, Молли Чик, Бояна Новакович

Описание: Банковская служащая Кристин Браун отказывается продлить кредит странной старухе-цыганке. Старуха накладывает на девушку старинное заклятье у Кристин есть три дня, чтобы снять его, иначе ее утащат в ад.

Качество: HDRipФормат: AVIВидео кодек: XviDАудио кодек: AC3Видео: 720x304 (2.37:1), 23.976 fps, XviD build 50 ~1648 kbps avg, 0.30 bit/pixelАудио: 48 kHz, AC3 Dolby Digital, 3/2 (L,C,R,l,r) + LFE ch, ~320.00 kbps avg                 

Скачать Затащи меня в Ад через торрент http://i24.fastpic.ru/big/2011/0703/6b/88f3aae477ee79d576a7999b2ca9ee6b.png Скачать фильм Затащи меня в Ад через торрент бесплантно в хорошем качестве Описание: Банковская служащая Кристин Браун отказывается продлить кредит странной старухе-цыганке. Старуха накладывает на девушку старинное ... 2011-07-03 12:03 8.2 10 10

Loading...

Loading...

Рекламный пират

03-07-2011 15:13 Затащи меня в Ад Скачать торрент  

СМОТРЕЛ ДАВНО , НОРМАЛЬНЫЙ ФИЛЬМ

03-07-2011 17:33 Затащи меня в Ад Скачать торрент  

прикольный фильм

03-07-2011 20:45 Затащи меня в Ад Скачать торрент  

Обложка от блюрея тут не катит

Код:

[img]http://i26.fastpic.ru/big/2011/0704/28/c99d82477d5ede91ab23ab6281cf7e28.png[/img]

Код:

[img]http://i26.fastpic.ru/big/2011/0704/b1/ba898c921e8bad2f402022efab2f16b1.png[/img]

14-07-2011 07:24 Затащи меня в Ад Скачать торрент  

Вычитал: "Идея проклятия демоном банковского работника, после отказа предоставить кредит, основана на реальных событиях, произошедших в Орегоне (США) в 1996 году". Забираю...

15-07-2011 15:05 Затащи меня в Ад Скачать торрент  

Да! Достойно. Концовка необычна...

06-09-2011 06:01 Затащи меня в Ад Скачать торрент  

Да! Очень интересный и необычный сюжет.

02-01-2012 18:46 Затащи меня в Ад Скачать торрент  

Скорости плиззззззззззззз

04-01-2012 07:25 Затащи меня в Ад Скачать торрент  

Мутный фильм!!! :negative:

Pекламный агент PB

27-07-2012 18:54 Затащи меня в Ад Скачать торрент  

мне лично понравился!!!

20-08-2012 05:13 Затащи меня в Ад Скачать торрент  

Концовка класс,по больше бы таких

25-01-2017 08:51 Затащи меня в Ад Скачать торрент  

25-01-2017 08:58 Затащи меня в Ад Скачать торрент  

Кто нибудь раздайте!!! Вообще не качает!!!

Дорогой пользователь! Огромная просьба, поблагодарите релизера, оцените раздачу и оставьте свои комментарий, если Вы скачали Затащи меня в Ад через торрент бесплатно! Внесите свою лепту в развитие PiratBit!

Комментировать посты могут только пользователи прошедшие не сложную регистрацию

Затащи меня в Ад через торрент Скачать бесплатно Затащи меня в Ад Затащи меня в Ад скачать торрент Затащи меня в Ад смотреть онлайн Cкачать фильм Затащи меня в Ад бесплатно Затащи меня в Ад скачать торрент в хорошем качестве Затащи меня в Ад смотреть онлайн бесплатно в хорошем качестве

Вы не можете начинать темыВы не можете отвечать на сообщенияВы не можете редактировать свои сообщенияВы не можете удалять свои сообщенияВы не можете голосовать в опросахВы не можете прикреплять файлы к сообщениямВы можете скачивать файлы

Затащи меня в Ад 2009

www.kinovit.net

Название: Затащи меня в Ад / Drag Me to Hell (2009) BDRip 720p от KinoGadget | iPad | D
Качество видео: BDRip 720p Исходник: Blu-Ray (1080p) Формат: mp4
Перевод: Дублированный
Видео: MPEG-4 AVC Аудио кодек: AAC 1280x536 (2.40:1) at 23.976 fps, AVC at 2 555 kbps avg, 0.155 bit/pixel
Аудио: 48.0 KHz, AAC, 2 ch, 128.0 Kbps48.0 KHz, AAC, 2 ch, 128.0 Kbps
Скачать

Загрузка начнется в течение 5 сек.

1.95 GB

Название: Затащи меня в Ад / Drag Me to Hell (2009) DVD9 | D
Качество видео: DVD9 "West Video&quot
Перевод: полное дублирование
Видео: MPEG2 PAL 16:9 ([email protected]) VBR 6457 Kbps, 25.000 fps
Аудио: Dolby AC3, 6 ch, 48.0 KHz, 384 Kbps (русский, английский)DTS 6 ch, 48.0 KHz, 768 Kbps (русский)
Скачать

Загрузка начнется в течение 5 сек.

7.67 GB

Название: Затащи меня в Ад / Drag Me to Hell (2009) BDRip-AVC от MediaClub | D, P, A
Качество видео: BDRip-AVC
Перевод: Дублированный, профессиональный многоголосый, авторский одноголосый, украинский
Видео: MPEG-4 AVC 2400 Кбит/с, 1024х426, 23.976 кадр/с
Аудио: Русский (AC3, 6 ch, 448 Кбит/с) / Профессиональный многоголосыйРусский (AC3, 6 ch, 448 Кбит/с) / Авторский одноголосый (А. Гаврилов)Русский (AC3, 6 ch, 448 Кбит/с) / Авторский одноголосый (Ю. Немахов)Украинский (AC3, 6 ch, 448 Кбит/с) / Профессиональный двухголосыйАнглийский (AC3, 6 ch, 448 Кбит/с)
Скачать

Загрузка начнется в течение 5 сек.

3.52 GB

Название: Затащи меня в Ад / Drag Me to Hell (2009) HDRip от Scarabey | D
Качество видео: HDRip
Перевод: Профессиональный (полное дублирование)
Формат видео: AVI
Видео: 720x304 (2.37:1), 23.976 fps, XviD build 73 ~1638 kbps avg, 0.31 bit/pixel
Аудио: 48 kHz, AC3 Dolby Digital, 3/2 (L,C,R,l,r) + LFE ch, ~448.00 kbps avg
Скачать

Загрузка начнется в течение 5 сек.

1.45 GB

Название: Затащи меня в Ад / Drag Me to Hell (2009) HDRip от Scarabey | D
Качество видео: HDRip
Перевод: Профессиональный (полное дублирование)
Формат видео: AVI
Видео: 688x288 (2.39:1), 23.976 fps, XviD build 50 ~920 kbps avg, 0.19 bit/pixel
Аудио: 48 kHz, MPEG Layer 3, 2 ch, ~128.00 kbps avg
Скачать

Загрузка начнется в течение 5 сек.

748.41 MB

Название: Затащи меня в Ад / Drag Me to Hell (2009) BDRip-AVC | Unrated | D, A
Качество видео: BDRip-AVC
Перевод: Дублированный, авторский (А.Ю.Гаврилов)
Видео: x.264 1152x480, 23.976 fps, 1995 kbps
Аудио: AC-3, 6 ch, 384 kbps (Rus) (А.Ю.Гаврилов)AC-3, 6 ch, 384 kbps (Eng)
Скачать

Загрузка начнется в течение 5 сек.

2.18 GB

Название: Затащи меня в Ад / Drag Me to Hell (2009) BDRip 1080p от NoLimits-Team & FireBit-Films | Unrated
Качество видео: BDRip 1080p (исходник Blu-ray Disc)
Перевод: Дублированный, Профессиональный (многоголосый закадровый) (Киномания), Авторский (одноголосый закадровый) (Ю.Немахов | А.Гаврилов)
Видео: 1920x800, 9080 Кбит/сек, 23,976 кадр/сек, AVC, x264, [email protected], 2.40:1, 0.247 Бит/[Пиксели*Кадры], 2pass
Аудио: AC-3, 448 Кбит/сек, 6 канала(ов), 48,0 КГц - Дублированный / РусскийAC-3, 448 Кбит/сек, 6 канала(ов), 48,0 КГц - Многоголосый закадровый (Киномания) / РусскийAC-3, 448 Кбит/сек, 6 канала(ов), 48,0 КГц - Одноголосый закадровый (Ю.Немахов) / РусскийAC-3, 448 Кбит/сек, 6 канала(ов), 48,0 КГц - Одноголосый закадровый (А.Гаврилов) / РусскийAC-3, 640 Кбит/сек, 6 канала(ов), 48,0 КГц - Оригинал / Английский
Скачать

Загрузка начнется в течение 5 сек.

7.95 GB

Название: Затащи меня в Ад / Drag Me to Hell (2009) BDRip-AVC от 0ptimus | D | Unrated
Качество видео: BDRip-AVC
Перевод: Дублированный
Видео: h.264 1742 Кбит/с, 1024х428, 23.976 кадр/с
Аудио: Русский, английский (AC3, 6 ch, 384 Кбит/с)
Скачать

Загрузка начнется в течение 5 сек.

1.74 GB

Название: Затащи меня в Ад / Drag Me to Hell (2009) HDRip-AVC | Театральная версия | P
Качество видео: HDRip-AVC
Перевод: Профессиональный (многоголосый, закадровый)
Видео: H.264 880x368 (2.35), at 23.976 fps, MPEG-4 part 10 (AVC), 0.123 bit/pixel, ~ 954 kbps avg
Аудио: ND AAC, LC, 48 KHz, 96 kbps, VBR, 2 Ch (L R), 16 bits
Скачать

Загрузка начнется в течение 5 сек.

744.17 MB

Название: Затащи меня в Ад / Drag Me to Hell (2009) BDRip-AVC от Rulya74
Качество видео: BDRip-AVC
Перевод: Дублированный, Оригинал (Английский)
Видео: h.264 1024x428 (2,40:1), 23,976 fps, 1523 kbps, 0.145 bit/pixel
Аудио: 48 kHz, AC3 5.1, 384.00 kbps (Русский)48 kHz, AC3 2.0, 192.00 kbps (Английский)
Скачать

Загрузка начнется в течение 5 сек.

1.45 GB

Название: Затащи меня в Ад / Drag Me to Hell (2009) HDRip | Theatrical Cut
Качество видео: HDRipРип с BDRip 720p
Перевод: Профессиональный (полное дублирование)
Видео: XviD 720x304 (2.37:1), 23.976 fps, XviD build 50 ~914 kbps avg, 0.17 bit/pixel
Аудио: 48 kHz, MPEG Layer 3, 2 ch, ~128.00 kbps avg
Скачать

Загрузка начнется в течение 5 сек.

745.81 MB

Название: Затащи меня в Ад / Drag Me to Hell (2009) BDRip 1080p
Качество видео: BDRip 1080p
Перевод: Дубляж
Видео: h364 1920x800, 5933 Kbps, 23,976 fps
Аудио: 48 kHz, AC3, 6c, 384 kbps
Скачать

Загрузка начнется в течение 5 сек.

4.37 GB

Название: Затащи меня в Ад / Drag Me to Hell (2009) HDRip-AVC | D
Качество видео: HDRip-AVC
Перевод: Дублированный | Лицензия
Формат видео: MKV
Видео: MPEG4 Video (h364) 1080x448 23.976fps, 2410 kbps
Аудио: AC3, 48000Hz, 6ch, 320 kbps (Russian)AC3, 48000Hz, 2ch, 224 kbps (English)
Скачать

Загрузка начнется в течение 5 сек.

2.04 GB

Затащи меня в Ад через торрент

GeneralUnique ID                                : 240827048834875965525235927862404407907 (0xB52D9A3BEDEA9C6890E3F34DA36F6263)Complete name                            : N:\Ужасы\Zataschi.Menya.v.Ad.2009.4xRus.Ukr.Eng.BDRip.720p.-HELLYWOOD.mkvFormat                                   : MatroskaFormat version                           : Version 4 / Version 2File size                                : 5.76 GiBDuration                                 : 1 h 38 minOverall bit rate                         : 8 341 kb/sMovie name                               : Drag Me to Hell (2009) [UNRATED]Encoded date                             : UTC 2016-07-11 13:11:15Writing application                      : mkvmerge v5.9.0 ('On The Loose') built on Dec 15 2012 16:39:58Writing library                          : libebml v1.3.0 + libmatroska v1.4.0

VideoID                                       : 1Format                                   : AVCFormat/Info                              : Advanced Video CodecFormat profile                           : [email protected] settings, CABAC                   : YesFormat settings, ReFrames                : 9 framesCodec ID                                 : V_MPEG4/ISO/AVCDuration                                 : 1 h 38 minBit rate                                 : 5 139 kb/sWidth                                    : 1 280 pixelsHeight                                   : 534 pixelsDisplay aspect ratio                     : 2.40:1Frame rate mode                          : ConstantFrame rate                               : 23.976 (24000/1001) FPSColor space                              : YUVChroma subsampling                       : 4:2:0Bit depth                                : 8 bitsScan type                                : ProgressiveBits/(Pixel*Frame)                       : 0.314Stream size                              : 3.44 GiB (60%)Title                                    : potroksWriting library                          : x264 core 148 r2705M 3f5ed56Encoding settings                        : cabac=1 / ref=9 / deblock=1:-3:-3 / analyse=0x3:0x133 / me=umh / subme=11 / psy=1 / psy_rd=1.00:0.05 / mixed_ref=1 / me_range=48 / chroma_me=1 / trellis=2 / 8x8dct=1 / cqm=0 / deadzone=21,11 / fast_pskip=0 / chroma_qp_offset=-3 / threads=9 / lookahead_threads=2 / sliced_threads=0 / nr=0 / decimate=0 / interlaced=0 / bluray_compat=0 / constrained_intra=0 / bframes=10 / b_pyramid=2 / b_adapt=2 / b_bias=0 / direct=3 / weightb=1 / open_gop=0 / weightp=2 / keyint=240 / keyint_min=23 / scenecut=40 / intra_refresh=0 / rc_lookahead=100 / rc=2pass / mbtree=0 / bitrate=5139 / ratetol=1.0 / qcomp=0.70 / qpmin=1 / qpmax=69 / qpstep=4 / cplxblur=20.0 / qblur=0.5 / vbv_maxrate=50000 / vbv_bufsize=60000 / nal_hrd=none / filler=0 / ip_ratio=1.40 / pb_ratio=1.30 / aq=1:0.85Language                                 : EnglishDefault                                  : YesForced                                   : No

Audio #1ID                                       : 2Format                                   : AC-3Format/Info                              : Audio Coding 3Mode extension                           : CM (complete main)Format settings, Endianness              : BigCodec ID                                 : A_AC3Duration                                 : 1 h 38 minBit rate mode                            : ConstantBit rate                                 : 640 kb/sChannel(s)                               : 6 channelsChannel positions                        : Front: L C R, Side: L R, LFESampling rate                            : 48.0 kHzFrame rate                               : 31.250 FPS (1536 spf)Compression mode                         : LossyStream size                              : 453 MiB (8%)Title                                    : Dub | DD 5.1 @ 640 kbpsLanguage                                 : RussianDefault                                  : YesForced                                   : No

Audio #2ID                                       : 3Format                                   : AC-3Format/Info                              : Audio Coding 3Mode extension                           : CM (complete main)Format settings, Endianness              : BigCodec ID                                 : A_AC3Duration                                 : 1 h 38 minBit rate mode                            : ConstantBit rate                                 : 448 kb/sChannel(s)                               : 6 channelsChannel positions                        : Front: L C R, Side: L R, LFESampling rate                            : 48.0 kHzFrame rate                               : 31.250 FPS (1536 spf)Compression mode                         : LossyStream size                              : 317 MiB (5%)Title                                    : MVO | DD 5.1 @ 448 kbps - CinemaniaLanguage                                 : RussianDefault                                  : NoForced                                   : No

Audio #3ID                                       : 4Format                                   : AC-3Format/Info                              : Audio Coding 3Mode extension                           : CM (complete main)Format settings, Endianness              : BigCodec ID                                 : A_AC3Duration                                 : 1 h 38 minBit rate mode                            : ConstantBit rate                                 : 640 kb/sChannel(s)                               : 6 channelsChannel positions                        : Front: L C R, Side: L R, LFESampling rate                            : 48.0 kHzFrame rate                               : 31.250 FPS (1536 spf)Compression mode                         : LossyStream size                              : 453 MiB (8%)Title                                    : AVO | DD 5.1 @ 640 kbps - A.GavrilovLanguage                                 : RussianDefault                                  : NoForced                                   : No

Audio #4ID                                       : 5Format                                   : AC-3Format/Info                              : Audio Coding 3Mode extension                           : CM (complete main)Format settings, Endianness              : BigCodec ID                                 : A_AC3Duration                                 : 1 h 38 minBit rate mode                            : ConstantBit rate                                 : 640 kb/sChannel(s)                               : 6 channelsChannel positions                        : Front: L C R, Side: L R, LFESampling rate                            : 48.0 kHzFrame rate                               : 31.250 FPS (1536 spf)Compression mode                         : LossyStream size                              : 453 MiB (8%)Title                                    : AVO | DD 5.1 @ 640 kbps - Yu.NemahovLanguage                                 : RussianDefault                                  : NoForced                                   : No

Audio #5ID                                       : 6Format                                   : AC-3Format/Info                              : Audio Coding 3Mode extension                           : CM (complete main)Format settings, Endianness              : BigCodec ID                                 : A_AC3Duration                                 : 1 h 38 minBit rate mode                            : ConstantBit rate                                 : 192 kb/sChannel(s)                               : 2 channelsChannel positions                        : Front: L RSampling rate                            : 48.0 kHzFrame rate                               : 31.250 FPS (1536 spf)Compression mode                         : LossyStream size                              : 136 MiB (2%)Title                                    : MVO | DD 2.0 @ 192 kbps - TETLanguage                                 : UkrainianDefault                                  : NoForced                                   : No

Audio #6ID                                       : 7Format                                   : AC-3Format/Info                              : Audio Coding 3Mode extension                           : CM (complete main)Format settings, Endianness              : BigCodec ID                                 : A_AC3Duration                                 : 1 h 38 minBit rate mode                            : ConstantBit rate                                 : 640 kb/sChannel(s)                               : 6 channelsChannel positions                        : Front: L C R, Side: L R, LFESampling rate                            : 48.0 kHzFrame rate                               : 31.250 FPS (1536 spf)Compression mode                         : LossyStream size                              : 453 MiB (8%)Title                                    : Original | DD 5.1 @ 640 kbpsLanguage                                 : EnglishDefault                                  : NoForced                                   : No

Text #1ID                                       : 8Format                                   : UTF-8Codec ID                                 : S_TEXT/UTF8Codec ID/Info                            : UTF-8 Plain TextTitle                                    : v1Language                                 : RussianDefault                                  : NoForced                                   : No

Text #2ID                                       : 9Format                                   : UTF-8Codec ID                                 : S_TEXT/UTF8Codec ID/Info                            : UTF-8 Plain TextTitle                                    : v2Language                                 : RussianDefault                                  : NoForced                                   : No

Text #3ID                                       : 10Format                                   : UTF-8Codec ID                                 : S_TEXT/UTF8Codec ID/Info                            : UTF-8 Plain TextTitle                                    : v3Language                                 : RussianDefault                                  : NoForced                                   : No

Text #4ID                                       : 11Format                                   : UTF-8Codec ID                                 : S_TEXT/UTF8Codec ID/Info                            : UTF-8 Plain TextTitle                                    : FullLanguage                                 : EnglishDefault                                  : NoForced                                   : No

Text #5ID                                       : 12Format                                   : UTF-8Codec ID                                 : S_TEXT/UTF8Codec ID/Info                            : UTF-8 Plain TextTitle                                    : SDHLanguage                                 : EnglishDefault                                  : NoForced                                   : No

Menu00:00:00.000                             : :(01)00:00:00:00000:03:21.743                             : :(02)00:03:21:74300:05:39.547                             : :(03)00:05:39:54700:07:55.725                             : :(04)00:07:55:72500:09:55.469                             : :(05)00:09:55:46900:10:41.599                             : :(06)00:10:41:59900:14:15.271                             : :(07)00:14:15:27100:16:05.547                             : :(08)00:16:05:54700:16:39.873                             : :(09)00:16:39:87300:18:20.766                             : :(10)00:18:20:76600:19:33.714                             : :(11)00:19:33:71400:20:51.708                             : :(12)00:20:51:70800:22:38.982                             : :(13)00:22:38:98200:24:25.422                             : :(14)00:24:25:42200:26:34.050                             : :(15)00:26:34:05000:30:15.063                             : :(16)00:30:15:06300:33:53.990                             : :(17)00:33:53:99000:35:50.940                             : :(18)00:35:50:94000:38:13.958                             : :(19)00:38:13:95800:40:07.279                             : :(20)00:40:07:27900:40:43.774                             : :(21)00:40:43:77400:42:53.445                             : :(22)00:42:53:44500:44:35.589                             : :(23)00:44:35:58900:45:54.835                             : :(24)00:45:54:83500:49:40.768                             : :(25)00:49:40:76800:51:27.083                             : :(26)00:51:27:08300:56:19.000                             : :(27)00:56:19:00000:59:05.250                             : :(28)00:59:05:25001:00:13.526                             : :(29)01:00:13:52601:01:54.168                             : :(30)01:01:54:16801:02:29.287                             : :(31)01:02:29:28701:04:51.178                             : :(32)01:04:51:17801:06:56.387                             : :(33)01:06:56:38701:10:48.243                             : :(34)01:10:48:24301:13:27.694                             : :(35)01:13:27:69401:18:06.640                             : :(36)01:18:06:64001:19:50.744                             : :(37)01:19:50:74401:21:32.012                             : :(38)01:21:32:01201:25:40.009                             : :(39)01:25:40:00901:26:37.149                             : :(40)01:26:37:14901:29:52.178                             : :(41)01:29:52:17801:32:39.887                             : :(42)01:32:39:88701:34:05.097                             : :(43)01:34:05:09701:38:51.425                             : :(44)01:38:51:425

piratbit.ru

Скачать фильм Затащи меня в Ад через торрент в хорошем качестве бесплатно 720p)

piratbit.ru

Раздают: 1 [ 0 KB/s ]
Размер: 2.18 GB | Добавлен: 5 лет 9 мес. назад | Торрент скачан:1128 раз
Реклама Дарим 3000 рублей за регистрацию, не упусти свой шанс получить шикарный бонус!!!

09-01-2012 08:52 Затащи меня в Ад Скачать торрент  

Затащи меня в Ад / Drag Me to Hell

Год выпуска: 2009 Страна: usa Жанр: ужасы , комедия Продолжительность: 1:34:53 Перевод: Профессиональный (многоголосый, закадровый) [Лицензия] Тип релиза: лицензия Режиссер: Сэм РэймиВ ролях: Элисон Ломан, Джастин Лонг, Лорна Рэвер, Дилип Рао, Дэвид Пэймер, Челси Росс, Регги Ли, Молли Чик, Бояна Новакович

Кристина Браун живет в Лос-Анжелесе, работает в банке, оформляя клиентам ссуды, у нее обаятельный и любящий бойфренд, профессор Клэй Далтон. Все складывается хорошо и, казалось, что жизнь удалась…, но только до тех пор, пока в банке не появляется некая миссис Гануш с просьбой об отсрочке ипотечного кредита. Кристина и рада бы пойти навстречу старой женщине, но перед ней маячит возможность занять более высокую должность в банке, и она отказывает старухе. В ответ, та накладывает на нее проклятие, и жизнь девушки превращается в непрерывный кошмар. Теперь помочь Кристине может только провидица Шаун Сэн Дена.

Качество: BDRip (720p) Формат: MKV Видео кодек: H.26x Аудио кодек: AC3 Видео: AVC, 1280x536 (2.35), 24.000 fps, 2 711 Kbps Аудио: AC-3, 48.0 KHz, 6 ch, 448 Kbps, CBR

Скачать Затащи меня в Ад через торрент http://i28.fastpic.ru/big/2012/0109/15/043b358e8500dbe4382ba3ef03a75b15.png Скачать фильм Затащи меня в Ад через торрент бесплантно в хорошем качестве В ролях: Элисон Ломан, Джастин Лонг, Лорна Рэвер, Дилип Рао, Дэвид Пэймер, Челси Росс, Регги Ли, Молли Чик, Бояна НоваковичКристина Браун ... 2012-01-09 08:52 9.7 10 14

Loading...

Loading...

Рекламный пират

09-01-2012 09:25 Затащи меня в Ад Скачать торрент  

кинцо супер, жалко ее в конце)

09-01-2012 09:36 Затащи меня в Ад Скачать торрент  

bloodbastard писал(а):

ужасы , комедия

А где там комедия? Фильм хороший, ИМХО, один из лучших ужастиков последних лет.

09-01-2012 09:56 Затащи меня в Ад Скачать торрент  

NEKNOWNARTIST мужик , это мое мнение , ты высказал свое , я за тебя очень рад. я лично угорал почти весь фильм , единственно в конце под поездом что-то более менее ...

09-01-2012 10:14 Затащи меня в Ад Скачать торрент  

А вот спойлерить было не обязательно (

09-01-2012 10:15 Затащи меня в Ад Скачать торрент  

лично меня очень повеселил момент с наковальней на чердаке, да и других ржачных моментов хватало

07-06-2012 20:49 Затащи меня в Ад Скачать торрент  

Это больше комедия чем ужасы, наржались с братом покруче чем с Американского Пирога!!!

12-06-2012 03:49 Затащи меня в Ад Скачать торрент  

я неделю не смог уснуть... бабка мерещилась

20-10-2012 13:25 Затащи меня в Ад Скачать торрент  

m9sо писал(а):

кинцо супер, жалко ее в конце)

Ну зачем концову писать :doubledown:

Pекламный агент PB

29-07-2014 04:08 Затащи меня в Ад Скачать торрент  

фильмец замечательный-классика жанра

Дорогой пользователь! Огромная просьба, поблагодарите релизера, оцените раздачу и оставьте свои комментарий, если Вы скачали Затащи меня в Ад через торрент бесплатно! Внесите свою лепту в развитие PiratBit!

Комментировать посты могут только пользователи прошедшие не сложную регистрацию

Затащи меня в Ад через торрент Скачать бесплатно Затащи меня в Ад Затащи меня в Ад скачать торрент Затащи меня в Ад смотреть онлайн Cкачать фильм Затащи меня в Ад бесплатно Затащи меня в Ад скачать торрент в хорошем качестве Затащи меня в Ад смотреть онлайн бесплатно в хорошем качестве

Вы не можете начинать темыВы не можете отвечать на сообщенияВы не можете редактировать свои сообщенияВы не можете удалять свои сообщенияВы не можете голосовать в опросахВы не можете прикреплять файлы к сообщениямВы можете скачивать файлы

Скачать фильм Затащи меня в Ад через торрент в хорошем качестве бесплатно 720p

ОбщееУникальный идентификатор : 254942637003950837620796999385709081026 (0xBFCC2A76807C3BEAA205F0D9ACB4F1C2)Полное имя : E:Затащи меня в Ад.2009.Theatrical.Cut.720p.x264.mkvФормат : MatroskaВерсия формата : Version 2Размер файла : 4,68 ГбайтПродолжительность : 1 ч. 39 м.Общий поток : 6763 Кбит/секДата кодирования : UTC 2010-03-30 12:09:16Программа кодирования : mkvmerge v3.0.0 ('Hang up your Hang-Ups') built on Dec 12 2009 15:20:35Библиотека кодирования : libebml v0.7.9 + libmatroska v0.8.1

ВидеоИдентификатор : 1Формат : AVCФормат/Информация : Advanced Video CodecПрофиль формата : [email protected]Параметр CABAC формата : ДаПараметр ReFrames формата : 5 кадровИдентификатор кодека : V_MPEG4/ISO/AVCПродолжительность : 1 ч. 39 м.Битрейт : 4805 Кбит/секШирина : 1280 пикселейВысота : 544 пикселяСоотношение сторон : 2,35:1Режим частоты кадров : ПостоянныйЧастота кадров : 23,976 кадра/секЦветовое пространство : YUVСубдискретизация насыщенности : 4:2:0Битовая глубина : 8 битТип развёртки : ПрогрессивнаяБит/(Пиксели*Кадры) : 0.288Размер потока : 3,23 Гбайт (69%)Библиотека кодирования : x264 core 78 r1310 ec46aceНастройки программы : cabac=1 / ref=5 / deblock=1:0:0 / analyse=0x3:0x133 / me=umh / subme=7 / psy=1 / psy_rd=1.0:0.0 / mixed_ref=1 / me_range=16 / chroma_me=1 / trellis=1 / 8x8dct=1 / cqm=0 / deadzone=21,11 / chroma_qp_offset=-2 / threads=12 / nr=0 / decimate=1 / mbaff=0 / constrained_intra=0 / bframes=3 / b_pyramid=0 / b_adapt=1 / b_bias=0 / direct=1 / wpredb=1 / keyint=240 / keyint_min=24 / scenecut=40 / rc_lookahead=40 / rc=2pass / mbtree=1 / bitrate=4805 / ratetol=1.0 / qcomp=0.60 / qpmin=10 / qpmax=51 / qpstep=4 / cplxblur=20.0 / qblur=0.5 / ip_ratio=1.40 / aq=1:1.00Язык : EnglishDefault : ДаForced : Нет

Аудио #1Идентификатор : 2Формат : AC-3Формат/Информация : Audio Coding 3Расширение режима : CM (complete main)Параметр Endianness формата : BigИдентификатор кодека : A_AC3Продолжительность : 1 ч. 39 м.Вид битрейта : ПостоянныйБитрейт : 448 Кбит/секКаналы : 6 каналовРасположение каналов : Front: L C R, Side: L R, LFEЧастота : 48,0 КГцБитовая глубина : 16 битМетод сжатия : С потерямиЗадержка видео : 1 с. 999 мс.Размер потока : 318 Мбайт (7%)Заголовок : AC3 @ 5.1 @ 448 kbpsЯзык : RussianDefault : НетForced : Нет

Аудио #2Идентификатор : 3Формат : DTSФормат/Информация : Digital Theater SystemsРежим : 16Параметр Endianness формата : BigИдентификатор кодека : A_DTSПродолжительность : 1 ч. 39 м.Вид битрейта : ПостоянныйБитрейт : 1509 Кбит/секКаналы : 6 каналовРасположение каналов : Front: L C R, Side: L R, LFEЧастота : 48,0 КГцБитовая глубина : 24 битМетод сжатия : С потерямиРазмер потока : 1,04 Гбайт (22%)Заголовок : DTS @ 5.1 @ 1510 kbpsЯзык : EnglishDefault : НетForced : Нет

Текст #1Идентификатор : 4Формат : UTF-8Идентификатор кодека : S_TEXT/UTF8Идентификатор кодека/Информация : UTF-8 Plain TextЯзык : RussianDefault : НетForced : Нет

Текст #2Идентификатор : 5Формат : UTF-8Идентификатор кодека : S_TEXT/UTF8Идентификатор кодека/Информация : UTF-8 Plain TextЯзык : EnglishDefault : НетForced : Нет

Меню00:00:00.000 : en:100:03:21.743 : en:200:05:39.548 : en:300:07:55.725 : en:400:09:55.470 : en:500:10:41.599 : en:600:14:15.271 : en:700:16:05.548 : en:800:16:39.874 : en:900:18:20.766 : en:1000:19:32.129 : en:1100:20:49.498 : en:1200:22:36.772 : en:1300:24:23.212 : en:1400:26:31.840 : en:1500:30:12.853 : en:1600:33:51.780 : en:1700:35:48.730 : en:1800:38:10.413 : en:1900:40:03.735 : en:2000:40:38.519 : en:2100:42:48.191 : en:2200:44:29.458 : en:2300:45:48.746 : en:2400:49:34.680 : en:2500:51:34.758 : en:2600:56:26.842 : en:2700:59:12.924 : en:2801:00:21.201 : en:2901:02:01.843 : en:3001:02:36.378 : en:3101:04:58.353 : en:3201:07:03.478 : en:3301:10:55.334 : en:3401:13:34.702 : en:3501:18:13.647 : en:3601:19:57.918 : en:3701:21:39.019 : en:3801:25:47.100 : en:3901:26:44.324 : en:4001:29:59.269 : en:4101:32:46.978 : en:4201:34:10.603 : en:43

piratbit.ru


Смотрите также