Скачать через торрент охотники на гангстеров в хорошем качестве


Охотники на гангстеров 2013 - скачать бесплатно через торрент в хорошем качестве. Без регистрации

www.kinovit.net

Название: Охотники на гангстеров / Gangster Squad (2013) BDRip 1080p от HELLYWOOD | D, A
Перевод: Дубляж [Blu-ray CEE], авторский (одноголосый закадровый)
Формат видео: MKV
Видео: х.264, 1920x800 (2,40:1), 6782 kbps, 23,976 fps
Аудио: AC3 / 5.1 / 48 kHz / 640 kbps / 16 bit | DUB - Blu-ray CEEAC3 / 5.1 / 48 kHz / 640 kbps / 16 bit | AVO - Ю.НемаховAC3 / 5.1 / 48 kHz / 640 kbps / 16 bit | AVO - Л.ВолодарскийAC3 / 5.1 / 48 kHz / 640 kbps / 16 bit | ENG
Скачать

Загрузка начнется в течение 5 сек.

7.37 GB

Название: Охотники на гангстеров / Gangster Squad (2013) BDRip 720p от HELLYWOOD | Лицензия
Перевод: Профессиональный (полное дублирование) [лицензия BD CEE]
Формат видео: MKV
Видео: х.264, 1280x534 (2,40:1), 23,976 fps, 3623 kbps, 0.221 bit/pixel
Аудио: 48 kHz, AC3 Dolby Digital, 3/2 (L,C,R,l,r) + LFE ch, 640.00 kbps | RUS48 kHz, AC3 Dolby Digital, 3/2 (L,C,R,l,r) + LFE ch, 640.00 kbps | UKR48 kHz, AC3 Dolby Digital, 3/2 (L,C,R,l,r) + LFE ch, 640.00 kbps | ENG
Скачать

Загрузка начнется в течение 5 сек.

4.37 GB

Название: Охотники на гангстеров / Gangster Squad (2013) BDRip 720p | D, A
Качество видео: BDRip 720p
Формат видео: MKV
Видео: AVC, 1280x534 (2.40:1) at 23.976 fps, AVC at 4194 Kbps avg, 0.256 bit/pixel
Аудио: Русский / AC3 / 6ch / 448 kbps
Скачать

Загрузка начнется в течение 5 сек.

4.37 GB

Название: Охотники на гангстеров / Gangster Squad (2013) BDRip-AVC | D
Качество видео: BDRip-AVC
Перевод: Дубляж Blu-ray СЕЕ
Формат видео: MKV
Видео: x.264, 1056x440 (2.40:1), 23.976 fps, 1338 Kbps, 0.12 bit/pixel
Аудио: Английская48 kHz, AAC-HE, 6 ch., 290 Kbps [RUS]48 kHz, AAC-HE, 6 ch., 290 Kbps [ENG]
Скачать

Загрузка начнется в течение 5 сек.

1.46 GB

Название: Охотники на гангстеров / Gangster Squad (2013) BDRip 720p от DHT-Movies | Лицензия
Качество видео: BDRip 720p Исходник: Blu-ray
Перевод: Профессиональный (полное дублирование) Лицензия
Формат видео: MKV Видео кодек: MPEG-4 AVC Аудио кодек: AC3
Видео: AVC, 1280x534 (2.40:1) at 23.976 fps, AVC at 2472 kbps avg, 0.151 bit/pixel
Аудио: 48 kHz, AC3 Dolby Digital, 3/2 (L,C,R,l,r) + LFE ch, 640.00 kbps - Russian
Скачать

Загрузка начнется в течение 5 сек.

2.50 GB

Название: Охотники на гангстеров / Gangster Squad (2013) HDRip | КПК | D | Лицензия
Качество видео: HDRip | КПК | Лицензия
Перевод: Профессиональный (полное дублирование) [лицензия]
Видео: MP4 [h364 (AVC)] AVC, 640x272 (2.35:1), 23.976 fps, 476 Kbps (0.114 bit/pixel)
Аудио: AAC LC, 48.0 KHz, 2 ch, 128 Kbps, CBR (Russian)
Скачать

Загрузка начнется в течение 5 сек.

491.55 MB

Название: Охотники на гангстеров / Gangster Squad (2013) BDRip 1080p
Качество видео: BDRip 1080p
Перевод: Дублированный + Оригинал
Видео: x264 1920x800, 8560 Kbps, 23.976 fps
Аудио: AC-3, 6 ch, 640 kbps (Rus)AC-3, 6 ch, 640 kbps (Eng)
Скачать

Загрузка начнется в течение 5 сек.

7.76 GB

Название: Охотники на гангстеров / Gangster Squad (2013) BDRip-AVC | D | Лицензия
Качество видео: BDRip-AVC - [Blu-ray 1080p]
Перевод: Профессиональный (полное дублирование) Лицензия
Видео: H.264 864x360 (2,40:1), 23,976 fps, ~850 Kbps, 0.114 bit/pixel
Аудио: 48.0 KHz, A_AAC, 2 (L,R) ch, ~72.00 Kbps
Скачать

Загрузка начнется в течение 5 сек.

746.35 MB

Название: Охотники на гангстеров / Gangster Squad (2013) BDRip от HQCLUB | Лицензия
Качество видео: BDRip (источник: HDClub / Blu-ray / 1080p)
Перевод: профессиональный (полное дублирование) + оригинал (английский)
Формат видео: AVI
Видео: 720x304 (2.37:1), 23.976 fps, XviD build 65 ~1865 kbps avg, 0.35 bit/pixel
Аудио: + Профессиональный (полное дублирование) украинский48 kHz, AC3 Dolby Digital, 3/2 (L,C,R,l,r) + LFE ch, ~448 kbps avg (RUS)48 kHz, AC3 Dolby Digital, 3/2 (L,C,R,l,r) + LFE ch, ~448 kbps avg (ENG)48 kHz, AC3 Dolby Digital, 3/2 (L,C,R,l,r) + LFE ch, ~448 kbps avg (UKR) (отдельно)
Скачать

Загрузка начнется в течение 5 сек.

2.18 GB

Название: Охотники на гангстеров / Gangster Squad (2013) BDRip 1080p от Youtracker | Лицензия
Перевод: русский дубляж + украинский дубляж [Лицензия, BD CEE]
Видео: x264 AVC / [email protected] / 23,976 fps / 1920x800p / 11,5 Mbps / 0.312
Аудио: AC3 английскаяAC3AC3 / 5.1 ch / 640 kbps / Русский дубляж [BD CEE]AC3 / 5.1 ch / 640 kbps / Украинский дубляж [BD CEE]AC3 / 5.1 ch / 640 kbps / Английский original [BD CEE]
Скачать

Загрузка начнется в течение 5 сек.

10.59 GB

Название: Охотники на гангстеров / Gangster Squad (2013) BDRip от HQ-ViDEO | Лицензия
Качество видео: BDRip /исходник: Gangster Squad 2012 1080p Blu-ray AVC DTS-HD MA 5.1-HDWinG/
Перевод: Профессиональный дублированный /Лицензия Blu-Ray CEE/
Видео: XviD, 720x304 (2.37:1), ~1856 kbps avg, 23,976 fps
Аудио: AC3 Dolby Digital, 48 KHz, ~448 kbps, 3/2 (L,C,R,l,r) + LFE ch /RUS/AC3 Dolby Digital, 48 KHz, ~448 kbps, 3/2 (L,C,R,l,r) + LFE ch /ENG/AC3 Dolby Digital, 48 KHz, ~448 kbps, 3/2 (L,C,R,l,r) + LFE ch /UKR, скачать отдельно с disk.yandex.ru/
Скачать

Загрузка начнется в течение 5 сек.

2.18 GB

Название: Охотники на гангстеров / Gangster Squad (2013) Blu-Ray
Качество видео: Blu-Ray (1080p)
Перевод: Дублированный
Видео: MPEG-4 AVC, 20.6 Мбит/с, 1920x1080, 23.976 кадр/с
Аудио: Русский, чешский, венгерский, украинский (AC3, 6 ch, 640 Кбит/с), английский (DTS-HD MA, 6 ch, 2233 Кбит/с),
Скачать

Загрузка начнется в течение 5 сек.

32.46 GB

Название: Охотники на гангстеров / Gangster Squad (2013) BDRip 1080p | Лицензия
Качество видео: BDRip (1080p)
Перевод: Дублированный [лицензия]
Видео: MPEG-4 AVC, 10500 Кбит/с, 1920x800
Аудио: Русский (AC3, 6 ch, 640 Кбит/с), английский (DTS, 6 ch, 1510 Кбит/с), (AC3, 2 ch, 192 Кбит/с)
Скачать

Загрузка начнется в течение 5 сек.

10.33 GB

Название: Охотники на гангстеров / Gangster Squad (2013) BDRip 720p от HQ-ViDEO | Лицензия
Качество видео: BDRip 720p /исходник: Gangster Squad 2012 1080p Blu-ray AVC DTS-HD MA 5.1-HDWinG/
Перевод: Профессиональный дублированный /Лицензия Blu-Ray CEE/
Видео: x.264, 1280x534 (2.40:1), ~4163 kbps avg, 23,976 fps
Аудио: AC3 Dolby Digital, 48 KHz, ~640 kbps, 3/2 (L,C,R,l,r) + LFE ch /RUS/AC3 Dolby Digital, 48 KHz, ~640 kbps, 3/2 (L,C,R,l,r) + LFE ch /UKR/AC3 Dolby Digital, 48 KHz, ~640 kbps, 3/2 (L,C,R,l,r) + LFE ch /ENG/
Скачать

Загрузка начнется в течение 5 сек.

4.80 GB

Название: Охотники на гангстеров / Gangster Squad (2013) HDRip от Torrent-Xzona | КПК | Лицензия
Качество видео: HDRip | КПК
Перевод: Профессиональный (полное дублирование) лицензия
Видео: х264 480х200, 23,976 кадра/сек, 364 Кбит/сек
Аудио: ААС LC, 2 ch, 128 Кбит/сек
Скачать

Загрузка начнется в течение 5 сек.

399.44 MB

Название: Охотники на гангстеров / Gangster Squad (2013) DVD5 от Youtracker | D | сжатый
Качество видео: DVD5 (сжатый)
Перевод: Профессиональный (полное дублирование)
Формат видео: DVD Video
Видео: PAL 16x9 (720х576) VBR ~ 5284 kbps, Auto Letterboxed
Аудио: Русский: 48 kHz, Dolby AC3, 6 ch, 384.00 kbps, русский
Скачать

Загрузка начнется в течение 5 сек.

4.37 GB

Название: Охотники на гангстеров / Gangster Squad (2013) BDRip-AVC от leonardo 59 | iPad
Качество видео: BDRip Исходник: Blu-ray
Перевод: Дублированный (Лицензия)
Формат видео: MP4 (контейнер m4v)
Видео: AVC, 1024x426 (2.40:1) at 23.976 fps, AVC at 1906 kbps avg, 0.182 bit/pixel
Аудио: 48 kHz, AAC, 2ch, 110 Kbps | Russian | Дублированный48 kHz, AAC, 2ch, 115 Kbps | English | Original
Скачать

Загрузка начнется в течение 5 сек.

1.68 GB

Название: Охотники на гангстеров / Gangster Squad (2013) BDRemux 1080p от Youtracker | D | лицензия
Качество видео: BDRemux 1080p
Перевод: Профессиональный (полное дублирование)
Формат видео: MKV
Видео: 1920x1080 (16:9), 23.976 fps, h364 ~ 21,39 Мбит/сек avg, 0.409 bit/pixel
Аудио: английский48 kHz, AC3 6 ch, 384 kbps, русский48 kHz, DTS 6 ch, 1536 kbps, английский48 kHz, AC3 2 ch, 192 kbps, английский (комментарий)
Скачать

Загрузка начнется в течение 5 сек.

18.50 GB

Название: Охотники на гангстеров / Gangster Squad (2013) BDRip-AVC от potroks | D | Лицензия
Перевод: Профессиональный (полное дублирование) лицензия
Формат видео: MKV
Видео: H.264, 1080x450 (2,40:1), 23,976 fps, 2004 Кbps, 0.172 bit/pixel
Аудио: 48 kHz, AC3 Dolby Digital, 3/2 (L,C,R,l,r) + LFE ch, ~384.00 kbps avg | RUS48 kHz, AC3 Dolby Digital, 3/2 (L,C,R,l,r) + LFE ch, ~384.00 kbps avg | ENG
Скачать

Загрузка начнется в течение 5 сек.

2.19 GB

Название: Охотники на гангстеров / Gangster Squad (2013) DVD9 R5 от Youtracker | D | лицензия
Качество видео: DVD9 R5
Перевод: Профессиональный (полное дублирование)
Формат видео: DVD Video
Видео: PAL 16x9 (720х576) VBR ~ 6040 kbps, Auto Letterboxed
Аудио: английскийРусский: 48 kHz, Dolby AC3, 6 ch, 384.00 kbps, английскийРусский: 48 kHz, Dolby AC3, 6 ch, 384.00 kbps, польскийРусский: 48 kHz, Dolby AC3, 6 ch, 384.00 kbps, русскийРусский: 48 kHz, Dolby AC3, 2 ch, 192.00 kbps, турецкийРусский: 48 kHz, Dolby AC3, 6 ch, 384.00 kbps, украинский
Скачать

Загрузка начнется в течение 5 сек.

6.15 GB

Название: Охотники на гангстеров / Gangster Squad (2012) BDRip 1080p | Чистый звук
Качество видео: BDRip 1080p
Перевод: Дублированный
Видео: MPEG-4 AVC 12.9 Мбит/с, 1920x800, 23.976 кадр/с
Аудио: Русский (AC3, 6 ch, 384 Кбит/с)Английский (DTS, 6 ch, 1510 Кбит/с)Английский (Vorbis, 2 ch, 52 Кбит/с)
Скачать

Загрузка начнется в течение 5 сек.

11.92 GB

Название: Охотники на гангстеров / Gangster Squad (2012) BDRip 720p от NoLimits-Team
Качество видео: BDRip 720p (исходник Blu-ray Disc)
Перевод: Дублированный
Видео: 1280x534, 2 382 Кбит/сек, 23.976 кадр/сек, AVC, x264, 2.40:1, 0.145 Бит/(Пиксели*Кадры), 2-pass
Аудио: AC-3, 384 Кбит/сек, 6 канала(ов), 48,0 КГц
Скачать

Загрузка начнется в течение 5 сек.

2.18 GB

Название: Охотники на гангстеров / Gangster Squad (2013) BDRip-AVC | iPad | Чистый звук
Качество видео: BDRip Исходник: Blu-ray
Перевод: Дублированный (iTunes-Russia)
Формат видео: MP4 (контейнер m4v)
Видео: AVC, 1024x426 (2.40:1) at 23.976 fps, AVC at 1906 kbps avg, 0.182 bit/pixel
Аудио: 48 kHz, AAC, 2ch, 132 Kbps | Russian | Дублированный48 kHz, AAC, 2ch, 144 Kbps | English | Original
Скачать

Загрузка начнется в течение 5 сек.

1.73 GB

Название: Охотники на гангстеров / Gangster Squad (2012) BDRip 1080p от NoLimits-Team | Чистый звук
Качество видео: BDRip 1080p (исходник Blu-ray Disc)
Перевод: Дублированный
Видео: 1920x800, 5 159 Кбит/сек, 23.976 кадр/сек, AVC, x264, 2.40:1, 0.140 Бит/(Пиксели*Кадры), 2-pass
Аудио: AC-3, 384 Кбит/сек, 6 канала(ов), 48,0 КГц
Скачать

Загрузка начнется в течение 5 сек.

4.37 GB

Название: Охотники на гангстеров / Gangster Squad (2013) HDRip-AVC | D | Чистый звук
Качество видео: HDRip
Перевод: Дублированный
Видео: MPEG-4 AVC/H.264
Аудио: Русский (Dolby AC3, 6 ch) 384 Кбит/секАнглийский (Dolby AC3, 6 ch) 384 Кбит/сек
Скачать

Загрузка начнется в течение 5 сек.

2.18 GB

Название: Охотники на гангстеров / Gangster Squad (2013) BDRip 720p | D | Чистый звук
Качество видео: BDRip 720p
Перевод: Дублированный (iTunes-Russia)
Видео: MPEG-4 AVC, 4800 Кбит/с, 1280x534, 23.976 кадр/с
Аудио: Русский (AC3, 6 ch, 384 Кбит/с), английский (DTS, 6 ch, 1510 Кбит/с), (AC3, 2 ch, 192 Кбит/с - комментарии)
Скачать

Загрузка начнется в течение 5 сек.

5.43 GB

Название: Охотники на гангстеров / Gangster Squad (2013) BDRemux 1080p | D | Чистый звук
Качество видео: BDRemux (1080p)
Перевод: Дублированный (iTunes-Russia)
Видео: MPEG-4 AVC, 20.2 Мбит/с, 1920x1080, 23.976 кадр/с
Аудио: Русский (AC3, 6 ch, 384 Кбит/с), английский (DTS-HD MA, 6 ch, 2233 Кбит/с), (AC3, 2 ch, 192 Кбит/с - комментарии)
Скачать

Загрузка начнется в течение 5 сек.

18.50 GB

Название: Охотники на гангстеров / Gangster Squad (2013) BDRip 1080p | Чистый звук
Качество видео: BDRip 1080p
Перевод: Дублированный (iTunes Russia) -Чистый звук
Видео: MPEG-4 AVC, 8188 Кбит/с, 1920x800
Аудио: Русский (AC3, 6 ch, 384 Кбит/с ), английский (DTS, 6 ch, 1510 Кбит/с)
Скачать

Загрузка начнется в течение 5 сек.

7.95 GB

Название: Охотники на гангстеров / Gangster Squad (2013) HDRip от Scarabey | D | Чистый звук
Качество видео: HDRip - исходник Ohotniki.na.gangsterov.2012.D.WEB-DL.720p
Перевод: Профессиональный (полное дублирование)
Видео: 688x288 (2.39:1), 23.976 fps, XviD build 50 ~782 kbps avg, 0.16 bit/pixel
Аудио: 48 kHz, MPEG Layer 3, 2 ch, ~128.00 kbps avg
Скачать

Загрузка начнется в течение 5 сек.

742.77 MB

Название: Охотники на гангстеров / Gangster Squad (2013) HDRip-AVC | D | Чистый звук
Качество видео: HDRip-AVC (Исходник WEB-DL 720p)
Перевод: Дублированный (iTunes Russia) -Чистый звук
Видео: 1024 x 426, 1453 Кбит/сек
Аудио: Русский (AC3, 6 ch, 384 Кбит/с)
Скачать

Загрузка начнется в течение 5 сек.

1.45 GB

Название: Охотники на гангстеров / Gangster Squad (2013) HDRip от Scarabey | D | Чистый звук
Качество видео: HDRip - исходник Ohotniki.na.gangsterov.2012.D.WEB-DL.720p
Перевод: Профессиональный (полное дублирование)
Видео: 720x304 (2.37:1), 23.976 fps, XviD build 50 ~1449 kbps avg, 0.28 bit/pixel
Аудио: 48 kHz, AC3 Dolby Digital, 3/2 (L,C,R,l,r) + LFE ch, ~384.00 kbps avg
Скачать

Загрузка начнется в течение 5 сек.

1.45 GB

Название: Охотники на гангстеров / Gangster Squad (2013) HDRip от Scarabey | D | Чистый звук
Качество видео: HDRip - исходник Ohotniki.na.gangsterov.2012.D.WEB-DL.720p
Перевод: Профессиональный (полное дублирование)
Видео: 720x304 (2.37:1), 23.976 fps, XviD build 50 ~2198 kbps avg, 0.42 bit/pixel
Аудио: 48 kHz, AC3 Dolby Digital, 3/2 (L,C,R,l,r) + LFE ch, ~384.00 kbps avg
Скачать

Загрузка начнется в течение 5 сек.

2.04 GB

Охотники на гангстеров через торрент

ОбщееУникальный идентификатор : 170435958801344662866754617735511207266 (0x8038C58BE036DDDDA7C69D5AC462ED62)Полное имя : F:Охотники на гангстеров.2013.720p.BluRay.Rus.2xEng.Subs.mkvФормат : MatroskaВерсия формата : Version 2Размер файла : 5,89 ГбайтПродолжительность : 1 ч. 52 м.Общий поток : 7467 Кбит/секНазвание фильма : Gangster Squad (2013) Дата кодирования : UTC 2013-04-28 15:03:53Программа кодирования : mkvmerge v5.8.0 ('No Sleep / Pillow') built on Sep 2 2012 15:37:04Библиотека кодирования : libebml v1.2.3 + libmatroska v1.3.0

ВидеоИдентификатор : 1Формат : AVCФормат/Информация : Advanced Video CodecПрофиль формата : [email protected]Параметр CABAC формата : ДаПараметр ReFrames формата : 12 кадровИдентификатор кодека : V_MPEG4/ISO/AVCПродолжительность : 1 ч. 52 м.Битрейт : 4977 Кбит/секШирина : 1280 пикселейВысота : 534 пикселяСоотношение сторон : 2,40:1Режим частоты кадров : ПостоянныйЧастота кадров : 23,976 кадра/секЦветовое пространство : YUVСубдискретизация насыщенности : 4:2:0Битовая глубина : 8 битТип развёртки : ПрогрессивнаяБит/(Пиксели*Кадры) : 0.304Размер потока : 3,93 Гбайт (67%)Заголовок : HiDtБиблиотека кодирования : x264 core 120 r2164 da19765Настройки программы : cabac=1 / ref=12 / deblock=1:-3:-3 / analyse=0x3:0x113 / me=tesa / subme=11 / psy=1 / psy_rd=0.90:0.00 / mixed_ref=1 / me_range=32 / chroma_me=1 / trellis=2 / 8x8dct=1 / cqm=0 / deadzone=21,11 / fast_pskip=0 / chroma_qp_offset=-2 / threads=12 / sliced_threads=0 / nr=0 / decimate=1 / interlaced=0 / bluray_compat=0 / constrained_intra=0 / bframes=8 / b_pyramid=2 / b_adapt=2 / b_bias=0 / direct=3 / weightb=1 / open_gop=0 / weightp=2 / keyint=250 / keyint_min=25 / scenecut=40 / intra_refresh=0 / rc=crf / mbtree=0 / crf=15.1 / qcomp=0.70 / qpmin=0 / qpmax=69 / qpstep=4 / ip_ratio=1.40 / pb_ratio=1.30 / aq=1:0.90Язык : EnglishDefault : ДаForced : НетКоэффициенты матрицы : BT.709

Аудио #1Идентификатор : 2Формат : AC-3Формат/Информация : Audio Coding 3Расширение режима : CM (complete main)Параметр Endianness формата : BigИдентификатор кодека : A_AC3Продолжительность : 1 ч. 52 м.Вид битрейта : ПостоянныйБитрейт : 640 Кбит/секКаналы : 6 каналовРасположение каналов : Front: L C R, Side: L R, LFEЧастота : 48,0 КГцБитовая глубина : 16 битМетод сжатия : С потерямиРазмер потока : 517 Мбайт (9%)Заголовок : AC3 5.1 @ 640 kbps - DUB, BD CEEЯзык : RussianDefault : ДаForced : Нет

Аудио #2Идентификатор : 3Формат : DTSФормат/Информация : Digital Theater SystemsРежим : 16Параметр Endianness формата : BigИдентификатор кодека : A_DTSПродолжительность : 1 ч. 52 м.Вид битрейта : ПостоянныйБитрейт : 1509 Кбит/секКаналы : 6 каналовРасположение каналов : Front: L C R, Side: L R, LFEЧастота : 48,0 КГцБитовая глубина : 24 битМетод сжатия : С потерямиРазмер потока : 1,19 Гбайт (20%)Заголовок : DTS 5.1Язык : EnglishDefault : НетForced : Нет

Аудио #3Идентификатор : 4Формат : AC-3Формат/Информация : Audio Coding 3Профиль формата : Dolby DigitalРасширение режима : CM (complete main)Параметр Endianness формата : BigИдентификатор кодека : A_AC3Продолжительность : 1 ч. 52 м.Вид битрейта : ПостоянныйБитрейт : 192 Кбит/секКаналы : 2 каналаРасположение каналов : Front: L RЧастота : 48,0 КГцБитовая глубина : 16 битМетод сжатия : С потерямиРазмер потока : 155 Мбайт (3%)Заголовок : Commentary DD2.0Язык : EnglishDefault : НетForced : Нет

Текст #1Идентификатор : 5Формат : UTF-8Идентификатор кодека : S_TEXT/UTF8Идентификатор кодека/Информация : UTF-8 Plain TextЗаголовок : ForcedЯзык : RussianDefault : ДаForced : Нет

Текст #2Идентификатор : 6Формат : UTF-8Идентификатор кодека : S_TEXT/UTF8Идентификатор кодека/Информация : UTF-8 Plain TextЗаголовок : FullЯзык : RussianDefault : НетForced : Нет

Текст #3Идентификатор : 7Формат : UTF-8Идентификатор кодека : S_TEXT/UTF8Идентификатор кодека/Информация : UTF-8 Plain TextЯзык : RomanianDefault : НетForced : Нет

Текст #4Идентификатор : 8Формат : UTF-8Идентификатор кодека : S_TEXT/UTF8Идентификатор кодека/Информация : UTF-8 Plain TextЗаголовок : SDHЯзык : EnglishDefault : НетForced : Нет

Текст #5Идентификатор : 9Формат : UTF-8Идентификатор кодека : S_TEXT/UTF8Идентификатор кодека/Информация : UTF-8 Plain TextЗаголовок : CommentaryЯзык : EnglishDefault : НетForced : Нет

Меню00:00:00.000 : en:00:00:00.00000:09:53.635 : en:00:09:53.63500:20:51.167 : en:00:20:51.16700:28:36.173 : en:00:28:36.17300:39:22.860 : en:00:39:22.86000:49:25.462 : en:00:49:25.46200:59:59.262 : en:00:59:59.26201:09:23.493 : en:01:09:23.49301:20:05.259 : en:01:20:05.25901:31:01.539 : en:01:31:01.53901:38:50.341 : en:01:38:50.34101:44:11.370 : en:01:44:11.370

piratbit.ru

Охотники на гангстеров через торрент

piratbit.ru

Раздают: 2 [ 0 KB/s ]
Размер: 1.46 GB | Добавлен: 4 года 4 мес. назад | Торрент скачан:1112 раз
Реклама Дарим 3000 рублей за регистрацию, не упусти свой шанс получить шикарный бонус!!!

28-04-2013 19:12 Охотники на гангстеров Скачать торрент  

Охотники на гангстеров / Gangster Squad

Год выпуска: 2013 Страна: СШАЖанр: боевик, триллер, драма, криминал,Продолжительность: 01:52:54Перевод: Дубляж, Лицензия

Режиссер: Рубен ФлейшерПродюссер: Дэн Лин, Кевин МакКормик, Майкл ТадроссСценарий: Уилл Билл, Пол Либерман

Мировой рейтинг IMDB 6.90 (55 855)

В ролях: Джош Бролин, Райан Гослинг, Ник Нолти, Эмма Стоун, Энтони Маки, Джованни Рибизи, Майкл Пенья, Роберт Патрик, Шон Пенн, Холт МакКэллани, Алексей Рязанцев, Михаил Тихонов, Игорь Старосельцев, Татьяна Шитова, Даниил Эльдаров,

Описание: Лос-Анджелес, 1949 год. Уроженец Бруклина, жестокий главарь банды Микки Коэн держит город в ежовых рукавицах, собирая «грязные» деньги от торговли наркотиками, оружием и проституции, и — если все пойдет, как надо, — к Западу от Чикаго мышь не пискнет без его ведома. Защищают его не только его же головорезы, но и находящиеся у него «на крючке» полиция и политики. Этого хватит, чтобы запугать даже самых смелых, закаленных улицей копов... кроме, пожалуй, небольшой тайной группы сотрудников полицейского департамента Лос-Анджелеса во главе с сержантом Джоном О’Мара и Джерри Вутерсом, которые объединились, чтобы попытаться уничтожить преступный мир Коэна.

Качество: BDRip[Gangster.Squad.2013.1080p.BluRay.AVC.DTS-HD.MA.5.1-LAZERS] Формат: AVIВидео кодек: XviDАудио кодек: AC3Видео: 720x304 (2.37:1), 23.976 fps, XviD build 73 ~1455 kbps avg, 0.28 bit/pixelАудио#1: 48 kHz, AC3 Dolby Digital, 3/2 (L,C,R,l,r) + LFE ch, ~384.00 kbps avg

           

Охотники на гангстеров скачать торрент

Скачать Охотники на гангстеров через торрент http://pic.pb.wtf/images/2/bnve19cvv1.jpg Скачать фильм Охотники на гангстеров через торрент бесплантно в хорошем качестве Описание: Лос-Анджелес, 1949 год. Уроженец Бруклина, жестокий главарь банды Микки Коэн держит город в ежовых рукавицах, собирая «грязные» ... 2013-06-21 19:08 9.8 10 28

Loading...

Loading...

% Раздел Тема Автор DL S | L
Фильмы [HD 720p, 1080p] (Хороший звук DUB, MVO) [ 4.67 GB ] Охотники на гангстеров / Gangster Squad [2013 BDRip 720p] diletant Скачать
Фильмы 2013 [DVDrip, WEB-DLRip, HDrip] [ 2.18 GB ] Охотники на гангстеров / Gangster Squad [2013 HDRip Tunes Russia] DJKOCMOC Скачать
Фильмы [HD 720p, 1080p] (Хороший звук DUB, MVO) [ 5.89 GB ] Охотники на гангстеров / Gangster Squad [2013 BDRip 720p + Оригинал] [email protected] Скачать
Фильмы 2012 [ 2.04 GB ] Охотники на гангстеров / Gangster Squad [2013 HDRip лицензия] Ворон Скачать
Фильмы [HD 720p, 1080p] (Хороший звук DUB, MVO) [ 10.83 GB ] Охотники на гангстеров / Gangster Squad [2013 BDRip 1080p + Оригинал+Укр ()] Trava-HD Скачать
Фильмы 2013 [DVDrip, WEB-DLRip, HDrip] [ 2.05 GB ] Охотники на гангстеров / Gangster Squad [2013 WEB-DLRip] diletant Скачать
Фильмы (Blu-ray, BD-Remux, HDDVD) [ 32.46 GB ] Охотники на гангстеров / Gangster Squad [2012 Blu-ray 1080p лицензия] Seedtank Скачать

Последний раз редактировалось: Ворон (2013-06-15 04:22), всего редактировалось 3 раз(а)

Рекламный пират

28-04-2013 19:12 Охотники на гангстеров Скачать торрент  

21-06-2013 19:38 Охотники на гангстеров Скачать торрент  

VetаlА чё не с блюра

Дорогой пользователь! Огромная просьба, поблагодарите релизера, оцените раздачу и оставьте свои комментарий, если Вы скачали Охотники на гангстеров через торрент бесплатно! Внесите свою лепту в развитие PiratBit!

Комментировать посты могут только пользователи прошедшие не сложную регистрацию

Охотники на гангстеров через торрент Скачать бесплатно Охотники на гангстеров Охотники на гангстеров скачать торрент Охотники на гангстеров смотреть онлайн Cкачать фильм Охотники на гангстеров бесплатно Охотники на гангстеров скачать торрент в хорошем качестве Охотники на гангстеров смотреть онлайн бесплатно в хорошем качестве

Вы не можете начинать темыВы не можете отвечать на сообщенияВы не можете редактировать свои сообщенияВы не можете удалять свои сообщенияВы не можете голосовать в опросахВы не можете прикреплять файлы к сообщениямВы можете скачивать файлы

Скачать фильм Охотники на гангстеров (2013) через торрент

gig-torrent.net

29 января 2016 16:20 Охотники на гангстеров / Gangster Squad (2013) BDRip 720p от HELLYWOOD | Лицензия .torrent   [Информация о файле (нажмите для просмотра)] Перевод: Профессиональный (полное дублирование) [лицензия BD CEE]Субтитры: Русские (полные + форс.), украинские, английскиеКачество: BDRip 720pФормат: MKVВидео: х.264, 1280x534 (2,40:1), 23,976 fps, 3623 kbps, 0.221 bit/pixelАудио#1: 48 kHz, AC3 Dolby Digital, 3/2 (L,C,R,l,r) + LFE ch, 640.00 kbps |RUSАудио#2: 48 kHz, AC3 Dolby Digital, 3/2 (L,C,R,l,r) + LFE ch, 640.00 kbps |UKRАудио#3: 48 kHz, AC3 Dolby Digital, 3/2 (L,C,R,l,r) + LFE ch, 640.00 kbps |ENG 4,37 Gb 65 4
29 января 2016 16:20 Охотники на гангстеров / Gangster Squad (2013) BDRip 720p | D, A .torrent   [Информация о файле (нажмите для просмотра)] Перевод 1: Профессиональный (дублированный) [Мосфильм]Перевод 2: Авторский (одноголосый) [Леонид Володарский]Перевод 3: Авторский (одноголосый) [Юрий Немахов]Качество: BDRip 720pФормат: MKVВидео: AVC, 1280x534 (2.40:1) at 23.976 fps, AVC at 4194 Kbps avg, 0.256 bit/pixelАудио: Русский / AC3 / 6ch / 448 kbpsСубтитры: Русские, английские 4,37 Gb 17 5
29 января 2016 16:20 Охотники на гангстеров / Gangster Squad (2013) BDRip-AVC | D .torrent   [Информация о файле (нажмите для просмотра)] Перевод: Дубляж Blu-ray СЕЕКачество: BDRip-AVCФормат: MKVВидео: x.264, 1056x440 (2.40:1), 23.976 fps, 1338 Kbps, 0.12 bit/pixelАудио 1: Аудио 2: Субтитры: 1,46 Gb 208 13
29 января 2016 16:20 Охотники на гангстеров / Gangster Squad (2013) BDRip-AVC от HELLYWOOD | D | Лицензия .torrent   [Информация о файле (нажмите для просмотра)] Перевод: Профессиональный (полное дублирование)Субтитры: Русские (полные (2 вида), форсированные), украинские, английские (полные (2 вида), SDH, SDH цветные) спасибо [subsvin2]Качество: BDRip-AVC [Gangster Squad 2013 Blu ray 1080p AVC DTS HD MA 5 1 REMUX FraMeSToR]Формат: MKVВидео: H.264, 1080x450 (2,40:1), 23,976 fps, 2004 Кbps, 0.172 bit/pixelАудио#1: 48 kHz, AC3 Dolby Digital, 3/2 (L,C,R,l,r) + LFE ch, 384.00 kbps |RUSАудио#2: 48 kHz, AC3 Dolby Digital, 3/2 (L,C,R,l,r) + LFE ch, 384.00 kbps |ENGАудио#3: 48 kHz, AC3 Dolby Digital, 3/2 (L,C,R,l,r) + LFE ch, 384.00 kbps |UKR (отдельно на disk yandex.ru)Аудио#4: 48 kHz, AC3 Dolby Digital, 3/2 (L,C,R,l,r) + LFE ch, 384.00 kbps |AVO - Володарский (отдельно на disk yandex.ru) 2,19 Gb 32 7
29 января 2016 16:20 Охотники на гангстеров / Gangster Squad (2013) BDRip 720p от Leonardo and Scarabey | Лицензия .torrent   [Информация о файле (нажмите для просмотра)] Перевод: Профессиональный (полное дублирование) ЛицензияСубтитры: Русские, английские, украинскиеФормат: MKVВидео кодек: MPEG-4 AVC Аудио кодек: AC3Видео: AVC, 1280x534 (2.40:1) at 23.976 fps, AVC at 2472 kbps avg, 0.151 bit/pixelАудио: 48 kHz, AC3 Dolby Digital, 3/2 (L,C,R,l,r) + LFE ch, 640.00 kbps - RussianСубтитры: Русские, английские, украинские 2,5 Gb 29 6
29 января 2016 16:20 Охотники на гангстеров / Gangster Squad (2013) HDRip | КПК | D | Лицензия .torrent   [Информация о файле (нажмите для просмотра)] Перевод: Профессиональный (полное дублирование) [лицензия]Кодек: MP4 [h364 (AVC)]Качество: HDRip | КПК | ЛицензияВидео: AVC, 640x272 (2.35:1), 23.976 fps, 476 Kbps (0.114 bit/pixel)Звук: AAC LC, 48.0 KHz, 2 ch, 128 Kbps, CBR (Russian)Субтитры: Отсутствуют 491,55 Mb 21 4
29 января 2016 16:20 Охотники на гангстеров / Gangster Squad (2013) BDRip 1080p .torrent   [Информация о файле (нажмите для просмотра)] Перевод: Дублированный + ОригиналКодек: x264Качество: BDRip 1080pВидео: 1920x800, 8560 Kbps, 23.976 fpsАудио #1: AC-3, 6 ch, 640 kbps (Rus)Аудио #2: AC-3, 6 ch, 640 kbps (Eng)Субтитры: русские (полные, форсированные), английскиеВидео: Идентификатор : 1 Формат : AVC Формат/Информация : Advanced Video Codec Профиль формата : [email protected] Параметр CABAC формата : Да Параметр ReFrames формата : 5 кадров Идентификатор кодека : V_MPEG4/ISO/AVC Продолжительность : 1 ч. 52 м. Битрейт : 8560 Кбит/сек Ширина : 1920 пикселей Высота : 800 пикселей Соотношение сторон : 2,40:1 Режим частоты кадров : Постоянный Частота кадров : 23,976 кадра/сек Цветовое пространство : YUV Субдискретизация насыщенности : 4:2:0 Битовая глубина : 8 бит Тип развёртки : Прогрессивная Бит/(Пиксели*Кадры) : 0.232 Размер потока : 6,60 Гбайт (85%) Заголовок : Rip by Boriy Библиотека кодирования : x264 core 132 r2310 76a5c3a Настройки программы : cabac=1 / ref=5 / deblock=1:-3:-3 / analyse=0x3:0x113 / me=umh / subme=10 / psy=1 / psy_rd=1.00:0.10 / mixed_ref=1 / me_range=32 / chroma_me=1 / trellis=2 / 8x8dct=1 / cqm=0 / deadzone=21,11 / fast_pskip=0 / chroma_qp_offset=-2 / threads=12 / lookahead_threads=1 / sliced_threads=0 / nr=0 / decimate=0 / interlaced=0 / bluray_compat=0 / constrained_intra=0 / bframes=5 / b_pyramid=2 / b_adapt=2 / b_bias=0 / direct=3 / weightb=1 / open_gop=0 / weightp=2 / keyint=240 / keyint_min=23 / scenecut=40 / intra_refresh=0 / rc=2pass / mbtree=0 / bitrate=8560 / ratetol=1.0 / qcomp=0.60 / qpmin=0 / qpmax=69 / qpstep=4 / cplxblur=20.0 / qblur=0.5 / ip_ratio=1.40 / pb_ratio=1.30 / aq=1:0.80 Язык : English Default : Да Forced : НетАудио #1: Идентификатор : 2 Формат : AC-3 Формат/Информация : Audio Coding 3 Расширение режима : CM (complete main) Параметр Endianness формата : Big Идентификатор кодека : A_AC3 Продолжительность : 1 ч. 52 м. Вид битрейта : Постоянный Битрейт : 640 Кбит/сек Каналы : 6 каналов Расположение каналов : Front: L C R, Side: L R, LFE Частота : 48,0 КГц Битовая глубина : 16 бит Метод сжатия : С потерями Размер потока : 517 Мбайт (7%) Заголовок : Дубляж Язык : Russian Default : Да Forced : НетАудио #2: Идентификатор : 3 Формат : AC-3 Формат/Информация : Audio Coding 3 Расширение режима : CM (complete main) Параметр Endianness формата : Big Идентификатор кодека : A_AC3 Продолжительность : 1 ч. 52 м. Вид битрейта : Постоянный Битрейт : 640 Кбит/сек Каналы : 6 каналов Расположение каналов : Front: L C R, Side: L R, LFE Частота : 48,0 КГц Битовая глубина : 16 бит Метод сжатия : С потерями Размер потока : 517 Мбайт (7%) Заголовок : Оригинал Язык : English Default : Нет Forced : Нет 7,76 Gb 75 5
29 января 2016 16:20 Охотники на гангстеров / Gangster Squad (2013) BDRip-AVC | D | Лицензия .torrent   [Информация о файле (нажмите для просмотра)] Перевод: Профессиональный (полное дублирование)ЛицензияКодек: H.264Качество: BDRip-AVC -[Blu-ray 1080p]Видео: 864x360 (2,40:1), 23,976 fps, ~850 Kbps, 0.114 bit/pixelЗвук: 48.0 KHz, A_AAC, 2 (L,R) ch, ~72.00 Kbps 746,35 Mb 16 3
29 января 2016 16:20 Охотники на гангстеров / Gangster Squad (2013) BDRip от HQCLUB | Лицензия .torrent   [Информация о файле (нажмите для просмотра)] Перевод: профессиональный (полное дублирование) + оригинал (английский)Субтитры: русские (полные, форсированные), английские, украинскиеФормат: AVIКачество: BDRip (источник:Видео: 720x304 (2.37:1), 23.976 fps, XviD build 65 ~1865 kbps avg, 0.35 bit/pixelАудио #1: 48 kHz, AC3 Dolby Digital, 3/2 (L,C,R,l,r) + LFE ch, ~448 kbps avg (DUB)Аудио #2: 48 kHz, AC3 Dolby Digital, 3/2 (L,C,R,l,r) + LFE ch, ~448 kbps avg (ENG)Аудио #3: 48 kHz, AC3 Dolby Digital, 3/2 (L,C,R,l,r) + LFE ch, ~448 kbps avg (DUB.UKR)(отдельно)Аудио #4: 48 kHz, AC3 Dolby Digital, 3/2 (L,C,R,l,r) + LFE ch, ~448 kbps avg (AVO.VOLODARSKIJ)(отдельно)Аудио #5: 48 kHz, AC3 Dolby Digital, 3/2 (L,C,R,l,r) + LFE ch, ~448 kbps avg (AVO.NEMAHOV)(отдельно) 2,18 Gb 26 2
29 января 2016 16:20 Охотники на гангстеров / Gangster Squad (2013) BDRip 1080p | Лицензия .torrent   [Информация о файле (нажмите для просмотра)] Перевод: русский дубляж + украинский дубляж[Лицензия, BD CEE]Контейнер: MKVВидео: AVC / [email protected] / 23,976 fps / 1920x800p / 11,5 Mbps / 0.312Аудио 1: AC3 / 5.1 ch / 640 kbps /Русский дубляж [BD CEE]Аудио 2: AC3 / 5.1 ch / 640 kbps /Украинский дубляж [BD CEE]Аудио 3: AC3 / 5.1 ch / 640 kbps /Английский original [BD CEE]Субтитры: [softsub SRT]Видео: Идентификатор : 1 Формат : AVC Формат/Информация : Advanced Video Codec Профиль формата : [email protected] Параметр CABAC формата : Да Параметр ReFrames формата : 5 кадров Идентификатор кодека : V_MPEG4/ISO/AVC Продолжительность : 1 ч. 52 м. Битрейт : 11,5 Мбит/сек Ширина : 1920 пикселей Высота : 800 пикселей Соотношение сторон : 2,40:1 Режим частоты кадров : Постоянный Частота кадров : 23,976 кадра/сек Цветовое пространство : YUV Субдискретизация насыщенности : 4:2:0 Битовая глубина : 8 бит Тип развёртки : Прогрессивная Бит/(Пиксели*Кадры) : 0.312 Размер потока : 8,86 Гбайт (84%) Заголовок : Gangster Squad (2013) Библиотека кодирования : x264 core 130 r2273 b3065e6 Настройки программы : cabac=1 / ref=5 / deblock=1:-3:-3 / analyse=0x3:0x113 / me=tesa / subme=11 / psy=1 / psy_rd=1.05:0.00 / mixed_ref=1 / me_range=24 / chroma_me=1 / trellis=2 / 8x8dct=1 / cqm=0 / deadzone=21,11 / fast_pskip=1 / chroma_qp_offset=-2 / threads=12 / lookahead_threads=2 / sliced_threads=0 / nr=0 / decimate=1 / interlaced=0 / bluray_compat=0 / constrained_intra=0 / bframes=8 / b_pyramid=2 / b_adapt=2 / b_bias=0 / direct=3 / weightb=1 / open_gop=0 / weightp=2 / keyint=240 / keyint_min=23 / scenecut=40 / intra_refresh=0 / rc_lookahead=40 / rc=2pass / mbtree=0 / bitrate=11500 / ratetol=1.0 / qcomp=0.60 / qpmin=10 / qpmax=69 / qpstep=4 / cplxblur=20.0 / qblur=0.5 / vbv_maxrate=62500 / vbv_bufsize=78125 / nal_hrd=none / ip_ratio=1.40 / pb_ratio=1.30 / aq=2:0.55 Язык : English Default : Да Forced : НетАудио #1: Идентификатор : 2 Формат : AC-3 Формат/Информация : Audio Coding 3 Расширение режима : CM (complete main) Параметр Endianness формата : Big Идентификатор кодека : A_AC3 Продолжительность : 1 ч. 52 м. Вид битрейта : Постоянный Битрейт : 640 Кбит/сек Каналы : 6 каналов Расположение каналов : Front: L C R, Side: L R, LFE Частота : 48,0 КГц Битовая глубина : 16 бит Метод сжатия : С потерями Размер потока : 517 Мбайт (5%) Заголовок : AC3 / 5.1 ch / 640 kbps / Русский дубляж, BD CEE Язык : Russian Default : Да Forced : НетАудио #2: Идентификатор : 3 Формат : AC-3 Формат/Информация : Audio Coding 3 Расширение режима : CM (complete main) Параметр Endianness формата : Big Идентификатор кодека : A_AC3 Продолжительность : 1 ч. 52 м. Вид битрейта : Постоянный Битрейт : 640 Кбит/сек Каналы : 6 каналов Расположение каналов : Front: L C R, Side: L R, LFE Частота : 48,0 КГц Битовая глубина : 16 бит Метод сжатия : С потерями Размер потока : 517 Мбайт (5%) Заголовок : AC3 / 5.1 ch / 640 kbps / Украинский дубляж, BD CEE Язык : Ukrainian Default : Нет Forced : НетАудио #3: Идентификатор : 4 Формат : AC-3 Формат/Информация : Audio Coding 3 Расширение режима : CM (complete main) Параметр Endianness формата : Big Идентификатор кодека : A_AC3 Продолжительность : 1 ч. 52 м. Вид битрейта : Постоянный Битрейт : 640 Кбит/сек Каналы : 6 каналов Расположение каналов : Front: L C R, Side: L R, LFE Частота : 48,0 КГц Битовая глубина : 16 бит Метод сжатия : С потерями Размер потока : 517 Мбайт (5%) Заголовок : AC3 / 5.1 ch / 640 kbps / Английский original, BD CEE Язык : English Default : Нет Forced : Нет 10,59 Gb 9 9
29 января 2016 16:20 Охотники на гангстеров / Gangster Squad (2013) BDRip 720p от HQ-ViDEO | Лицензия .torrent   [Информация о файле (нажмите для просмотра)] Перевод: Профессиональный дублированный /Лицензия Blu-Ray CEE/Субтитры: Русские (форс. + полные), АнглийскиеВидео: x.264, 1280x534 (2.40:1), ~4163 kbps avg, 23,976 fpsАудио #1: AC3 Dolby Digital, 48 KHz, ~640 kbps, 3/2 (L,C,R,l,r) + LFE ch/RUS/Аудио #2: AC3 Dolby Digital, 48 KHz, ~640 kbps, 3/2 (L,C,R,l,r) + LFE ch/UKR/Аудио #3: AC3 Dolby Digital, 48 KHz, ~640 kbps, 3/2 (L,C,R,l,r) + LFE ch/ENG/ 4,8 Gb 15 1
29 января 2016 16:20 Охотники на гангстеров / Gangster Squad (2013) BDRip от HQ-ViDEO | Лицензия .torrent   [Информация о файле (нажмите для просмотра)] Перевод: Профессиональный дублированный /Лицензия Blu-Ray CEE/Субтитры: Русские (форс. + полные), АнглийскиеВидео: XviD, 720x304 (2.37:1), ~1856 kbps avg, 23,976 fpsАудио #1: AC3 Dolby Digital, 48 KHz, ~448 kbps, 3/2 (L,C,R,l,r) + LFE ch/RUS/Аудио #2: AC3 Dolby Digital, 48 KHz, ~448 kbps, 3/2 (L,C,R,l,r) + LFE ch/ENG/Аудио #3: AC3 Dolby Digital, 48 KHz, ~448 kbps, 3/2 (L,C,R,l,r) + LFE ch/UKR, скачать отдельно с disk.yandex.ru/ 2,18 Gb 21 1
29 января 2016 16:20 Охотники на гангстеров / Gangster Squad (2013) DVD5 от New-Team | D | сжатый .torrent   [Информация о файле (нажмите для просмотра)] Перевод: Профессиональный (полное дублирование)Субтитры: русский, английский, украинский, литовский, латышский, эстонский, хорватский, словацкий, сербский, турецкий, польский, болгарскийКачество: DVD5 (сжатый)Формат: DVD VideoВидео: PAL 16x9 (720х576) VBR ~ 5284 kbps, Auto LetterboxedАудио: Русский: 48 kHz, Dolby AC3, 6 ch, 384.00 kbps,русский 4,37 Gb 1 5
29 января 2016 16:20 Охотники на гангстеров / Gangster Squad (2013) HDRip от Scarabey | D | Лицензия .torrent   [Информация о файле (нажмите для просмотра)] Перевод: Профессиональный (полное дублирование) - ЛицензияСубтитры: нетВидео: 720x304 (2.37:1), 23.976 fps, XviD build 50 ~2198 kbps avg, 0.42 bit/pixelАудио: 48 kHz, AC3 Dolby Digital, 3/2 (L,C,R,l,r) + LFE ch, ~384.00 kbps avg 2,04 Gb 9 2
29 января 2016 16:20 Охотники на гангстеров / Gangster Squad (2013) HDRip от Scarabey | D | Лицензия .torrent   [Информация о файле (нажмите для просмотра)] Перевод: Профессиональный (полное дублирование)- ЛицензияСубтитры: нетВидео: 720x304 (2.37:1), 23.976 fps, XviD build 50 ~1449 kbps avg, 0.28 bit/pixelАудио: 48 kHz, AC3 Dolby Digital, 3/2 (L,C,R,l,r) + LFE ch, ~384.00 kbps avg 1,45 Gb 481 14
29 января 2016 16:20 Охотники на гангстеров / Gangster Squad (2013) HDRip от Scarabey | D | Лицензия .torrent   [Информация о файле (нажмите для просмотра)] Перевод: Профессиональный (полное дублирование) - ЛицензияСубтитры: нетВидео: 688x288 (2.39:1), 23.976 fps, XviD build 50 ~782 kbps avg, 0.16 bit/pixelАудио: 48 kHz, MPEG Layer 3, 2 ch, ~128.00 kbps avg 743,01 Mb 5 3
29 января 2016 16:20 Охотники на гангстеров / Gangster Squad (2013) BDRemux 1080p от New-Team | D | лицензия .torrent   [Информация о файле (нажмите для просмотра)] Перевод: Профессиональный (полное дублирование)Субтитры: русский, английскийКачество: BDRemux 1080pФормат: MKVВидео: 1920x1080 (16:9), 23.976 fps, h364 ~ 21,39 Мбит/сек avg, 0.409 bit/pixelАудио 1: 48 kHz, AC3 6 ch, 384 kbps, русскийАудио 2: 48 kHz, DTS 6 ch, 1536 kbps, английскийАудио 3: 48 kHz, AC3 2 ch, 192 kbps, английский (комментарий)Видео: Идентификатор : 1 Формат : AVC Формат/Информация : Advanced Video Codec Профиль формата : [email protected] Параметр CABAC формата : Да Параметр ReFrames формата : 2 кадра Режим смешивания : Container [email protected] Идентификатор кодека : V_MPEG4/ISO/AVC Продолжительность : 1 ч. 52 м. Вид битрейта : Переменный Ширина : 1920 пикселей Высота : 1080 пикселей Соотношение сторон : 16:9 Режим частоты кадров : Постоянный Частота кадров : 23,976 кадра/сек Цветовое пространство : YUV Субдискретизация насыщенности : 4:2:0 Битовая глубина : 8 бит Тип развёртки : Прогрессивная Язык : English Default : Да Forced : НетАудио #1: Идентификатор : 2 Формат : AC-3 Формат/Информация : Audio Coding 3 Расширение режима : CM (complete main) Параметр Endianness формата : Big Идентификатор кодека : A_AC3 Продолжительность : 1 ч. 52 м. Вид битрейта : Постоянный Битрейт : 384 Кбит/сек Каналы : 6 каналов Расположение каналов : Front: L C R, Side: L R, LFE Частота : 48,0 КГц Битовая глубина : 16 бит Метод сжатия : С потерями Размер потока : 310 Мбайт (2%) Язык : Russian Default : Да Forced : НетАудио #2: Идентификатор : 3 Формат : DTS Формат/Информация : Digital Theater Systems Профиль формата : MA / Core Режим : 16 Параметр Endianness формата : Big Идентификатор кодека : A_DTS Продолжительность : 1 ч. 52 м. Вид битрейта : Переменный Битрейт : Неизвестно / 1509 Кбит/сек Каналы : 6 каналов Расположение каналов : Front: L C R, Side: L R, LFE Частота : 48,0 КГц Битовая глубина : 16 бит Метод сжатия : Без потерь / Lossy Язык : English Default : Нет Forced : НетАудио #3: Идентификатор : 4 Формат : AC-3 Формат/Информация : Audio Coding 3 Профиль формата : Dolby Digital Расширение режима : CM (complete main) Параметр Endianness формата : Big Идентификатор кодека : A_AC3 Продолжительность : 1 ч. 52 м. Вид битрейта : Постоянный Битрейт : 192 Кбит/сек Каналы : 2 канала Расположение каналов : Front: L R Частота : 48,0 КГц Битовая глубина : 16 бит Метод сжатия : С потерями Размер потока : 155 Мбайт (1%) Заголовок : Commentary Язык : English Default : Нет Forced : Нет 18,5 Gb 4 6

Охотники на гангстеров через торрент

piratbit.ru

Размер: 2.04 GB | Добавлен: 4 года 5 мес. назад | Торрент скачан:484 раза
Реклама Дарим 3000 рублей за регистрацию, не упусти свой шанс получить шикарный бонус!!!

28-04-2013 19:17 Охотники на гангстеров Скачать торрент  

Охотники на гангстеров / Gangster Squad

Год выпуска: 2013 Страна: СШАЖанр: боевик, триллер, драма, криминал,Продолжительность: 01:52:54Перевод: Дубляж, Лицензия

Режиссер: Рубен ФлейшерПродюссер: Дэн Лин, Кевин МакКормик, Майкл ТадроссСценарий: Уилл Билл, Пол Либерман

Мировой рейтинг IMDB 6.90 (55 855)

В ролях: Джош Бролин, Райан Гослинг, Ник Нолти, Эмма Стоун, Энтони Маки, Джованни Рибизи, Майкл Пенья, Роберт Патрик, Шон Пенн, Холт МакКэллани, Алексей Рязанцев, Михаил Тихонов, Игорь Старосельцев, Татьяна Шитова, Даниил Эльдаров,

Описание: Лос-Анджелес, 1949 год. Уроженец Бруклина, жестокий главарь банды Микки Коэн держит город в ежовых рукавицах, собирая «грязные» деньги от торговли наркотиками, оружием и проституции, и — если все пойдет, как надо, — к Западу от Чикаго мышь не пискнет без его ведома. Защищают его не только его же головорезы, но и находящиеся у него «на крючке» полиция и политики. Этого хватит, чтобы запугать даже самых смелых, закаленных улицей копов... кроме, пожалуй, небольшой тайной группы сотрудников полицейского департамента Лос-Анджелеса во главе с сержантом Джоном О’Мара и Джерри Вутерсом, которые объединились, чтобы попытаться уничтожить преступный мир Коэна.

Качество: HDRipФормат: AVIВидео кодек: XviDАудио кодек: AC3Видео: 720x304 (2.37:1), 23.976 fps, ~2198 kbps avg, 0.42 bit/pixelАудио: 48 kHz, ~384.00 kbps avg, 6 каналов

           

Охотники на гангстеров скачать торрент

Скачать Охотники на гангстеров через торрент http://pic.pb.wtf/images/2/bnve19cvv1.jpg Скачать фильм Охотники на гангстеров через торрент бесплантно в хорошем качестве Описание: Лос-Анджелес, 1949 год. Уроженец Бруклина, жестокий главарь банды Микки Коэн держит город в ежовых рукавицах, собирая «грязные» ... 2013-04-28 19:17 9.9 10 12

Loading...

Loading...

% Раздел Тема Автор DL S | L
Фильмы [HD 720p, 1080p] (Хороший звук DUB, MVO) [ 4.67 GB ] Охотники на гангстеров / Gangster Squad [2013 BDRip 720p] diletant Скачать
Фильмы 2013 [DVDrip, WEB-DLRip, HDrip] [ 2.18 GB ] Охотники на гангстеров / Gangster Squad [2013 HDRip Tunes Russia] DJKOCMOC Скачать
Фильмы 2012 [ 1.46 GB ] Охотники на гангстеров / Gangster Squad [2013 BDRip лицензия] Ворон Скачать
Фильмы [HD 720p, 1080p] (Хороший звук DUB, MVO) [ 5.89 GB ] Охотники на гангстеров / Gangster Squad [2013 BDRip 720p + Оригинал] [email protected] Скачать
Фильмы [HD 720p, 1080p] (Хороший звук DUB, MVO) [ 10.83 GB ] Охотники на гангстеров / Gangster Squad [2013 BDRip 1080p + Оригинал+Укр ()] Trava-HD Скачать
Фильмы 2013 [DVDrip, WEB-DLRip, HDrip] [ 2.05 GB ] Охотники на гангстеров / Gangster Squad [2013 WEB-DLRip] diletant Скачать
Фильмы (Blu-ray, BD-Remux, HDDVD) [ 32.46 GB ] Охотники на гангстеров / Gangster Squad [2012 Blu-ray 1080p лицензия] Seedtank Скачать

Рекламный пират

Дорогой пользователь! Огромная просьба, поблагодарите релизера, оцените раздачу и оставьте свои комментарий, если Вы скачали Охотники на гангстеров через торрент бесплатно! Внесите свою лепту в развитие PiratBit!

Комментировать посты могут только пользователи прошедшие не сложную регистрацию

Охотники на гангстеров через торрент Скачать бесплатно Охотники на гангстеров Охотники на гангстеров скачать торрент Охотники на гангстеров смотреть онлайн Cкачать фильм Охотники на гангстеров бесплатно Охотники на гангстеров скачать торрент в хорошем качестве Охотники на гангстеров смотреть онлайн бесплатно в хорошем качестве

Вы не можете начинать темыВы не можете отвечать на сообщенияВы не можете редактировать свои сообщенияВы не можете удалять свои сообщенияВы не можете голосовать в опросахВы не можете прикреплять файлы к сообщениямВы можете скачивать файлы

Охотники на гангстеров через торрент

ОбщееУникальный идентификатор         : 239070588539677949855772254720386777486 (0xB3DB520E31AFA5018BC7C5782FE1C18E)Полное имя                       : H:Ohotniki.na gangsterov.2013.D.x264.HDRip-MysTeRy.mkvФормат                           : MatroskaВерсия формата                   : Version 4 / Version 2Размер файла                     : 2,18 ГбайтПродолжительность                : 1 ч. 52 м.Общий поток                      : 2762 Кбит/секНазвание фильма                  : Ohotniki.na gangsterov.2013.D.x264.HDRip-MysTeRyДата кодирования                 : UTC 2013-04-07 12:24:17Программа кодирования            : mkvmerge v6.1.0 ('Old Devil') built on Mar  2 2013 14:32:37Библиотека кодирования           : libebml v1.3.0 + libmatroska v1.4.0

ВидеоИдентификатор                    : 1Формат                           : AVCФормат/Информация                : Advanced Video CodecПрофиль формата                  : [email protected]Параметр CABAC формата           : ДаПараметр ReFrames формата        : 11 кадровИдентификатор кодека             : V_MPEG4/ISO/AVCПродолжительность                : 1 ч. 52 м.Битрейт                          : 1992 Кбит/секШирина                           : 1024 пикселяВысота                           : 426 пикселейСоотношение сторон               : 2,40:1Частота кадров                   : 23,976 кадра/секЦветовое пространство            : YUVСубдискретизация насыщенности    : 4:2:0Битовая глубина                  : 8 битТип развёртки                    : ПрогрессивнаяБит/(Пиксели*Кадры)              : 0.190Размер потока                    : 1,53 Гбайт (70%)Заголовок                        : ENCODER........: MysTeRyБиблиотека кодирования           : x264 core 130 r2273 b3065e6Настройки программы              : cabac=1 / ref=11 / deblock=1:-3:-3 / analyse=0x3:0x133 / me=umh / subme=10 / psy=1 / psy_rd=1.00:0.10 / mixed_ref=1 / me_range=32 / chroma_me=1 / trellis=2 / 8x8dct=1 / cqm=0 / deadzone=21,11 / fast_pskip=0 / chroma_qp_offset=-3 / threads=12 / lookahead_threads=2 / sliced_threads=0 / nr=0 / decimate=0 / interlaced=0 / bluray_compat=0 / constrained_intra=0 / bframes=8 / b_pyramid=2 / b_adapt=2 / b_bias=0 / direct=3 / weightb=1 / open_gop=0 / weightp=2 / keyint=250 / keyint_min=23 / scenecut=40 / intra_refresh=0 / rc_lookahead=60 / rc=2pass / mbtree=0 / bitrate=1992 / ratetol=1.0 / qcomp=0.70 / qpmin=0 / qpmax=69 / qpstep=4 / cplxblur=20.0 / qblur=0.5 / vbv_maxrate=50000 / vbv_bufsize=61400 / nal_hrd=none / ip_ratio=1.40 / pb_ratio=1.30 / aq=1:0.90Язык                             : EnglishDefault                          : ДаForced                           : НетОсновные цвета                   : BT.709-5, BT.1361, IEC 61966-2-4, SMPTE RP177Характеристики трансфера         : BT.709-5, BT.1361Коэффициенты матрицы             : BT.709-5, BT.1361, IEC 61966-2-4 709, SMPTE RP177

Аудио #1Идентификатор                    : 2Формат                           : AC-3Формат/Информация                : Audio Coding 3Расширение режима                : CM (complete main)Идентификатор кодека             : A_AC3Продолжительность                : 1 ч. 52 м.Вид битрейта                     : ПостоянныйБитрейт                          : 384 Кбит/секКаналы                           : 6 каналовРасположение каналов             : Front: L C R, Side: L R, LFEЧастота                          : 48,0 КГцБитовая глубина                  : 16 битМетод сжатия                     : С потерямиРазмер потока                    : 310 Мбайт (14%)Заголовок                        : DubЯзык                             : RussianDefault                          : ДаForced                           : Нет

Аудио #2Идентификатор                    : 3Формат                           : AC-3Формат/Информация                : Audio Coding 3Расширение режима                : CM (complete main)Идентификатор кодека             : A_AC3Продолжительность                : 1 ч. 52 м.Вид битрейта                     : ПостоянныйБитрейт                          : 384 Кбит/секКаналы                           : 6 каналовРасположение каналов             : Front: L C R, Side: L R, LFEЧастота                          : 48,0 КГцБитовая глубина                  : 16 битМетод сжатия                     : С потерямиРазмер потока                    : 310 Мбайт (14%)Заголовок                        : OriginalЯзык                             : EnglishDefault                          : НетForced                           : Нет

Текст #1Идентификатор                    : 4Формат                           : UTF-8Идентификатор кодека             : S_TEXT/UTF8Идентификатор кодека/Информация  : UTF-8 Plain TextЗаголовок                        : ForcedЯзык                             : RussianDefault                          : НетForced                           : Нет

Текст #2Идентификатор                    : 5Формат                           : UTF-8Идентификатор кодека             : S_TEXT/UTF8Идентификатор кодека/Информация  : UTF-8 Plain TextЯзык                             : RussianDefault                          : НетForced                           : Нет

Текст #3Идентификатор                    : 6Формат                           : UTF-8Идентификатор кодека             : S_TEXT/UTF8Идентификатор кодека/Информация  : UTF-8 Plain TextЯзык                             : EnglishDefault                          : НетForced                           : Нет

Меню00:00:00.000                     : en:00:00:00.00000:09:53.635                     : en:00:09:53.63500:20:51.167                     : en:00:20:51.16700:28:36.173                     : en:00:28:36.17300:39:22.860                     : en:00:39:22.86000:49:25.462                     : en:00:49:25.46200:59:59.262                     : en:00:59:59.26201:09:23.493                     : en:01:09:23.49301:20:05.259                     : en:01:20:05.25901:31:01.539                     : en:01:31:01.53901:38:50.341                     : en:01:38:50.34101:44:11.370                     : en:01:44:11.370

piratbit.ru

Охотники на гангстеров (2013) скачать торрент в хорошем качестве бесплатно. Скачать Охотники на гангстеров (2013) через торрент фильм в HD качестве

Для того чтобы скачать фильм Охотники на гангстеров (2013) через торрент, Вам необходимо нажать на кнопку скачать торрент, которая находится над постером сверху, или на текстовую ссылку с надписью - Охотники на гангстеров (2013) скачать торрент в хорошем качестве.

igrhost.ru

Название: Охотники на гангстеровОригинальное название: Gangster SquadГод выпуска: 2013Выпущено: СШАЖанр: боевик, триллер, драма, мафияПродолжительность: 01:42:44Перевод: Дублированный (лицензия)

Качество видео: HDRip (Лицензия)Формат видео: aviРазмер: 1450 MB

Режиссер: Рубен ФлейшерВ ролях: Джош Бролин , Райан Гослинг, Ник Нолти, Эмма Стоун, Энтони Маки, Джованни Рибизи, Майкл Пенья, Роберт Патрик, Шон Пенн и др.

Описание: Фильм переносит нас далекий одна тысяча девятьсот сорок девятый год, где беспощадный главарь банды Микки Коэн со своими головорезами командуют парадом в одном городке чуть западней Чикаго, он ни чего и не кого не доиться, находясь под защитой подкупных чиновников и грязных копов, занимаясь "черным" бизнесом и имея доход на реализации наркотиков, оружия и предоставляя услиги девушек легкого поведения. У Коэна очень огромная власть и мощь, что даже у самых честных и отважных полицейских - патриотов отпадает какое либо желание противостоять ему. Но, у Лос - Анджелесском подразделении полиции есть некий засекреченный отдел, о котором даже многие политики не знают о нем. Возглавляет этот отдел, проверенный на деле сержант Джон О'Мара и его верный друг и напарник Джерри Уотерсо. Они единственные у которых хватило мужества пойти против банды Микки Коэна, они готовы поставить на кон собственные жизни, чтобы освободить местечко от банды головорезов держащих в страхе весь город.

Рецензия от сайта Igrhost.ru1949-й год, Лос-Анджелес. Микки Коэн – уроженец Бруклина и жестокий бандитский главарь, который держит в ежовых рукавицах город, собирает «грязные» деньги от наркотической торговли, проституции и торговли оружием. И если все происходит очень удачно, то к западу от Чикаго без его ведома даже «мышь не пикнет». Защиту он получает не только от своих головорезов, но и от находящихся у него «на крючке» политиков и полиции. Этого хватает для того, чтобы в страх загнать даже самых закаленных, самых смелых копов, однако, кроме маленькой группки сотрудников полицейского Лос-анджелесского департамента, которым руководит сержант Джон О’Мар. Именно эта группа решает объединиться, чтобы заняться уничтожением преступного мира Коэна. В составе так именуемого «гангстерского взвода», кроме Джона оказались настоящие прожженные бойцы: миловидный сержант и близкий друг О’Мары – Джерри Вутерс, командный «мозг» Конуэлл Килер, оружейный эксперт Коулмэн Харрис, пожилой стрелок по имени Макс Кеннард и мексиканец Навидад Рамирес. Первый шаг – это закрутить роман с девушкой Коэна – рыжеволосой красоткой Грэйс Фарадей. А первой попыткой команды становится захват подпольного казино в Барбенке. Но операция заканчивается провалом…

Сочетание не сочетаемого носит название «оксюморон». Вот и данной киноленте можно присвоить статус некоего кинематографического оксюморона, оксюморона жанров. В строке «жанры» зритель может увидеть следующий перечень: триллер, криминал, боевик, драма.Ну, что ж а теперь по очереди пройдемся по каждому из жанров. Боевик в данной киноленте выступает в классическом виде. Герои, в которых просто невозможно попасть, пистолеты-пули-стрельба и, конечно, драки. Все слажено и продумано: местами продлено и четко, медленно, местами для количества, где-то резко, суматошно.Триллер вышел весьма неоднозначным. Несомненно, в кинокартине присутствует напряжение, и его удается держать создателям довольно продолжительное время, но, к сожалению, к финалу оно немного улетучивается. А финальный бой выглядит вообще слабоватым.Драмы удалось достигнуть в первую очередь благодаря актерам. Несокрушимый и упертый Джош Бролин, безумный Шон Пен, настоящий красавчик Госслинг, «большой» праведник Ник Нолти и очаровательная девушка для галочки Стоун. Все сыграли реалистично, в меру пафосно для американского кинематографа, и самое главное актерам в меру удается открыть характеры своих персонажей.Криминал тут в полной мере прекрасен и великолепен, как положено куча смертей и куча крови, причем смерти были разными: кровавыми, невинными, изощренными, жестокими, хорошими. Словно «суровые девяностые» для Лос-анджелесских сороковых.Вот в кинокартине мы и имеем четыре жанра, которые, возможно, плохо сочетаются, а иногда может, и противоречат друг другу. Столь реалистичный криминал и боевик-классика, непонятный триллер и драма актеров? Отдельно жанры есть и они замечательны, но вот переход одного жанра в другой, как бы это правильно сказать, «кривоват» что ли.


Смотрите также