Скачать через торрент неудержимые 3 в хорошем качестве


Скачать фильм Неудержимые 3 через торрент

22 февраля 2017 13:16 Неудержимые 3 (2014) HDRip | Лицензия.avi.torrent   [Информация о файле (нажмите для просмотра)] Качество: HDRipВидео данные: XviD, 1932 Кбит/с, 720x304Аудио данные: AC3, 6 ch, 448 Кбит/сПродолжительность: 02:06:27Перевод: Дублированный 2,11 Gb 1 1 22 февраля 2017 13:12 Неудержимые 3 (2014) BDRip 720p от HELLYWOOD | Расширенная версия | Лицензия.mkv.torrent   [Информация о файле (нажмите для просмотра)] Продолжительность: 02:11:31Перевод: Дубляж [Blu-ray RUS], авторский (одноголосый)Субтитры: русские (форс.), английские (Full + SDH + SDH-Colored)Навигация по главам: есть

Качество: BDRip 720pФормат: MKVВидео: AVC, 1280x534 (2,40:1), 23,976 fps, 3477 kbps, 0.212 bppАудио №1: AC3 / 5.1 / 48 kHz / 640 kbps / 16 bit | DUB - Blu-ray RUS + Д.Есарев Аудио №2: AC3 / 5.1 / 48 kHz / 640 kbps / 16 bit | AVO - Д.Есарев Аудио №3: AC3 / 5.1 / 48 kHz / 640 kbps / 16 bit | AVO - В.Горчаков Аудио №4: AC3 / 5.1 / 48 kHz / 640 kbps / 16 bit | AVO - Л.Володарский Аудио №5: AC3 / 5.1 / 48 kHz / 640 kbps / 16 bit | AVO - А.Гаврилов Аудио №6: AC3 / 5.1 / 48 kHz / 640 kbps / 16 bit | AVO - ENG

6,72 Gb 37 20 22 февраля 2017 13:11 Неудержимые 3 (2014) BDRip 1080p | Theatrical Cut | US transfer | Лицензия.mkv.torrent   [Информация о файле (нажмите для просмотра)] Продолжительность: 02:06:27Перевод: Дублированный (лицензия BD RUS)Кодек: x264Формат: MKVКачество: BDRip 1080p (Источник: Blu-ray - Made in USA)Видео: MPEG-4 AVC 1920x800 pix, 23.976 fps, 7896 kbps, 0.214 Bits/PixelАудио I: Dolby Digital 5.1 ch, 48 kHz, 448 kbps (Rus)Аудио II: Dolby Digital 5.1 ch, 48 kHz, 448 kbps (Eng)Субтитры: SRT Русские (форс, полные), Английские (полные, SDH)Меню: Сохранены оригинальные чаптеры Blu-ray 7,76 Gb 46 6 22 февраля 2017 13:07 Неудержимые 3 (Театральная версия) (2014) 4K | HEVC | HDR BDRip 2160p | Лицензия.mkv.torrent   [Информация о файле (нажмите для просмотра)] Видео данные: HEVC, HDR 23100 Кбит/с, 3840x1600, 23.976 кадр/сАудио данные: Русский (AC3, 6 ch, 640 Кбит/c), английский (TrueHD, 8 ch, 7467 Кбит/c), (AC3, 6 ch, 640 Кбит/с)Перевод: Дублированный [Лицензия BD CEE]Субтитры: Русские, английскиеПродолжительность: 02:06:29 26,13 Gb 4 6 17 февраля 2016 13:22 Ребятня 3 / The Expendables 3 (2015) HDRip | Смешной перевод .torrent   [Информация о файле (нажмите для просмотра)] Перевод: Любительский одноголосый (смешной переводser6630)Качество: HDRipФормат: AVIВидео: 720x304, 25 fps, XviD MPEG-4 ~2 179 kbps avg, 0.398 bit/pixelАудио: 48 kHz, MPEG Layer 3, 2 ch, ~192.00 kbps avg 2,19 Gb 40 5 17 февраля 2016 13:22 Неудержимые: Трилогия / The Expendables: Trilogy (2010-2014) BDRip | Лицензия .torrent   [Информация о файле (нажмите для просмотра)] Перевод: Профессиональный (полное дублирование)Качество: BDRipФормат: AVIВидео: 720x304 (2.37:1), 23.976 fps, XviD MPEG-4 ~2101 kbps avg, 0.40 bit/pixelЗвук #1: 48 kHz, AC3 Dolby Digital, 3/2 (L,C,R,l,r) + LFE ch, ~448 kbps | RUSЗвук #2: 48 kHz, AC3 Dolby Digital, 3/2 (L,C,R,l,r) + LFE ch, ~448 kbps | ENGПеревод: Профессиональный (полное дублирование)Качество: BDRipФормат: AVIВидео: 720x304 (2.37:1), 23.976 fps, XviD MPEG-4 ~2242 kbps avg, 0.41 bit/pixelЗвук #1: 48 kHz, AC3 Dolby Digital, 3/2 (L,C,R,l,r) + LFE ch, ~448 kbps | RUSЗвук #2: 48 kHz, AC3 Dolby Digital, 3/2 (L,C,R,l,r) + LFE ch, ~448 kbps | ENGПеревод: Профессиональный (полное дублирование)Качество: BDRipФормат: AVIВидео: 720x304 (2.37:1), 23.976 fps, XviD build 65 ~1735 kbps avg, 0.32 bit/pixelЗвук #1: 48 kHz, AC3 Dolby Digital, 3/2 (L,C,R,l,r) + LFE ch, ~448 kbps | RUSЗвук #2: 48 kHz, AC3 Dolby Digital, 3/2 (L,C,R,l,r) + LFE ch, ~448 kbps | ENG 6,55 Gb 63 32 17 февраля 2016 13:22 Неудержимые: Трилогия / The Expendables: Trilogy (2010-2014) BDRip от -=HD-NET=- | КПК | Лицензия .torrent   [Информация о файле (нажмите для просмотра)] Кодек: х264Качество: BDRip | КПКВидео: MPEG-4, 480 х 200, 23,976 fps, 450 Кбит/сАудио: ААС LC, 2 ch, 128 Кбит/сКодек: х264Качество: BDRip | КПКВидео: MPEG-4, 480 х 200, 23,976 fps, 414 Кбит/сАудио: ААС LC, 2 ch, 128 Кбит/сКодек: х264Качество: BDRip | КПКВидео: MPEG-4, 480 х 200, 23,976 fps, 378 Кбит/сАудио: ААС LC, 2 ch, 128 Кбит/с 1,26 Gb 13 4 17 февраля 2016 13:21 Неудержимые: Трилогия / The Expendables: Trilogy (2010-2014) BDRip-AVC от HELLYWOOD | Лицензия .torrent   [Информация о файле (нажмите для просмотра)] Перевод: Профессиональный (полное дублирование) [лицензия BD RUS]Субтитры: Русские (полные + форс.), английские (Forced + Full + SDH)Качество: BDRip-AVCФормат: MKVВидео: x.264, 1044x434 (2,40:1), 23,976 fps, 2120 kbps, 0.195 bit/pixelАудио#1: 48 kHz, AC3 Dolby Digital, 3/2 (L,C,R,l,r) + LFE ch, 448.00 kbps |RUSАудио#2: 48 kHz, AC3 Dolby Digital, 3/2 (L,C,R,l,r) + LFE ch, 448.00 kbps |ENGПеревод: Профессиональный (полное дублирование) [лицензия BD RUS]Субтитры: Русские (полные + SDH), английские (Full + SDH + SDH-Colored)Качество: BDRip-AVCФормат: MKVВидео: x.264, 1032x430 (2,40:1), 23,976 fps, 2143 kbps, 0.201 bit/pixelАудио#1: 48 kHz, AC3 Dolby Digital, 3/2 (L,C,R,l,r) + LFE ch, 448.00 kbps |RUSАудио#2: 48 kHz, AC3 Dolby Digital, 3/2 (L,C,R,l,r) + LFE ch, 448.00 kbps |ENGПеревод: Профессиональный (полное дублирование) [лицензия BD RUS]Субтитры: Русские (полные + форс.), английские (Full + SDH)Качество: BDRip-AVCФормат: MKVВидео: x.264, 1032x430 (2,40:1), 23,976 fps, 1572 kbps, 0.148 bit/pixelАудио#1: 48 kHz, AC3 Dolby Digital, 3/2 (L,C,R,l,r) + LFE ch, 448.00 kbps |RUSАудио#2: 48 kHz, AC3 Dolby Digital, 3/2 (L,C,R,l,r) + LFE ch, 448.00 kbps |ENG 6,54 Gb 44 25

gig-torrent.net

Скачать фильм Неудержимые 3 через торрент в хорошем качестве бесплатно 720p]

Format                                   : MatroskaFormat version                           : Version 2File size                                : 7.72 GiBDuration                                 : 2h 11mnOverall bit rate                         : 8 403 KbpsMovie name                               : Neuderzhimye 3.Unrated.(2014).BDRip.720p.[denis100]Encoded date                             : UTC 2015-01-28 09:20:14Writing application                      : mkvmerge v5.8.0 ('No Sleep / Pillow') built on Sep  2 2012 15:37:04Writing library                          : libebml v1.2.3 + libmatroska v1.3.0

VideoID                                       : 1Format                                   : AVCFormat/Info                              : Advanced Video CodecFormat profile                           : [email protected] settings, CABAC                   : YesFormat settings, ReFrames                : 11 framesCodec ID                                 : V_MPEG4/ISO/AVCDuration                                 : 2h 11mnBit rate                                 : 4 600 KbpsWidth                                    : 1 280 pixelsHeight                                   : 534 pixelsDisplay aspect ratio                     : 2.40:1Frame rate                               : 23.976 fpsColor space                              : YUVChroma subsampling                       : 4:2:0Bit depth                                : 8 bitsScan type                                : ProgressiveBits/(Pixel*Frame)                       : 0.281Stream size                              : 4.04 GiB (52%)Title                                    : Neuderzhimye 3.Unrated.(2014).BDRip.720p.[denis100]Writing library                          : x264 core 144 r2525 40bb568Encoding settings                        : cabac=1 / ref=11 / deblock=1:-3:-3 / analyse=0x3:0x133 / me=umh / subme=11 / psy=1 / psy_rd=1.00:0.08 / mixed_ref=1 / me_range=32 / chroma_me=1 / trellis=2 / 8x8dct=1 / cqm=0 / deadzone=21,11 / fast_pskip=0 / chroma_qp_offset=-3 / threads=6 / lookahead_threads=1 / sliced_threads=0 / nr=0 / decimate=1 / interlaced=0 / bluray_compat=0 / constrained_intra=0 / bframes=8 / b_pyramid=2 / b_adapt=2 / b_bias=0 / direct=3 / weightb=1 / open_gop=0 / weightp=2 / keyint=240 / keyint_min=23 / scenecut=40 / intra_refresh=0 / rc=2pass / mbtree=0 / bitrate=4600 / ratetol=1.0 / qcomp=0.60 / qpmin=0 / qpmax=69 / qpstep=4 / cplxblur=20.0 / qblur=0.5 / ip_ratio=1.40 / pb_ratio=1.30 / aq=1:0.90Language                                 : EnglishDefault                                  : YesForced                                   : No

Audio #1ID                                       : 2Format                                   : AC-3Format/Info                              : Audio Coding 3Mode extension                           : CM (complete main)Codec ID                                 : A_AC3Duration                                 : 2h 11mnBit rate mode                            : ConstantBit rate                                 : 640 KbpsChannel(s)                               : 6 channelsChannel positions                        : Front: L C R, Side: L R, LFESampling rate                            : 48.0 KHzBit depth                                : 16 bitsCompression mode                         : LossyStream size                              : 602 MiB (8%)Title                                    : ДублированныйLanguage                                 : RussianDefault                                  : YesForced                                   : No

Audio #2ID                                       : 3Format                                   : AC-3Format/Info                              : Audio Coding 3Mode extension                           : CM (complete main)Codec ID                                 : A_AC3Duration                                 : 2h 11mnBit rate mode                            : ConstantBit rate                                 : 640 KbpsChannel(s)                               : 6 channelsChannel positions                        : Front: L C R, Side: L R, LFESampling rate                            : 48.0 KHzBit depth                                : 16 bitsCompression mode                         : LossyStream size                              : 602 MiB (8%)Title                                    : Авторский,  А. ГавриловLanguage                                 : RussianDefault                                  : NoForced                                   : No

Audio #3ID                                       : 4Format                                   : AC-3Format/Info                              : Audio Coding 3Mode extension                           : CM (complete main)Codec ID                                 : A_AC3Duration                                 : 2h 11mnBit rate mode                            : ConstantBit rate                                 : 640 KbpsChannel(s)                               : 6 channelsChannel positions                        : Front: L C R, Side: L R, LFESampling rate                            : 48.0 KHzBit depth                                : 16 bitsCompression mode                         : LossyStream size                              : 602 MiB (8%)Title                                    : Авторский, Л. ВолодарскийLanguage                                 : RussianDefault                                  : NoForced                                   : No

Audio #4ID                                       : 5Format                                   : AC-3Format/Info                              : Audio Coding 3Mode extension                           : CM (complete main)Codec ID                                 : A_AC3Duration                                 : 2h 11mnBit rate mode                            : ConstantBit rate                                 : 640 KbpsChannel(s)                               : 6 channelsChannel positions                        : Front: L C R, Side: L R, LFESampling rate                            : 48.0 KHzBit depth                                : 16 bitsCompression mode                         : LossyStream size                              : 602 MiB (8%)Title                                    : Авторский, В. ГорчаковLanguage                                 : RussianDefault                                  : NoForced                                   : No

Audio #5ID                                       : 6Format                                   : AC-3Format/Info                              : Audio Coding 3Mode extension                           : CM (complete main)Codec ID                                 : A_AC3Duration                                 : 2h 11mnBit rate mode                            : ConstantBit rate                                 : 640 KbpsChannel(s)                               : 6 channelsChannel positions                        : Front: L C R, Side: L R, LFESampling rate                            : 48.0 KHzBit depth                                : 16 bitsCompression mode                         : LossyStream size                              : 602 MiB (8%)Title                                    : Авторский, Д. ЕсаревLanguage                                 : RussianDefault                                  : NoForced                                   : No

Audio #6ID                                       : 7Format                                   : AC-3Format/Info                              : Audio Coding 3Mode extension                           : CM (complete main)Codec ID                                 : A_AC3Duration                                 : 2h 11mnBit rate mode                            : ConstantBit rate                                 : 640 KbpsChannel(s)                               : 6 channelsChannel positions                        : Front: L C R, Side: L R, LFESampling rate                            : 48.0 KHzBit depth                                : 16 bitsCompression mode                         : LossyStream size                              : 602 MiB (8%)Title                                    : EnglishLanguage                                 : EnglishDefault                                  : NoForced                                   : No

Text #1ID                                       : 8Format                                   : UTF-8Codec ID                                 : S_TEXT/UTF8Codec ID/Info                            : UTF-8 Plain TextTitle                                    : ForcedLanguage                                 : RussianDefault                                  : YesForced                                   : No

Text #2ID                                       : 9Format                                   : UTF-8Codec ID                                 : S_TEXT/UTF8Codec ID/Info                            : UTF-8 Plain TextTitle                                    : FullLanguage                                 : EnglishDefault                                  : NoForced                                   : No

Text #3ID                                       : 10Format                                   : UTF-8Codec ID                                 : S_TEXT/UTF8Codec ID/Info                            : UTF-8 Plain TextTitle                                    : SDHLanguage                                 : EnglishDefault                                  : NoForced                                   : No

Text #4ID                                       : 11Format                                   : UTF-8Codec ID                                 : S_TEXT/UTF8Codec ID/Info                            : UTF-8 Plain TextTitle                                    : SDH-ColoredLanguage                                 : EnglishDefault                                  : NoForced                                   : No

Menu00:00:00.000                             : en:(01)00:00:00:00000:07:25.528                             : en:(02)00:07:25:52800:13:00.028                             : en:(03)00:13:00:02800:22:24.759                             : en:(04)00:22:24:75900:30:12.101                             : en:(05)00:30:12:10100:36:20.302                             : en:(06)00:36:20:30200:42:31.422                             : en:(07)00:42:31:42200:48:45.547                             : en:(08)00:48:45:54700:55:37.708                             : en:(09)00:55:37:70801:01:30.268                             : en:(10)01:01:30:26801:12:07.573                             : en:(11)01:12:07:57301:21:14.786                             : en:(12)01:21:14:78601:30:10.654                             : en:(13)01:30:10:65401:36:43.337                             : en:(14)01:36:43:33701:47:47.627                             : en:(15)01:47:47:62701:56:15.760                             : en:(16)01:56:15:76002:11:31.216                             : en:(17)02:11:31:216

piratbit.ru

Скачать фильм Неудержимые 3 через торрент в хорошем качестве бесплатно BDRip-AVC

Раздают: 1 [ 0 KB/s ]
Размер: 1.46 GB | Добавлен: 2 года 11 мес. назад | Торрент скачан:2794 раза
Реклама Дарим 3000 рублей за регистрацию, не упусти свой шанс получить шикарный бонус!!!

23-11-2014 10:16 Неудержимые 3 Скачать торрент  

Неудержимые 3The Expendables 3

«Сборная Голливуда снова в игре»

Страна: США, ФранцияЖанр: боевик, триллер, приключенияГод выпуска: 2014Продолжительность: 02:11:31

Перевод: Профессиональный (полное дублирование) [Лицензия Blu-ray RUS] +Одноголосый (закадровый) [Д. Есарев] на расширенные эпизодыCубтитры: нетОригинальная аудиодорожка: нет

Режиссер:Патрик Хьюз / Patrick Hughes

В ролях:Сильвестр Сталлоне, Джейсон Стэйтем, Джет Ли, Антонио Бандерас, Уэсли Снайпс, Дольф Лундгрен, Мэл Гибсон, Харрисон Форд, Арнольд Шварценеггер,Келлан Латс, Терри Крюс, Сарай Гивати, Рэнди Кутюр, Ронда Раузи, Роберт Дави, Наталия Гуслистая, Виктор Ортис, Глен Пауэлл

Описание:Барни, Кристмас и остальные члены команды сходятся лицом к лицу с Конрадом Стоунбэнксом, многие годы назад основавшем вместе с Барни команду «Неудержимых». Впоследствии Стоунбэнкс становится безжалостным торговцем оружием и тем самым превращается в человека, которого Барни было поручено убить. Или по крайней мере он сам так считал. Теперь Стоунбэнкс, один раз уже сумевший обмануть смерть, поставил себе цель покончить с «Неудержимыми» — но у Барни на этот счет свои планы. Барни решает, что в его борьбе «свежий» подход можно противопоставить старым методам, и пополняет ряды людьми, которые моложе, быстрее и технически более подкованные. Так у членов команды «Неудержимых» начинается новая эра. Последняя миссия превращается в столкновение между представителями классической старой школы и экспертами в высоких технологиях.

Релиз:

Автор рипа: Stalker oK

Сэмпл: multi-up

Качество видео: BDRip-AVC [Blu-ray Remux HDCLUB]Формат видео: MKVВидео кодек: AVCАудио кодек: AACВидео: 1334 Кбит/сек, 912*380 (2,40:1), в 23,976 кадр/сек, AVCАудио: Russian, 255 Кбит/сек, 48,0 КГц, 6 канала(ов), AAC (LC)

ОбщееУникальный идентификатор : 234153786387850972671537594804361389735 (0xB02860FE40E95C69AFBC27B323AA66A7)Полное имя : G:\временные файлы\Неудержимые 3 The Expendables 3\Neuderzhimye.3.2014.BDRip-AVC.Dub.Unrated.1.45Gb...stalkerok.new-team.mkvФормат : MatroskaРазмер файла : 1,46 ГбайтПродолжительность : 2 ч. 11 м.Общий поток : 1591 Кбит/секНазвание фильма : The Expendables 3, 2014 (New-Team) (Rip by Stalker oK)Дата кодирования : UTC 2014-11-23 09:57:31Программа кодирования : mkvmerge v6.1.0 ('Old Devil') built on Mar 4 2013 09:10:42Библиотека кодирования : libebml v1.3.0 + libmatroska v1.4.0

ВидеоИдентификатор : 1Формат : AVCФормат/Информация : Advanced Video CodecПрофиль формата : [email protected]Параметр CABAC формата : ДаПараметр ReFrames формата : 12 кадрыИдентификатор кодека : V_MPEG4/ISO/AVCПродолжительность : 2 ч. 11 м.Номинальный битрейт : 1334 Кбит/секШирина : 912 пикс.Высота : 380 пикс.Соотношение сторон : 2,40:1Частота кадров : 23,976 кадр/секЦветовое пространство : YUVПодвыборка цветности : 4:2:0Битовая глубина : 8 битТип развёртки : ПрогрессивнаяБит/(Пиксели*Кадры) : 0.161Библиотека кодирования : x264 core 142 r2491kMod 24e4fedНастройки программы : cabac=1 / ref=12 / deblock=1:-3:-3 / analyse=0x3:0x133 / me=umh / subme=11 / psy=1 / fade_compensate=0.00 / psy_rd=1.00:0.10 / mixed_ref=1 / me_range=32 / chroma_me=1 / trellis=2 / 8x8dct=1 / cqm=0 / deadzone=21,11 / fast_pskip=0 / chroma_qp_offset=-3 / threads=12 / lookahead_threads=2 / sliced_threads=0 / nr=0 / decimate=0 / interlaced=0 / bluray_compat=0 / constrained_intra=0 / fgo=0 / bframes=14 / b_pyramid=2 / b_adapt=2 / b_bias=0 / direct=3 / weightb=1 / open_gop=0 / weightp=2 / keyint=240 / keyint_min=23 / scenecut=40 / intra_refresh=0 / rc_lookahead=60 / rc=2pass / mbtree=0 / bitrate=1334 / ratetol=1.0 / qcomp=0.70 / qpmin=0 / qpmax=69 / qpstep=4 / cplxblur=20.0 / qblur=0.5 / vbv_maxrate=50000 / vbv_bufsize=62500 / nal_hrd=none / filler=0 / ip_ratio=1.40 / pb_ratio=1.30 / aq=3:0.85

АудиоИдентификатор : 2Формат : AACФормат/Информация : Advanced Audio CodecПрофиль формата : LCИдентификатор кодека : A_AACПродолжительность : 2 ч. 11 м.Канал(ы) : 6 канала(ов)Расположение каналов : Front: L C R, Side: L R, LFEЧастота : 48,0 КГцМетод сжатия : С потерямиЗадержка видео : 9 мс.Язык : Russian

Меню00:00:00.000 : en:Chapter 100:07:25.528 : en:Chapter 200:13:00.028 : en:Chapter 300:22:24.759 : en:Chapter 400:30:12.101 : en:Chapter 500:36:20.302 : en:Chapter 600:42:31.422 : en:Chapter 700:48:45.547 : en:Chapter 800:55:37.708 : en:Chapter 901:01:30.268 : en:Chapter 1001:12:07.573 : en:Chapter 1101:21:14.786 : en:Chapter 1201:30:10.654 : en:Chapter 1301:36:43.337 : en:Chapter 1401:47:47.627 : en:Chapter 1501:56:15.760 : en:Chapter 1602:11:31.216 : en:Chapter 17

Скачать Неудержимые 3 через торрент http://i4.imageban.ru/out/2013/11/20/23afd37ba301cf29b16658cd2201c4ed.png Скачать фильм Неудержимые 3 через торрент бесплантно в хорошем качестве Описание:Барни, Кристмас и остальные члены команды сходятся лицом к лицу с Конрадом Стоунбэнксом, многие годы назад основавшем вместе с ... 2014-11-23 10:16 9.6 10 53

Loading...

Loading...

% Раздел Тема Автор DL S | L
Ultra HD (UHD: 2K, 4K, 8K) — видео сверхвысокой чёткости [ 31.34 GB ] Неудержимые 3 / The Expendables 3 [2014 UHD WEBRip 2160p] [Театральная версия/Theatrical Cut] DUB+AVO [] bober100 Скачать
Фильмы [HD 720p, 1080p] (Хороший звук DUB, MVO) [ 11.48 GB ] Неудержимые 3 / The Expendables 3 [2014 BDRip 1080p Dub ] Seedtank Скачать
Фильмы [HD 720p, 1080p] (Хороший звук DUB, MVO) [ 7.72 GB ] Неудержимые 3 / The Expendables 3 [2014 BDRip 720p] DUB 4xAVO _denis_100 Скачать
Фильмы (Blu-ray, BD-Remux, HDDVD) [ 41.53 GB ] Неудержимые 3 / The Expendables 3 [2014 Blu-Ray Remux DUB AVO] Neftannik Скачать
Фильмы 2014 [DVDrip, WEB-DLRip, HDrip] [ 1.46 GB ] Неудержимые 3 / The Expendables 3 [2014 HDRip-AVC] DUB [] От R.G. PiratFilms White Smoke Скачать
Фильмы 2014 [DVDrip, WEB-DLRip, HDrip] [ 747 MB ] Неудержимые 3 / The Expendables 3 [2014 BDRip-AVC] [UNRATED] Dub + Sub sokol_ok Скачать

Рекламный пират

23-10-2015 22:05 Неудержимые 3 Скачать торрент  

ну и где 6-ти канальный звук?

16-01-2017 17:07 Неудержимые 3 Скачать торрент  

Старики идут в бой

Дорогой пользователь! Огромная просьба, поблагодарите релизера, оцените раздачу и оставьте свои комментарий, если Вы скачали Неудержимые 3 через торрент бесплатно! Внесите свою лепту в развитие PiratBit!

Комментировать посты могут только пользователи прошедшие не сложную регистрацию

Неудержимые 3 через торрент Скачать бесплатно Неудержимые 3 Неудержимые 3 скачать торрент Неудержимые 3 смотреть онлайн Cкачать фильм Неудержимые 3 бесплатно Неудержимые 3 скачать торрент в хорошем качестве Неудержимые 3 смотреть онлайн бесплатно в хорошем качестве

Вы не можете начинать темыВы не можете отвечать на сообщенияВы не можете редактировать свои сообщенияВы не можете удалять свои сообщенияВы не можете голосовать в опросахВы не можете прикреплять файлы к сообщениямВы можете скачивать файлы

piratbit.ru

Скачать фильм Неудержимые 3 через торрент в хорошем качестве бесплатно 1080p

ОбщееУникальный идентификатор                 : 224729695282195527310948449611694914308 (0xA9115D6D9B0DBFF597E03A4E81E6BB04)Полное имя                               : E:\Неудержимые 3 (2014) BDRip 1080p.mkvФормат                                   : MatroskaВерсия формата                           : Version 4 / Version 2Размер файла                             : 11,5 ГбайтПродолжительность                        : 2 ч. 6 м.Общий поток                              : 13,0 Мбит/секДата кодирования                         : UTC 2014-11-22 00:05:25Программа кодирования                    : mkvmerge v6.9.1 ('Blue Panther') 64bit built on Apr 18 2014 18:23:38Библиотека кодирования                   : libebml v1.3.0 + libmatroska v1.4.1Attachements                             : cover.jpg

ВидеоИдентификатор                            : 1Формат                                   : AVCФормат/Информация                        : Advanced Video CodecПрофиль формата                          : [email protected]Параметр CABAC формата                   : ДаПараметр ReFrames формата                : 5 кадровИдентификатор кодека                     : V_MPEG4/ISO/AVCПродолжительность                        : 2 ч. 6 м.Битрейт                                  : 9712 Кбит/секШирина                                   : 1920 пикселейВысота                                   : 800 пикселейСоотношение сторон                       : 2,40:1Режим частоты кадров                     : ПостоянныйЧастота кадров                           : 23,976 кадра/секЦветовое пространство                    : YUVСубдискретизация насыщенности            : 4:2:0Битовая глубина                          : 8 битТип развёртки                            : ПрогрессивнаяБит/(Пиксели*Кадры)                      : 0.264Размер потока                            : 8,58 Гбайт (75%)Заголовок                                : HDAccessБиблиотека кодирования                   : x264 core 142 r2479kMod dd79a61Настройки программы                      : cabac=1 / ref=5 / deblock=1:-3:-3 / analyse=0x3:0x133 / me=umh / subme=11 / psy=1 / fade_compensate=0.00 / psy_rd=1.05:0.00 / mixed_ref=1 / me_range=48 / chroma_me=1 / trellis=2 / 8x8dct=1 / cqm=0 / deadzone=21,11 / fast_pskip=0 / chroma_qp_offset=-2 / threads=18 / lookahead_threads=3 / sliced_threads=0 / nr=0 / decimate=1 / interlaced=0 / bluray_compat=0 / constrained_intra=0 / fgo=0 / bframes=9 / b_pyramid=2 / b_adapt=2 / b_bias=0 / direct=3 / weightb=1 / open_gop=0 / weightp=2 / keyint=230 / keyint_min=23 / scenecut=40 / intra_refresh=0 / rc_lookahead=40 / rc=crf / mbtree=0 / crf=17.8000 / qcomp=0.70 / qpmin=0 / qpmax=69 / qpstep=4 / vbv_maxrate=50000 / vbv_bufsize=62500 / crf_max=0.0 / nal_hrd=none / filler=0 / ip_ratio=1.20 / pb_ratio=1.10 / aq=1:0.85Язык                                     : EnglishDefault                                  : ДаForced                                   : НетКоэффициенты матрицы                     : BT.709colour_range                             : Limited

Аудио #1Идентификатор                            : 2Формат                                   : DTSФормат/Информация                        : Digital Theater SystemsРежим                                    : 16Параметр Endianness формата              : BigИдентификатор кодека                     : A_DTSПродолжительность                        : 2 ч. 6 м.Вид битрейта                             : ПостоянныйБитрейт                                  : 1510 Кбит/секКаналы                                   : 6 каналовРасположение каналов                     : Front: L C R, Side: L R, LFEЧастота                                  : 48,0 КГцБитовая глубина                          : 24 битМетод сжатия                             : С потерямиЗадержка видео                           : 2 с. 50 мс.Размер потока                            : 1,33 Гбайт (12%)Язык                                     : RussianDefault                                  : ДаForced                                   : Нет

Аудио #2Идентификатор                            : 3Формат                                   : DTSФормат/Информация                        : Digital Theater SystemsРежим                                    : 16Параметр Endianness формата              : BigИдентификатор кодека                     : A_DTSПродолжительность                        : 2 ч. 6 м.Вид битрейта                             : ПостоянныйБитрейт                                  : 1510 Кбит/секКаналы                                   : 6 каналовРасположение каналов                     : Front: L C R, Side: L R, LFEЧастота                                  : 48,0 КГцБитовая глубина                          : 24 битМетод сжатия                             : С потерямиРазмер потока                            : 1,33 Гбайт (12%)Язык                                     : EnglishDefault                                  : НетForced                                   : Нет

ТекстИдентификатор                            : 4Формат                                   : UTF-8Идентификатор кодека                     : S_TEXT/UTF8Идентификатор кодека/Информация          : UTF-8 Plain TextЗаголовок                                : FullЯзык                                     : RussianDefault                                  : НетForced                                   : Нет

Меню00:00:00.000                             : en:00:00:00.00000:05:54.354                             : en:00:05:54.35400:12:41.561                             : en:00:12:41.56100:25:12.711                             : en:00:25:12.71100:33:22.801                             : en:00:33:22.80100:46:10.768                             : en:00:46:10.76800:58:49.926                             : en:00:58:49.92601:10:45.041                             : en:01:10:45.04101:15:44.140                             : en:01:15:44.14001:26:39.594                             : en:01:26:39.59401:51:11.064                             : en:01:51:11.06401:55:48.542                             : en:01:55:48.542

piratbit.ru

Скачать фильм Неудержимые 3 через торрент в хорошем качестве бесплатно HDRip-AVC

ОбщееУникальный идентификатор                 : 227159666095407667817933502666453913579 (0xAAE55C3D362C8C0988133BD47EE18FEB)Полное имя                               : D:\Торенты\Раздачи\The.Expendables.3.2014.HDRip-AVC.by.White Smoke.R.G.PiratFilms.mkvФормат                                   : MatroskaВерсия формата                           : Version 4 / Version 2Размер файла                             : 1,46 ГбайтПродолжительность                        : 2 ч. 6 м.Общий поток                              : 1656 Кбит/секНазвание фильма                          : От R.G. PiratFilms_White SmokeДата кодирования                         : UTC 2014-11-22 04:02:22Программа кодирования                    : mkvmerge v7.3.0 ('Nouages') 64bit built on Oct 22 2014 18:53:34Библиотека кодирования                   : libebml v1.3.0 + libmatroska v1.4.1DURATION                                 : 02:06:27.584000000NUMBER_OF_FRAMES                         : 237112NUMBER_OF_BYTES                          : 424904704_STATISTICS_WRITING_APP                  : mkvmerge v7.3.0 ('Nouages') 64bit built on Oct 22 2014 18:53:34_STATISTICS_WRITING_DATE_UTC             : 2014-11-22 04:02:22_STATISTICS_TAGS                         : BPS DURATION NUMBER_OF_FRAMES NUMBER_OF_BYTESAttachment                               : Yes

ВидеоИдентификатор                            : 1Формат                                   : AVCФормат/Информация                        : Advanced Video CodecПрофиль формата                          : [email protected]Параметр CABAC формата                   : ДаПараметр ReFrames формата                : 12 кадровИдентификатор кодека                     : V_MPEG4/ISO/AVCПродолжительность                        : 2 ч. 6 м.Битрейт                                  : 1206 Кбит/секШирина                                   : 1024 пикселяВысота                                   : 426 пикселейСоотношение сторон                       : 2,40:1Режим частоты кадров                     : ПостоянныйЧастота кадров                           : 23,976 кадра/секЦветовое пространство                    : YUVСубдискретизация насыщенности            : 4:2:0Битовая глубина                          : 8 битТип развёртки                            : ПрогрессивнаяБит/(Пиксели*Кадры)                      : 0.115Размер потока                            : 1,04 Гбайт (71%)Заголовок                                : От R.G. PiratFilms_White SmokeБиблиотека кодирования                   : x264 core 142 r2431 ac76440Настройки программы                      : cabac=1 / ref=12 / deblock=1:-3:-3 / analyse=0x3:0x113 / me=umh / subme=9 / psy=1 / psy_rd=1.00:0.00 / mixed_ref=1 / me_range=32 / chroma_me=1 / trellis=1 / 8x8dct=1 / cqm=0 / deadzone=21,11 / fast_pskip=1 / chroma_qp_offset=-2 / threads=12 / lookahead_threads=3 / sliced_threads=0 / nr=0 / decimate=1 / interlaced=0 / bluray_compat=0 / constrained_intra=0 / bframes=10 / b_pyramid=2 / b_adapt=2 / b_bias=10 / direct=1 / weightb=0 / open_gop=0 / weightp=2 / keyint=240 / keyint_min=23 / scenecut=40 / intra_refresh=0 / rc_lookahead=40 / rc=2pass / mbtree=1 / bitrate=1206 / ratetol=1.0 / qcomp=0.65 / qpmin=0 / qpmax=69 / qpstep=4 / cplxblur=20.0 / qblur=0.5 / ip_ratio=1.40 / aq=1:1.00Язык                                     : RussianDefault                                  : ДаForced                                   : НетDURATION                                 : 02:06:27.622000000NUMBER_OF_FRAMES                         : 181921NUMBER_OF_BYTES                          : 1143670633_STATISTICS_WRITING_APP                  : mkvmerge v7.3.0 ('Nouages') 64bit built on Oct 22 2014 18:53:34_STATISTICS_WRITING_DATE_UTC             : 2014-11-22 04:02:22_STATISTICS_TAGS                         : BPS DURATION NUMBER_OF_FRAMES NUMBER_OF_BYTES

АудиоИдентификатор                            : 2Формат                                   : AC-3Формат/Информация                        : Audio Coding 3Расширение режима                        : CM (complete main)Параметр Endianness формата              : BigИдентификатор кодека                     : A_AC3Продолжительность                        : 2 ч. 6 м.Вид битрейта                             : ПостоянныйБитрейт                                  : 448 Кбит/секКаналы                                   : 6 каналовРасположение каналов                     : Front: L C R, Side: L R, LFEЧастота                                  : 48,0 КГцБитовая глубина                          : 16 битМетод сжатия                             : С потерямиРазмер потока                            : 405 Мбайт (27%)Заголовок                                : Дубляж-ЛИЦЕНЗИЯЯзык                                     : RussianDefault                                  : ДаForced                                   : Да

piratbit.ru

Фильм Неудержимые 3 (2014) скачать торрент в хорошем качестве HDRip

Название: Неудержимые 3 Оригинальное название: The Expendables 3 Год выхода: 2014 Жанр: боевик, триллер, приключения Режиссер: Патрик Хьюз / Patrick Hughes В ролях: Сильвестр Сталлоне (Barney Ross), Джейсон Стэйтем (Lee Christmas), Мэл Гибсон (Stonebanks), Харрисон Форд (Drummer), Антонио Бандерас (Galgo), Уэсли Снайпс (Doc), Дольф Лундгрен (Gunner Jensen), Терри Крюс (Caesar), Арнольд Шварценеггер (Trench), Рэнди Кутюр (Toll Road), Келси Грэммер (Bonaparte), Джет Ли (Yin Yang)

Отлично поставленные боевики франшизы «Неудержимые» доказали, что слова «старая школа», применительны к фильмам этого жанра, могут служить своего рода знаком качества. Поскольку фильмы показали весьма достойные кассовые сборы, то вопрос выхода третьей части был всего лишь вопросом времени. Итак, встречайте старую команду в экшене «Неудержимые 3»! На этот рад Барни, Кристмасу и остальным парням из их уважаемой организации придется сойтись в поединке со старым недругом – Конрадом Старбэнксом. Когда-то именно он вместе с Барни основал команду Неудержимых. Но затем у партнеров возникли серьезные разногласия. Конрад выбрал иную сферу деятельности – торговлю оружием. И однажды Барни поступил на него «заказ». Что ж, нашему герою пришлось его выполнить. Но со временем выяснилось, что Конрад сумел обмануть всех и теперь он жаждет отомстить бывшему другу и партнеру.Тем временем, Барни готовится ему противостоять. Он понимает, что старыми методами он победить не сможет. Ему нужны более молодые специалисты, более быстрые, более агрессивные, лучше подготовленные в техническом плане. Так что команда Барни пополнится новыми людьми. И третья часть франшизы станет полем битвы между представителями старой и новой школы. Что ж, зрители в любом случае в «накладе» не останутся. Нас ждет поистине незабываемое зрелище – со множеством прекрасно поставленных боевых сцен, драк, перестрелок и погонь в лучших традициях 1990-х!

Страна: США, Франция, Болгария Студия: Nu-Image Films, Lionsgate, Millennium Films.... Продолжительность: 02:11:31 Перевод: Дубляж [Blu-ray RUS]

Кодек: XviD Качество: HDRip Видео: 656x272 (2.41:1), 23.976 fps, XviD build 73 ~659 kbps avg, 0.15 bit/pixel Звук: 48 kHz, MPEG Layer 3, 2 ch, ~128.00 kbps avg

Поиск торрент раздач, пожалуйста подождите!

Информация о торрент файле

Скачать торрент Торрент: Зарегистрирован Статус: v Проверено Просмотров: 1 371 Категория: боевики Общий размер: 749.50 MB

Поделитесь ссылкой на наш сайт с друзьями в соц.сетях ↓

mega-torrent.co

Фильм Неудержимые 3 (2014) скачать торрент в хорошем качестве BDRip-AVC бесплатно

Название: Неудержимые 3 Оригинальное название: The Expendables 3 Год выхода: 2014 Жанр: боевик, триллер, приключения Режиссер: Патрик Хьюз / Patrick Hughes В ролях: Сильвестр Сталлоне (Barney Ross), Джейсон Стэйтем (Lee Christmas), Мэл Гибсон (Stonebanks), Харрисон Форд (Drummer), Антонио Бандерас (Galgo), Уэсли Снайпс (Doc), Дольф Лундгрен (Gunner Jensen), Терри Крюс (Caesar), Арнольд Шварценеггер (Trench), Рэнди Кутюр (Toll Road), Келси Грэммер (Bonaparte), Джет Ли (Yin Yang)

Отлично поставленные боевики франшизы «Неудержимые» доказали, что слова «старая школа», применительны к фильмам этого жанра, могут служить своего рода знаком качества. Поскольку фильмы показали весьма достойные кассовые сборы, то вопрос выхода третьей части был всего лишь вопросом времени. Итак, встречайте старую команду в экшене «Неудержимые 3»! На этот рад Барни, Кристмасу и остальным парням из их уважаемой организации придется сойтись в поединке со старым недругом – Конрадом Старбэнксом. Когда-то именно он вместе с Барни основал команду Неудержимых. Но затем у партнеров возникли серьезные разногласия. Конрад выбрал иную сферу деятельности – торговлю оружием. И однажды Барни поступил на него «заказ». Что ж, нашему герою пришлось его выполнить. Но со временем выяснилось, что Конрад сумел обмануть всех и теперь он жаждет отомстить бывшему другу и партнеру.Тем временем, Барни готовится ему противостоять. Он понимает, что старыми методами он победить не сможет. Ему нужны более молодые специалисты, более быстрые, более агрессивные, лучше подготовленные в техническом плане. Так что команда Барни пополнится новыми людьми. И третья часть франшизы станет полем битвы между представителями старой и новой школы. Что ж, зрители в любом случае в «накладе» не останутся. Нас ждет поистине незабываемое зрелище – со множеством прекрасно поставленных боевых сцен, драк, перестрелок и погонь в лучших традициях 1990-х!

Страна: США, Франция, Болгария Студия: Nu-Image Films, Lionsgate, Millennium Films.... Продолжительность: 02:11:31 Перевод: Профессиональный (дублированный) [Blu-ray Rus] Одноголосый (закадровый) [Д. Есарев] на расширенные эпизоды Субтитры: Английские

Качество видео: BDRip-AVC Формат видео: MKV Видео: 1152x480 (2.40:1), 23.976 fps, 2304 Кbps, 0.174 bit/pixe Аудио: 48 kHz, AC3 Dolby Digital, 3/2 (L,C,R,l,r) + LFE ch, 448.00 kbps | DUB Аудио 2: 48 kHz, AC3 Dolby Digital, 3/2 (L,C,R,l,r) + LFE ch, 448.00 kbps | ENG Формат субтитров: softsub (SRT) Доп. информация о субтитрах: отключаемые

Поиск торрент раздач, пожалуйста подождите!

Информация о торрент файле

Скачать торрент Торрент: Зарегистрирован Статус: v Проверено Просмотров: 1 450 Категория: боевики Общий размер: 2.94 GB

Поделитесь ссылкой на наш сайт с друзьями в соц.сетях ↓

mega-torrent.co


Смотрите также