Скачать через торрент на 50 оттенков темнее в хорошем качестве


2017 hd 720, 1080

!

: : Fifty Shades Darker : 2017: , : : , , , , , , , , ,

IMDB: 4.6/10 (45 168 ) : 5.1/10 (28 815 )

:, , .

: : 1 58 : [iTunes]

: AVI (XviD): WEB-DLRip

644

579

udp://shubt.net:2710

31 13 67

http://tracker.filetracker.pl:8089/announce

15 27 53

http://tracker2.wasabii.com.tw:6969/announce

51 66 12

http://tracker.grepler.com:6969/announce

12 32 36

http://80.246.243.18:6969/announce

26 55 86

http://125.227.35.196:6969/announce

54 97 70

http://tracker.tiny-vps.com:6969/announce

56 37 66

http://87.248.186.252:8080/announce

1 59 36

http://www.torrentheaven.de/announce.php

42 86 44

http://tracker.mp3-es.com/announce.php

91 19 96

http://tracker.calculate.ru:6969/announce

98 42 54

http://210.244.71.25:6969/announce

76 5 500

http://46.4.109.148:6969/announce

72 10 44

http://tracker.dler.org:6969/announce

19 31 53

2,05 Gb

8349

Fifty.Shades.Darker.2o17.D.WEB-DLRip.21OOMB.avi (2,05 Gb)

726

683

udp://shubt.net:2710

54 75 32

udp://tracker.openbittorrent.com:80/announce

49 46 97

udp://tracker.publicbt.com:80/announce

48 34 13

http://tracker.filetracker.pl:8089/announce

98 23 48

http://tracker2.wasabii.com.tw:6969/announce

57 66 49

http://tracker.grepler.com:6969/announce

33 10 21

http://80.246.243.18:6969/announce

49 99 32

http://125.227.35.196:6969/announce

83 36 91

http://tracker.tiny-vps.com:6969/announce

14 39 36

http://87.248.186.252:8080/announce

1 1 45

http://www.torrentheaven.de/announce.php

35 88 98

http://tracker.mp3-es.com/announce.php

12 80 36

http://tracker.calculate.ru:6969/announce

12 10 66

http://210.244.71.25:6969/announce

40 7 33

http://46.4.109.148:6969/announce

81 11 47

http://tracker.dler.org:6969/announce

60 58 42

3,83 Gb

625

Fifty.Shades.Darker.2017.WEB-DL.720p.ExKinoRay.mkv (3,83 Gb)

937

735

udp://shubt.net:2710

74 57 46

http://tracker.filetracker.pl:8089/announce

89 90 31

http://tracker2.wasabii.com.tw:6969/announce

21 57 42

http://tracker.grepler.com:6969/announce

97 56 90

http://80.246.243.18:6969/announce

73 25 70

http://125.227.35.196:6969/announce

100 96 26

http://tracker.tiny-vps.com:6969/announce

92 16 78

http://87.248.186.252:8080/announce

26 69 75

http://www.torrentheaven.de/announce.php

60 54 34

http://tracker.mp3-es.com/announce.php

32 69 58

http://tracker.calculate.ru:6969/announce

24 33 15

http://210.244.71.25:6969/announce

157 4 806

http://46.4.109.148:6969/announce

36 83 71

http://tracker.dler.org:6969/announce

56 26 81

4,06 Gb

572

Fifty.Shades.Darker.2o17.D.WEB-DL.1O8OP.mkv (4,06 Gb)

vtorrents.net

На пятьдесят оттенков темнее через торрент

Размер: 1.46 GB | Добавлен: 8 мес. назад | Торрент скачан:493 раза
Реклама Дарим 3000 рублей за регистрацию, не упусти свой шанс получить шикарный бонус!!!

10-02-2017 11:11 На пятьдесят оттенков темнее Скачать торрент  

На пятьдесят оттенков темнее / Fifty Shades Darker ««Мир роскоши и соблазна ждёт вас»» ИНФОРМАЦИЯ: Год выпуска:2017 Страна: США Жанр: драма, мелодрама Продолжительность: 01:51:34 Перевод: Дубляж Режиссер: Джеймс ФоулиВ Ролях: Дакота Джонсон (Anastasia Steele), Джейми Дорнан (Christian Grey), Эрик Джонсон (Jack Hyde), Элоиза Мамфорд (Kate Kavanagh), Белла Хиткот (Leila), Рита Ора (Mia Grey), Люк Граймс (Elliot Grey), Виктор Расук (Jose), Макс Мартини (Taylor), Брюс Олтмен (Jerry Roach), Ким Бейсингер (Elena Lincoln), Марша Гей Харден (Grace Trevelyan Grey) ОПИСАНИЕ:Пока Кристиан Грей борется со своими внутренними демонами, Анастейша Стил вынуждена противостоять гневу и зависти тех женщин, что были с Кристианом до нее.
  • Мировая премьера:7 февраля 2017 ТЕХ.ДАННЫЕ: Качество: CamRip Формат: AVI Видео: XviD, 1665 Кбит/с, 720x352, 23,976 fps Аудио: AC3, 2 ch, 192 Кбит/с / 48 kHz Скриншоты: © Оформление by .::Ворон::.
  • Скачать На пятьдесят оттенков темнее через торрент http://i78.fastpic.ru/big/2016/1016/3b/34257206540db9113cb82c716771e13b.png Скачать фильм На пятьдесят оттенков темнее через торрент бесплантно в хорошем качестве Е:Пока Кристиан Грей борется со своими внутренними демонами, Анастейша Стил вынуждена противостоять гневу и зависти тех женщин, что были с ... 2017-02-10 11:11 9 10 24

    Loading...

    Loading...

    % Раздел Тема Автор DL S | L
    Фильмы [HD 720p, 1080p] (Хороший звук DUB, MVO) [ 11.9 GB ] На пятьдесят оттенков темнее / Fifty Shades Darker [2017 BDRip 1080p] [Расширенная версия] - [] -Lexx- Скачать
    Фильмы [HD 720p, 1080p] (Хороший звук DUB, MVO) [ 6.11 GB ] На пятьдесят оттенков темнее / Fifty Shades Darker [2017 BDRip 720p] [Расширенная версия] - [] -Lexx- Скачать
    Фильмы 2017 [DVDrip, WEB-DLRip, HDrip] (DUB, MVO) [ 2.26 GB ] На пятьдесят оттенков темнее / Fifty Shades Darker [2017 BDRip-AVC - ] Расширенная версия - ExKinoRay Enigma2010 Скачать
    Фильмы 2017 [DVDrip, WEB-DLRip, HDrip] (DUB, MVO) [ 2.13 GB ] На пятьдесят оттенков темнее / Fifty Shades Darker [2017 BDRip] - Twi7ter Скачать
    Фильмы 2017 [DVDrip, WEB-DLRip, HDrip] (DUB, MVO) [ 1.46 GB ] На пятьдесят оттенков темнее / Fifty Shades Darker [2017 BDRip] - [] Twi7ter Скачать
    Фильмы (WEB-DL 720p, 1080p) [ 4.06 GB ] На пятьдесят оттенков темнее / Fifty Shades Darker [2017 WEB-DL 1080p] - Ворон Скачать
    Фильмы 2017 [DVDrip, WEB-DLRip, HDrip] (DUB, MVO) [ 2.18 GB ] На пятьдесят оттенков темнее / Fifty Shades Darker [2017 WEB-DLRip ""] [Театральная версия] coc900 Скачать

    Рекламный пират

    16-02-2017 17:51 На пятьдесят оттенков темнее Скачать торрент  

    поставил +10 из уважения к труду автора раздачи, а так на любителя

    18-02-2017 12:10 На пятьдесят оттенков темнее Скачать торрент  

    Нет информации когда в BD будет?

    Дорогой пользователь! Огромная просьба, поблагодарите релизера, оцените раздачу и оставьте свои комментарий, если Вы скачали На пятьдесят оттенков темнее через торрент бесплатно! Внесите свою лепту в развитие PiratBit!

    Комментировать посты могут только пользователи прошедшие не сложную регистрацию

    На пятьдесят оттенков темнее через торрент Скачать бесплатно На пятьдесят оттенков темнее На пятьдесят оттенков темнее скачать торрент На пятьдесят оттенков темнее смотреть онлайн Cкачать фильм На пятьдесят оттенков темнее бесплатно На пятьдесят оттенков темнее скачать торрент в хорошем качестве На пятьдесят оттенков темнее смотреть онлайн бесплатно в хорошем качестве

    Вы можете начинать темыВы можете отвечать на сообщенияВы не можете редактировать свои сообщенияВы не можете удалять свои сообщенияВы не можете голосовать в опросахВы не можете прикреплять файлы к сообщениямВы можете скачивать файлы

    piratbit.ru

    На пятьдесят оттенков темнее через торрент

    Раздают: 2 [ 0 KB/s ]
    Размер: 11.9 GB | Добавлен: 4 мес. 30 д. назад | Торрент скачан:90 раз
    Реклама Дарим 3000 рублей за регистрацию, не упусти свой шанс получить шикарный бонус!!!

    27-05-2017 08:49 На пятьдесят оттенков темнее Скачать торрент  

    На пятьдесят оттенков темнее / Fifty Shades DarkerРасширенная версия««Мир роскоши и соблазна ждёт вас»» Год выпуска: 2017Страна: СШАЖанр: драма, мелодрама

    Продолжительность: 02:11:28Перевод: Дубляж - [Лицензия]

    Режиссер: Джеймс ФоулиВ ролях: Дакота Джонсон (Anastasia Steele), Джейми Дорнан (Christian Grey), Эрик Джонсон (Jack Hyde), Элоиза Мамфорд (Kate Kavanagh), Белла Хиткот (Leila), Рита Ора (Mia Grey), Люк Граймс (Elliot Grey), Виктор Расук (Jose), Макс Мартини (Taylor), Брюс Олтмен (Jerry Roach), Ким Бейсингер (Elena Lincoln), Марша Гей Харден (Grace Trevelyan Grey)Описание: Пока Кристиан Грей борется со своими внутренними демонами, Анастейша Стил вынуждена противостоять гневу и зависти тех женщин, что были с Кристианом до нее.Рейтинг: MPAA: R - Лицам до 17 лет обязательно присутствие взрослогоКачество: BDRip 1080pФормат: MKVВидео: AVC, 1920x800 (2.40:1), 11000 kbps, 23,976 fps, 0,299 bppАудио №1: русский / AC3 / 5.1 / 48 kHz / 448 kbps / |Дубляж| Аудио №2: английский / DTS / 5.1 / 48 kHz / 1509 kbps / 24 bitНавигация по главам: естьРелиз от: GeneralUnique ID : 213500188193652047582196032312607071861 (0xA09EA3FB92A3C9B383F1311BE6295E75)Complete name : E:\Fifty.Shades.Darker.2017.UNRATED.Lic.BDRip.1080p.ExKinoRay.mkvFormat : MatroskaFormat version : Version 4 / Version 2File size : 11.9 GiBDuration : 2 h 11 minOverall bit rate : 13.0 Mb/sEncoded date : UTC 2017-05-26 10:47:08Writing application : mkvmerge v12.0.0 ('Trust / Lust') 64bitWriting library : libebml v1.3.4 + libmatroska v1.4.5

    VideoID : 1Format : AVCFormat/Info : Advanced Video CodecFormat profile : [email protected] settings, CABAC : YesFormat settings, ReFrames : 5 framesCodec ID : V_MPEG4/ISO/AVCDuration : 2 h 11 minBit rate : 11.0 Mb/sWidth : 1 920 pixelsHeight : 800 pixelsDisplay aspect ratio : 2.40:1Frame rate mode : ConstantFrame rate : 23.976 (24000/1001) FPSColor space : YUVChroma subsampling : 4:2:0Bit depth : 8 bitsScan type : ProgressiveBits/(Pixel*Frame) : 0.299Stream size : 9.87 GiB (83%)Writing library : x264 core 148 r2665kMod a01e339Encoding settings : cabac=1 / ref=5 / deblock=1:-3:-3 / analyse=0x3:0x133 / me=umh / subme=11 / psy=1 / fade_compensate=0.00 / psy_rd=0.85:0.00 / mixed_ref=1 / me_range=48 / chroma_me=1 / trellis=2 / 8x8dct=1 / cqm=0 / deadzone=21,11 / fast_pskip=0 / chroma_qp_offset=-2 / threads=24 / lookahead_threads=4 / sliced_threads=0 / nr=0 / decimate=0 / interlaced=0 / bluray_compat=0 / constrained_intra=0 / fgo=0 / bframes=8 / b_pyramid=2 / b_adapt=2 / b_bias=0 / direct=3 / weightb=1 / open_gop=0 / weightp=2 / keyint=240 / keyint_min=24 / scenecut=40 / intra_refresh=0 / rc=2pass / mbtree=0 / bitrate=11000 / ratetol=1.0 / qcomp=0.70 / qpmin=0 / qpmax=69 / qpstep=4 / cplxblur=20.0 / qblur=0.5 / ip_ratio=1.20 / pb_ratio=1.20 / aq=3:0.80Language : EnglishDefault : YesForced : No

    Audio #1ID : 2Format : AC-3Format/Info : Audio Coding 3Mode extension : CM (complete main)Format settings, Endianness : BigCodec ID : A_AC3Duration : 2 h 11 minBit rate mode : ConstantBit rate : 448 kb/sChannel(s) : 6 channelsChannel positions : Front: L C R, Side: L R, LFESampling rate : 48.0 kHzFrame rate : 31.250 FPS (1536 spf)Compression mode : LossyStream size : 421 MiB (3%)Title : Dub [License]Language : RussianDefault : YesForced : No

    Audio #2ID : 3Format : DTSFormat/Info : Digital Theater SystemsMode : 16Format settings, Endianness : BigCodec ID : A_DTSDuration : 2 h 11 minBit rate mode : ConstantBit rate : 1 509 kb/sChannel(s) : 6 channelsChannel positions : Front: L C R, Side: L R, LFESampling rate : 48.0 kHzFrame rate : 93.750 FPS (512 spf)Bit depth : 24 bitsCompression mode : LossyStream size : 1.39 GiB (12%)Title : OriginalLanguage : EnglishDefault : NoForced : No

    Menu00:00:00.000 : en:00:00:00.00000:05:47.722 : en:00:05:47.72200:13:14.460 : en:00:13:14.46000:18:18.055 : en:00:18:18.05500:24:45.359 : en:00:24:45.35900:29:19.675 : en:00:29:19.67500:37:25.201 : en:00:37:25.20100:44:31.794 : en:00:44:31.79400:50:22.394 : en:00:50:22.39400:57:58.058 : en:00:57:58.05801:06:01.958 : en:01:06:01.95801:11:54.936 : en:01:11:54.93601:24:49.876 : en:01:24:49.87601:30:39.851 : en:01:30:39.85101:35:40.651 : en:01:35:40.65101:41:00.221 : en:01:41:00.22101:48:53.735 : en:01:48:53.73501:55:57.701 : en:01:55:57.70102:01:38.374 : en:02:01:38.37402:05:32.149 : en:02:05:32.149

    Скачать На пятьдесят оттенков темнее через торрент http://i6.imageban.ru/out/2017/05/27/bbd2585bf5e41fd7ed763aa31b46c0d4.jpg Скачать фильм На пятьдесят оттенков темнее через торрент бесплантно в хорошем качестве Описание: Пока Кристиан Грей борется со своими внутренними демонами, Анастейша Стил вынуждена противостоять гневу и зависти тех женщин, что ... 2017-05-27 08:49 10 10 4

    Loading...

    Loading...

    % Раздел Тема Автор DL S | L
    Фильмы (Blu-ray, BD-Remux, HDDVD) [ 43.22 GB ] На пятьдесят оттенков темнее / Fifty Shades Darker [2017 Blu-ray CEE 1080p] DUB [Театральная/расширенная версия] [] bober100 Скачать
    Фильмы (Blu-ray, BD-Remux, HDDVD) [ 24.87 GB ] На пятьдесят оттенков темнее / Fifty Shades Darker [2017 BD Remux 1080p] DUB [Театральная версия] [] bober100 Скачать
    Фильмы без перевода [ 29.8 GB ] На пятьдесят оттенков темнее / Fifty Shades Darker [2017 BD Remux] [Оригинал-ENG] smaster Скачать
    Фильмы (Blu-ray, BD-Remux, HDDVD) [ 30.19 GB ] На пятьдесят оттенков темнее / Fifty Shades Darker [2017 BDRemux 1080p от ExKinoRay] Расширенная версия / Russian Mafia Скачать
    Фильмы [HD 720p, 1080p] (Хороший звук DUB, MVO) [ 7.75 GB ] На пятьдесят оттенков темнее / Fifty Shades Darker [2017 BDRip 1080p от еnvy / NNNB] DUB / Unrated / еnvy Скачать
    Фильмы [HD 720p, 1080p] (Хороший звук DUB, MVO) [ 6.11 GB ] На пятьдесят оттенков темнее / Fifty Shades Darker [2017 BDRip 720p] [Расширенная версия] - [] -Lexx- Скачать
    Фильмы 2017 [DVDrip, WEB-DLRip, HDrip] (DUB, MVO) [ 2.19 GB ] На пятьдесят оттенков темнее / Fifty Shades Darker [2017 BDRip-AVC] [Театральная версия] DUB [ BD CEE] bober100 Скачать

    Рекламный пират

    АлександрВескер

    28-05-2017 11:08 На пятьдесят оттенков темнее Скачать торрент  

    все переведено? и расширенные?
    K-Lexx- писал(а):

    UNRATED - расширенная версия длиннее театральной на ~14 минут (более развернутые эротические сцены). Полный лицензионный перевод!

    АлександрВескер

    29-05-2017 08:01 На пятьдесят оттенков темнее Скачать торрент  

    не я че спрашваю.на руторге тоже расширенная и все такое.а перевода нет на расширенные.держи золото
    K-Lexx- писал(а):

    Спасибо за золото!

    АлександрВескер

    30-05-2017 13:13 На пятьдесят оттенков темнее Скачать торрент  

    не за что а не в курсах тоже самое тока 1920х1080 будет?

    31-05-2017 08:33 На пятьдесят оттенков темнее Скачать торрент  

    ДимаШухов, вопрос немного некорректный, смотря что вы имеете ввиду под 1920х1080. Если Blu-ray или BDRemux с разрешением 1920х1080, - BDRemux у нас на трекере есть:На пятьдесят оттенков темнее / Fifty Shades Darker (Джеймс Фоули) [2017, Драма, мелодрама, BDRemux 1080p от ExKinoRay] Расширенная версия | ЛицензияЕсли вы спрашиваете о рипе этого фильма с разрешением 1920х1080 - такого рипа у нас не будет. Дело в том, что фильм снимался с соотношением сторон 2.40:1, и если переделывать его под 16:9, придется обрезать картинку слева и справа, чтобы избежать искажения. Такие рипы у нас на трекере запрещены, да и смысла их делать нет. Если хотите смотреть фильм без черных полос сверху и снизу, просто правильно настройте ваш плеер.

    Последний раз редактировалось: -Lexx- (2017-06-01 14:46), всего редактировалось 1 раз

    АлександрВескер

    01-06-2017 07:55 На пятьдесят оттенков темнее Скачать торрент  

    -Lexx- писал(а):

    ДимаШухов, вопрос немного некорректный, смотря что вы имеете ввиду под 1920х1080. Если Blu-ray или BDRemux с разрешением 1920х1080, - BDRemux у нас на трекере есть:На пятьдесят оттенков темнее / Fifty Shades Darker (Джеймс Фоули) [2017, Драма, мелодрама, BDRemux 1080p от ExKinoRay] Расширенная версия | ЛицензияЕсли вы спрашиваете о рипе этого фильма с разрешением 1920х1080 - такого рипа у нас не будет. Дело в том, что фильм снимался с соотношением сторон 2.40:1, и если переделывать его под 16:9, придется обрезать картинку слева и справа, чтобы избежать искажения. Такие рипы у нас на трекере запрещены, да и смысла их делать нет. Если хотите смотреть фильм без черных полос сверху и снизу, просто правильно настройте ваш плеер.мм всегда везде были на трекерах не только ремуксы но и обычные фильмы 1920х1080.и не нужно было ни чего настраивать

    01-06-2017 14:51 На пятьдесят оттенков темнее Скачать торрент  

    ДимаШухов, повторюсь, такие рипы у нас на трекере запрещены Правилами:Если найдете где-то рип этого фильма с разрешением 1920х1080, сравните скриншоты и убедитесь сами, насколько будет обрезана картинка по бокам (слева и справа).

    Дорогой пользователь! Огромная просьба, поблагодарите релизера, оцените раздачу и оставьте свои комментарий, если Вы скачали На пятьдесят оттенков темнее через торрент бесплатно! Внесите свою лепту в развитие PiratBit!

    Комментировать посты могут только пользователи прошедшие не сложную регистрацию

    На пятьдесят оттенков темнее через торрент Скачать бесплатно На пятьдесят оттенков темнее На пятьдесят оттенков темнее скачать торрент На пятьдесят оттенков темнее смотреть онлайн Cкачать фильм На пятьдесят оттенков темнее бесплатно На пятьдесят оттенков темнее скачать торрент в хорошем качестве На пятьдесят оттенков темнее смотреть онлайн бесплатно в хорошем качестве

    Вы не можете начинать темыВы не можете отвечать на сообщенияВы не можете редактировать свои сообщенияВы не можете удалять свои сообщенияВы не можете голосовать в опросахВы не можете прикреплять файлы к сообщениямВы можете скачивать файлы

    piratbit.ru

    На пятьдесят оттенков темнее через торрент

    GeneralUnique ID : 249493065126767298596649026526293498645 (0xBBB29DD33C7BCD2482C0FC0287979B15)Complete name : W:\Торенты\Fifty.Shades.Darker.2o17.D.WEB-DL.1O8OP.mkvFormat : MatroskaFormat version : Version 2File size : 4.06 GiBDuration : 1 h 57 minOverall bit rate : 4 939 kb/sEncoded date : UTC 2017-04-05 18:11:44Writing application : mkvmerge v8.3.0 ('Over the Horizon') 64bitWriting library : libebml v1.3.1 + libmatroska v1.4.2

    VideoID : 1Format : AVCFormat/Info : Advanced Video CodecFormat profile : [email protected] settings, CABAC : YesFormat settings, ReFrames : 5 framesCodec ID : V_MPEG4/ISO/AVCDuration : 1 h 57 minBit rate : 4 554 kb/sWidth : 1 916 pixelsHeight : 796 pixelsDisplay aspect ratio : 2.40:1Frame rate mode : ConstantFrame rate : 23.976 (23976/1000) FPSColor space : YUVChroma subsampling : 4:2:0Bit depth : 8 bitsScan type : ProgressiveBits/(Pixel*Frame) : 0.125Stream size : 3.75 GiB (92%)Language : EnglishDefault : YesForced : NoColor range : LimitedColor primaries : BT.709Transfer characteristics : BT.709Matrix coefficients : BT.709

    AudioID : 2Format : AC-3Format/Info : Audio Coding 3Mode extension : CM (complete main)Format settings, Endianness : BigCodec ID : A_AC3Duration : 1 h 57 minBit rate mode : ConstantBit rate : 384 kb/sChannel(s) : 6 channelsChannel positions : Front: L C R, Side: L R, LFESampling rate : 48.0 kHzFrame rate : 31.250 FPS (1536 spf)Compression mode : LossyStream size : 324 MiB (8%)Language : RussianDefault : YesForced : No

    Menu00:00:00.000 : en:100:05:15.482 : en:200:11:30.273 : en:300:16:09.593 : en:400:22:36.896 : en:500:26:52.359 : en:600:34:57.886 : en:700:42:04.479 : en:800:47:55.079 : en:900:55:30.742 : en:1001:03:23.297 : en:1101:09:16.274 : en:1201:16:04.140 : en:1301:21:54.114 : en:1401:26:54.914 : en:1501:32:14.483 : en:1601:37:46.439 : en:1701:42:42.067 : en:1801:47:58.967 : en:1901:51:52.700 : en:20

    piratbit.ru


    Смотрите также