Скачать через торрент бесплатно равные в хорошем качестве


Скачать фильм Равные через торрент в хорошем качестве бесплатно 1080p

piratbit.ru

Размер: 3.91 GB | Добавлен: 1 год 2 мес. назад | Торрент скачан:208 раз
Реклама Дарим 3000 рублей за регистрацию, не упусти свой шанс получить шикарный бонус!!!

14-08-2016 10:40 Равные Скачать торрент  

Равные / Equals

Год выпуска: 2015Страна: СШАЖанр: фантастика, драма, мелодрамаПродолжительность: 01:41:54Перевод: Дубляж [iTunes]Субтитры: Английские

Режиссер: Дрейк ДоримусПродюссер: Чип Диггинс, Майкл А. Прусс, Энн РуркСценарий: Нэйтан Паркер, Дрейк Доримус

Премьера в мире: 5 сентября 2015

В ролях: Николас Холт, Кристен Стюарт, Гай Пирс, Джеки Уивер, Тоби Хасс, Дэвид Селби, Кейт Лин Шейл, Ребекка Хэзлвуд, Тео Ю, Аврора Периньо

Описание: Фильм «Равные» рассказывает историю Сайласа, который живет в будущем, в обществе, названном «Коллектив». Жители этого современного мира - новое поколение людей, называемое «Равными». Равные - это мирные, спокойные, вежливые и справедливые люди, и жизнь в «Коллективе» идеальна. В нем не существует ни бедности, ни жадности, ни насилия, ни эмоций... Но над обществом нависает новая угроза: заболевание «SOS» или «Синдром Общественной Сознательности», жертвы которого подвергаются всему, чего, как они думали, избежали: депрессия, уязвимость, страх, любовь. Если правительство обнаружит человека, зараженного «SOS», его сразу же заберут в Нору, после чего этого человека уже никто и никогда не увидит.Когда главный герой обнаруживает, что он тоже заражен, он становится изгоем, но замечает одного человека, который, как ему кажется, понимает через что ему приходится проходить. В это время правительство заявляет о том, что лекарство от болезни «включенных эмоций» было найдено, и главные герои вынуждены искать способ выжить.

Качество: WEB-DL 1080pФормат: MKVВидео: AVC, 4616 Кбит/с, 1920x1032, 23,976 fpsАудио 1: русский, AC3, 6 ch, 384 Кбит/с, 48,0 КГц - Дубляж [iTunes]Аудио 2: английский, AC3, 6 ch, 384 Кбит/с, 48,0 КГц

ОбщееУникальный идентификатор : 190872844975935131463380144059694205063 (0x8F98C5D451351CEB8E8A4E4862484887)Полное имя : E:\Equals.2015.D.1080p.WEB-DL.mkvФормат : MatroskaВерсия формата : Version 2Размер файла : 3,91 ГбайтПродолжительность : 1 ч. 41 м.Общий поток : 5493 Кбит/секДата кодирования : UTC 2016-08-24 18:04:20Программа кодирования : mkvmerge v7.8.0 ('River Man') 32bit built on Apr 3 2015 12:11:22Библиотека кодирования : libebml v1.3.1 + libmatroska v1.4.2

ВидеоИдентификатор : 1Формат : AVCФормат/Информация : Advanced Video CodecПрофиль формата : [email protected]Параметр CABAC формата : ДаПараметр ReFrames формата : 4 кадраИдентификатор кодека : V_MPEG4/ISO/AVCПродолжительность : 1 ч. 41 м.Битрейт : 4616 Кбит/секШирина : 1920 пикселейВысота : 1032 пикселяСоотношение сторон : 1,85:1Режим частоты кадров : ПостоянныйЧастота кадров : 23,976 кадра/секЦветовое пространство : YUVСубдискретизация насыщенности : 4:2:0Битовая глубина : 8 битТип развёртки : ПрогрессивнаяБит/(Пиксели*Кадры) : 0.097Размер потока : 3,29 Гбайт (84%)Заголовок : Equals.2015.1080p.WEB-DL.DD5.1.h364-FGTЯзык : EnglishDefault : ДаForced : НетЦветовой диапазон : LimitedОсновные цвета : BT.709Характеристики трансфера : BT.709Коэффициенты матрицы : BT.709

Аудио #1Идентификатор : 3Формат : AC-3Формат/Информация : Audio Coding 3Расширение режима : CM (complete main)Параметр Endianness формата : BigИдентификатор кодека : A_AC3Продолжительность : 1 ч. 41 м.Вид битрейта : ПостоянныйБитрейт : 384 Кбит/секКаналы : 6 каналовРасположение каналов : Front: L C R, Side: L R, LFEЧастота : 48,0 КГцЧастота кадров : 31,250 кадров/сек (1536 spf)Метод сжатия : С потерямиРазмер потока : 280 Мбайт (7%)Заголовок : iTunesЯзык : RussianDefault : ДаForced : Нет

Аудио #2Идентификатор : 4Формат : AC-3Формат/Информация : Audio Coding 3Расширение режима : CM (complete main)Параметр Endianness формата : BigИдентификатор кодека : A_AC3Продолжительность : 1 ч. 41 м.Вид битрейта : ПостоянныйБитрейт : 384 Кбит/секКаналы : 6 каналовРасположение каналов : Front: L C R, Side: L R, LFEЧастота : 48,0 КГцЧастота кадров : 31,250 кадров/сек (1536 spf)Метод сжатия : С потерямиРазмер потока : 280 Мбайт (7%)Язык : EnglishDefault : НетForced : Нет

ТекстИдентификатор : 2Формат : UTF-8Идентификатор кодека : S_TEXT/UTF8Идентификатор кодека/Информация : UTF-8 Plain TextЯзык : EnglishDefault : НетForced : Нет

Меню00:00:00.000 : en:100:09:11.426 : en:200:18:49.253 : en:300:28:28.498 : en:400:38:46.532 : en:500:48:54.264 : en:601:00:51.814 : en:701:09:38.257 : en:801:19:58.794 : en:901:29:42.419 : en:1001:33:59.634 : en:11

!-Lexx- писал(а):

Торрент перезалит 24.08.2016 в 21:40 МСК, замена на дубляж iTunes.

Скачать Равные через торрент http://pic1.pb.wtf/images/10/z3qbd.jpg Скачать фильм Равные через торрент бесплантно в хорошем качестве Описание: Фильм «Равные» рассказывает историю Сайласа, который живет в будущем, в обществе, названном «Коллектив». Жители этого ... 2016-08-24 18:40 7.8 10 16

Loading...

Loading...

% Раздел Тема Автор DL S | L
Фильмы [HD 720p, 1080p] (Хороший звук DUB, MVO) [ 14.72 GB ] Равные / Equals [2015 BDRip 1080p] - [] -Lexx- Скачать
Фильмы 2015 [DVDrip, WEB-DLRip, HDrip] [ 2.05 GB ] Равные / Equals [USA Transfer] [2015 HDRip ""] coc900 Скачать
R.G.Resident - Фильмы, Видео [ 1.45 GB ] Равные / Equals [2015 BDRip-AVC - [] / US Transfer] R.G.Resident schultz Скачать
Фильмы (Blu-ray, BD-Remux, HDDVD) [ 28.39 GB ] Равные / Equals [2015 BDRemux 1080p] от ExKinoRay / US Transfer / Russian Mafia Скачать
Фильмы [HD 720p, 1080p] (Хороший звук DUB, MVO) [ 9.89 GB ] Равные / Equals [2015 BDRip 720p [] smaster Скачать
Фильмы 2015 [DVDrip, WEB-DLRip, HDrip] [ 1.46 GB ] Равные / Equals [2015 BDRip - [] Twi7ter Скачать
Фильмы без перевода [ 13.17 GB ] Равные / Equals [2015 BDRip 1080p [Оригинал] smaster Скачать

Последний раз редактировалось: -Lexx- (2016-08-24 18:39), всего редактировалось 1 раз

Рекламный пират

15-08-2016 03:37 Равные Скачать торрент  

Не плохой фильм на раз пойдёт взглянуть)

15-08-2016 19:48 Равные Скачать торрент  

Ерунда полная,

16-08-2016 18:37 Равные Скачать торрент  

Что? Эквилибриум, ты ли это?

P.S. Эквилибриум лучше пересмотрите ещё раз, и то интереснее.

24-08-2016 19:09 Равные Скачать торрент  

24-08-2016 19:36 Равные Скачать торрент  

так и не осилил, не смог досмотреть до конца... патока какая-то тягучая...

24-08-2016 21:14 Равные Скачать торрент  

bober100 писал(а):

Не плохой фильм на раз пойдёт взглянуть)

Большинство не согласны

26-08-2016 02:17 Равные Скачать торрент  

zra писал(а):

bober100 писал(а):

Не плохой фильм на раз пойдёт взглянуть)

Большинство не согласнына вкус и цвет как говорится

Дорогой пользователь! Огромная просьба, поблагодарите релизера, оцените раздачу и оставьте свои комментарий, если Вы скачали Равные через торрент бесплатно! Внесите свою лепту в развитие PiratBit!

Комментировать посты могут только пользователи прошедшие не сложную регистрацию

Равные через торрент Скачать бесплатно Равные Равные скачать торрент Равные смотреть онлайн Cкачать фильм Равные бесплатно Равные скачать торрент в хорошем качестве Равные смотреть онлайн бесплатно в хорошем качестве

Вы не можете начинать темыВы не можете отвечать на сообщенияВы не можете редактировать свои сообщенияВы не можете удалять свои сообщенияВы не можете голосовать в опросахВы не можете прикреплять файлы к сообщениямВы можете скачивать файлы

Скачать фильм Равные через торрент в хорошем качестве бесплатно HDRip

piratbit.ru

Раздают: 1 [ 0 KB/s ]
Размер: 2.05 GB | Добавлен: 1 год 1 мес. назад | Торрент скачан:157 раз
Реклама Дарим 3000 рублей за регистрацию, не упусти свой шанс получить шикарный бонус!!!

30-08-2016 18:19 Равные Скачать торрент  

Равные / Equals

Год выпуска: 2015Страна: США / Freedom Media, Infinite Frameworks Studios, Route One EntertainmentЖанр: фантастика, драма, мелодрамаПродолжительность: 01:42:12Перевод: Дубляж (Лицензия)

Режиссер: Дрейк Доримус

В ролях: Николас Холт, Кристен Стюарт, Гай Пирс, Джеки Уивер, Тоби Хасс, Дэвид Селби, Кейт Лин Шейл, Ребекка Хэзлвуд, Тео Ю, Аврора Периньо

Описание: Фильм «Равные» рассказывает историю Сайласа, который живет в будущем, в обществе, названном «Коллектив». Жители этого современного мира — новое поколение людей, называемое «Равными». Равные — это мирные, спокойные, вежливые и справедливые люди, и жизнь в «Коллективе» идеальна. В нем не существует ни бедности, ни жадности, ни насилия, ни эмоций... Но над обществом нависает новая угроза: заболевание «SOS» или «Синдром Общественной Сознательности», жертвы которого подвергаются всему, чего, как они думали, избежали: депрессия, уязвимость, страх, любовь. Если правительство обнаружит человека, зараженного «SOS», его сразу же заберут в Нору, после чего этого человека уже никто и никогда не увидит.

Когда главный герой обнаруживает, что он тоже заражен, он становится изгоем, но замечает одного человека, который, как ему кажется, понимает, через что ему приходится проходить. В это время правительство заявляет о том, что лекарство от болезни «включенных эмоций» было найдено, и главные герои вынуждены искать способ выжить.

Качество: HDRipФормат: AVIВидео кодек: XviDАудио кодек: AC3Видео: 720x384 (1.88:1), 23.976 fps, XviD build 50 ~2412 kbps avg, 0.36 bit/pixelАудио: 48 kHz, AC3 Dolby Digital, 3/2 (L,C,R,l,r) + LFE ch, ~448 kbps

Скачать Равные через торрент http://pic.pb.wtf/images/11/6ym1m.jpg Скачать фильм Равные через торрент бесплантно в хорошем качестве Описание: Фильм «Равные» рассказывает историю Сайласа, который живет в будущем, в обществе, названном «Коллектив». Жители этого ... 2016-08-30 18:19 10 10 2

Loading...

Loading...

% Раздел Тема Автор DL S | L
Фильмы [HD 720p, 1080p] (Хороший звук DUB, MVO) [ 14.72 GB ] Равные / Equals [2015 BDRip 1080p] - [] -Lexx- Скачать
R.G.Resident - Фильмы, Видео [ 1.45 GB ] Равные / Equals [2015 BDRip-AVC - [] / US Transfer] R.G.Resident schultz Скачать
Фильмы (Blu-ray, BD-Remux, HDDVD) [ 28.39 GB ] Равные / Equals [2015 BDRemux 1080p] от ExKinoRay / US Transfer / Russian Mafia Скачать
Фильмы [HD 720p, 1080p] (Хороший звук DUB, MVO) [ 9.89 GB ] Равные / Equals [2015 BDRip 720p [] smaster Скачать
Фильмы 2015 [DVDrip, WEB-DLRip, HDrip] [ 1.46 GB ] Равные / Equals [2015 BDRip - [] Twi7ter Скачать
Фильмы без перевода [ 13.17 GB ] Равные / Equals [2015 BDRip 1080p [Оригинал] smaster Скачать
Фильмы (WEB-DL 720p, 1080p) [ 3.91 GB ] Равные / Equals [2015 WEB-DL 1080p] -Lexx- Скачать

Рекламный пират

31-08-2016 02:36 Равные Скачать торрент  

Щито?Любят же эти американцы бред снимать.Снимают хорошо,но бред.Дивергент,а теперь это.Лучше б Шекли экранизировали

31-08-2016 20:02 Равные Скачать торрент  

Равные-ровные, как сиськи Кристен Стюарт. Фильм уг.

04-09-2016 17:44 Равные Скачать торрент  

Если вы любите фильмы "додумай сам", то это - ваш вариант. Я лично обматерился. Считаю, потратил время зря.И да, снимается та самая актриса, которая:Радость: :/Страх: :/Любовь: :/Ненависть: :/Что тоже не добавляет фильму баллов.

Дорогой пользователь! Огромная просьба, поблагодарите релизера, оцените раздачу и оставьте свои комментарий, если Вы скачали Равные через торрент бесплатно! Внесите свою лепту в развитие PiratBit!

Комментировать посты могут только пользователи прошедшие не сложную регистрацию

Равные через торрент Скачать бесплатно Равные Равные скачать торрент Равные смотреть онлайн Cкачать фильм Равные бесплатно Равные скачать торрент в хорошем качестве Равные смотреть онлайн бесплатно в хорошем качестве

Вы не можете начинать темыВы не можете отвечать на сообщенияВы не можете редактировать свои сообщенияВы не можете удалять свои сообщенияВы не можете голосовать в опросахВы не можете прикреплять файлы к сообщениямВы можете скачивать файлы

Скачать фильм Равные через торрент в хорошем качестве бесплатно 1080p

piratbit.ru

Размер: 3.64 GB | Добавлен: 1 год 3 мес. назад | Торрент скачан:59 раз
Реклама Дарим 3000 рублей за регистрацию, не упусти свой шанс получить шикарный бонус!!!

20-07-2016 21:00 Равные Скачать торрент  

Равные / Equals

Страна: СШАЖанр: фантастика, драма, мелодрамаГод выпуска: 2015Продолжительность: 01:41:54

Перевод: Субтитры (-amely-)Cубтитры: русские, английскиеОригинальная аудиодорожка: английский

Режиссер: Дрейк Доримус

В ролях: Николас Холт, Кристен Стюарт, Гай Пирс, Джеки Уивер, Тоби Хасс, Дэвид Селби, Кейт Лин Шейл, Ребекка Хэзлвуд, Тео Ю, Аврора Периньо и другие.

Описание: Фильм «Равные» рассказывает историю Сайласа, который живет в будущем, в обществе, названном «Сообщество». Жители этого современного мира — новое поколение людей, называемое «Равными». Равные — это мирные, спокойные, вежливые и справедливые люди, и жизнь в «Коллективе» идеальна. В нем не существует ни бедности, ни жадности, ни насилия, ни эмоций… Но над обществом нависает новая угроза: заболевание «SOS» или «Синдром Особого Сознания», жертвы которого подвергаются всему, чего, как они думали, избежали: депрессия, уязвимость, страх, любовь. Если правительство обнаружит человека, зараженного «SOS», его сразу же заберут в Логово, после чего этого человека уже никто и никогда не увидит.Когда главный герой обнаруживает, что он тоже заражен, он становится изгоем, но замечает одного человека, который, как ему кажется, понимает через что ему приходится проходить. В это время правительство заявляет о том, что лекарство от болезни «включенных эмоций» было найдено, и главные герои вынуждены искать способ выжить.

Сэмпл: http://sendfile.su/1250701 http://www.imdb.com/title/tt3289728/

Качество видео: WEB-DLФормат видео: MKVВидео: AVC, 1920x1032, 1.85:1, 4 623 Kbps, 23.976 fpsАудио: English: AC-3, 48.0 KHz, 384 Kbps, 6 channels (Front: L C R, Side: L R, LFE)Формат субтитров: softsub (SRT)

[mediainfo]VideoID : 1Format : AVCFormat/Info : Advanced Video CodecFormat profile : [email protected] settings, CABAC : YesFormat settings, ReFrames : 4 framesCodec ID : V_MPEG4/ISO/AVCDuration : 1h 41mnBit rate : 4 623 KbpsWidth : 1 920 pixelsHeight : 1 032 pixelsDisplay aspect ratio : 1.85:1Frame rate mode : ConstantFrame rate : 23.976 fpsColor space : YUVChroma subsampling : 4:2:0Bit depth : 8 bitsScan type : ProgressiveBits/(Pixel*Frame) : 0.097Stream size : 3.29 GiB (90%)Title : Equals.2015.1080p.WEB-DL.DD5.1.h364-FGTLanguage : EnglishDefault : YesForced : NoColor range : LimitedColor primaries : BT.709Transfer characteristics : BT.709Matrix coefficients : BT.709

AudioID : 2Format : AC-3Format/Info : Audio Coding 3Mode extension : CM (complete main)Format settings, Endianness : BigCodec ID : A_AC3Duration : 1h 41mnBit rate mode : ConstantBit rate : 384 KbpsChannel(s) : 6 channelsChannel positions : Front: L C R, Side: L R, LFESampling rate : 48.0 KHzFrame rate : 31.250 fps (1536 spf)Compression mode : LossyStream size : 280 MiB (8%)Title : Equals.2015.1080p.WEB-DL.DD5.1.h364-FGTLanguage : EnglishDefault : YesForced : No

TextID : 3Format : UTF-8Codec ID : S_TEXT/UTF8Codec ID/Info : UTF-8 Plain TextLanguage : EnglishDefault : YesForced : No

Menu00:00:00.000 : en:100:09:11.426 : en:200:18:49.253 : en:300:28:28.498 : en:400:38:46.532 : en:500:48:54.264 : en:601:00:51.814 : en:701:09:38.257 : en:801:19:58.794 : en:901:29:42.419 : en:1001:33:59.634 : en:11

[/mediainfo]

Скачать Равные через торрент http://s019.radikal.ru/i640/1607/7a/0bf3c7c3e7a7.jpg Скачать фильм Равные через торрент бесплантно в хорошем качестве Описание: Фильм «Равные» рассказывает историю Сайласа, который живет в будущем, в обществе, названном «Сообщество». Жители этого ... 2016-07-20 21:00 6.7 10 3

Loading...

Loading...

Рекламный пират

20-07-2016 23:32 Равные Скачать торрент  

сабы только англ.!!!!

21-07-2016 02:00 Равные Скачать торрент  

sanekbest1, а когда перевод голосовой появиться?

21-07-2016 03:51 Равные Скачать торрент  

У пиндосов совсем фантазия кончилась. Одно и то же снимают.

21-07-2016 04:59 Равные Скачать торрент  

bober100, не могу сказать

Дорогой пользователь! Огромная просьба, поблагодарите релизера, оцените раздачу и оставьте свои комментарий, если Вы скачали Равные через торрент бесплатно! Внесите свою лепту в развитие PiratBit!

Комментировать посты могут только пользователи прошедшие не сложную регистрацию

Равные через торрент Скачать бесплатно Равные Равные скачать торрент Равные смотреть онлайн Cкачать фильм Равные бесплатно Равные скачать торрент в хорошем качестве Равные смотреть онлайн бесплатно в хорошем качестве

Вы можете начинать темыВы можете отвечать на сообщенияВы не можете редактировать свои сообщенияВы не можете удалять свои сообщенияВы не можете голосовать в опросахВы не можете прикреплять файлы к сообщениямВы можете скачивать файлы

Скачать фильм Равные через торрент в хорошем качестве бесплатно 1080p

GeneralUnique ID : 193202557238279740443244087287073872556 (0x915975831AA3A064A5709C2DBFC61AAC)Complete name : E:\Equals.2016.D.BDRip.1080p.ExKinoRay.mkvFormat : MatroskaFormat version : Version 4 / Version 2File size : 14.7 GiBDuration : 1 h 41 minOverall bit rate : 20.7 Mb/sMovie name : Equals.2016.D.BDRip.1080p.ExKinoRayEncoded date : UTC 2016-08-25 02:49:19Writing application : mkvmerge v8.3.0 ('Over the Horizon') 64bitWriting library : libebml v1.3.1 + libmatroska v1.4.2

VideoID : 1Format : AVCFormat/Info : Advanced Video CodecFormat profile : [email protected] settings, CABAC : YesFormat settings, ReFrames : 4 framesCodec ID : V_MPEG4/ISO/AVCDuration : 1 h 41 minBit rate : 16.6 Mb/sWidth : 1 920 pixelsHeight : 1 080 pixelsDisplay aspect ratio : 16:9Frame rate mode : ConstantFrame rate : 25.000 FPSColor space : YUVChroma subsampling : 4:2:0Bit depth : 8 bitsScan type : ProgressiveBits/(Pixel*Frame) : 0.320Stream size : 11.8 GiB (80%)Writing library : x264 core 148 r2705 3f5ed56Encoding settings : cabac=1 / ref=4 / deblock=1:-3:-3 / analyse=0x3:0x133 / me=umh / subme=11 / psy=1 / psy_rd=1.00:0.00 / mixed_ref=1 / me_range=48 / chroma_me=1 / trellis=2 / 8x8dct=1 / cqm=0 / deadzone=21,11 / fast_pskip=0 / chroma_qp_offset=-2 / threads=18 / lookahead_threads=4 / sliced_threads=0 / nr=0 / decimate=1 / interlaced=0 / bluray_compat=0 / constrained_intra=0 / bframes=12 / b_pyramid=2 / b_adapt=2 / b_bias=0 / direct=1 / weightb=1 / open_gop=0 / weightp=2 / keyint=240 / keyint_min=24 / scenecut=40 / intra_refresh=0 / rc_lookahead=60 / rc=crf / mbtree=0 / crf=17.3 / qcomp=0.60 / qpmin=0 / qpmax=69 / qpstep=4 / vbv_maxrate=50000 / vbv_bufsize=62500 / crf_max=0.0 / nal_hrd=none / filler=0 / ip_ratio=1.35 / pb_ratio=1.25 / aq=1:0.80Language : EnglishDefault : YesForced : No

Audio #1ID : 2Format : DTSFormat/Info : Digital Theater SystemsMode : 16Format settings, Endianness : BigCodec ID : A_DTSDuration : 1 h 41 minBit rate mode : ConstantBit rate : 1 536 kb/sChannel(s) : 6 channelsChannel positions : Front: L C R, Side: L R, LFESampling rate : 48.0 kHzFrame rate : 93.750 FPS (512 spf)Bit depth : 16 bitsCompression mode : LossyStream size : 1.09 GiB (7%)Language : RussianDefault : YesForced : No

Audio #2ID : 3Format : AC-3Format/Info : Audio Coding 3Mode extension : CM (complete main)Format settings, Endianness : BigCodec ID : A_AC3Duration : 1 h 41 minBit rate mode : ConstantBit rate : 640 kb/sChannel(s) : 6 channelsChannel positions : Front: L C R, Side: L R, LFESampling rate : 48.0 kHzFrame rate : 31.250 FPS (1536 spf)Compression mode : LossyStream size : 466 MiB (3%)Language : RussianDefault : NoForced : No

Audio #3ID : 4Format : DTSFormat/Info : Digital Theater SystemsMode : 16Format settings, Endianness : BigCodec ID : A_DTSDuration : 1 h 41 minBit rate mode : ConstantBit rate : 1 509 kb/sChannel(s) : 6 channelsChannel positions : Front: L C R, Side: L R, LFESampling rate : 48.0 kHzFrame rate : 93.750 FPS (512 spf)Bit depth : 24 bitsCompression mode : LossyStream size : 1.07 GiB (7%)Language : EnglishDefault : NoForced : No

Menu00:00:00.000 : en:Chapter 0100:05:23.281 : en:Chapter 0200:10:12.987 : en:Chapter 0300:15:53.202 : en:Chapter 0400:20:13.546 : en:Chapter 0500:23:41.462 : en:Chapter 0600:28:51.229 : en:Chapter 0700:33:30.383 : en:Chapter 0800:39:37.208 : en:Chapter 0900:45:05.286 : en:Chapter 1000:49:43.105 : en:Chapter 1100:53:26.954 : en:Chapter 1200:58:40.392 : en:Chapter 1301:02:42.467 : en:Chapter 1401:08:22.598 : en:Chapter 1501:12:51.075 : en:Chapter 1601:17:35.401 : en:Chapter 1701:20:58.270 : en:Chapter 1801:26:11.500 : en:Chapter 1901:31:42.247 : en:Chapter 20

piratbit.ru


Смотрите также