Скачать через торрент 13 район кирпичные особняки в хорошем качестве


Кирпичные особняки через торрент в хорошем качестве бесплатно BDRip-AVC by keeper.52

ОбщееПолное имя : 13.rayon.Kirpichnye.osobnyaki.2014.D.BDRip-AVC_[New-Team]_by_avproh.mkvФормат : MatroskaВерсия формата : Version 4 / Version 2Размер файла : 1,74 ГбайтПродолжительность : 1 ч. 30 м.Общий поток : 2759 Кбит/секДата кодирования : UTC 2014-09-03 07:32:33Программа кодирования : mkvmerge v7.1.0 ('Good Love') 64bit built on Jul 27 2014 13:06:55Библиотека кодирования : libebml v1.3.0 + libmatroska v1.4.1_STATISTICS_WRITING_APP : mkvmerge v7.1.0 ('Good Love') 64bit built on Jul 27 2014 13:06:55_STATISTICS_WRITING_DATE_UTC : 2014-09-03 07:32:33_STATISTICS_TAGS : BPS DURATION NUMBER_OF_FRAMES NUMBER_OF_BYTESDURATION : 01:30:10.048000000NUMBER_OF_FRAMES : 169064NUMBER_OF_BYTES : 302962688

ВидеоИдентификатор : 1Формат : AVCФормат/Информация : Advanced Video CodecПрофиль формата : [email protected]Параметр CABAC формата : ДаПараметр ReFrames формата : 8 кадровИдентификатор кодека : V_MPEG4/ISO/AVCПродолжительность : 1 ч. 30 м.Битрейт : 1862 Кбит/секШирина : 1024 пикселяВысота : 428 пикселейСоотношение сторон : 2,40:1Режим частоты кадров : ПостоянныйЧастота кадров : 24,000 кадра/секЦветовое пространство : YUVСубдискретизация насыщенности : 4:2:0Битовая глубина : 8 битТип развёртки : ПрогрессивнаяБит/(Пиксели*Кадры) : 0.177Размер потока : 1,14 Гбайт (66%)Библиотека кодирования : x264 core 130 r2273 b3065e6Настройки программы : cabac=1 / ref=8 / deblock=1:-3:-2 / analyse=0x3:0x113 / me=umh / subme=10 / psy=1 / psy_rd=1.00:0.05 / mixed_ref=1 / me_range=32 / chroma_me=1 / trellis=2 / 8x8dct=1 / cqm=0 / deadzone=21,11 / fast_pskip=0 / chroma_qp_offset=-3 / threads=9 / lookahead_threads=1 / sliced_threads=0 / nr=0 / decimate=0 / interlaced=0 / bluray_compat=0 / constrained_intra=0 / bframes=8 / b_pyramid=2 / b_adapt=2 / b_bias=0 / direct=3 / weightb=1 / open_gop=0 / weightp=2 / keyint=240 / keyint_min=24 / scenecut=40 / intra_refresh=0 / rc_lookahead=40 / rc=2pass / mbtree=1 / bitrate=1862 / ratetol=1.0 / qcomp=0.60 / qpmin=0 / qpmax=69 / qpstep=4 / cplxblur=20.0 / qblur=0.5 / ip_ratio=1.40 / aq=1:1.00Язык : EnglishDefault : ДаForced : НетDURATION : 01:30:10.046000000NUMBER_OF_FRAMES : 129841NUMBER_OF_BYTES : 1258157242_STATISTICS_WRITING_APP : mkvmerge v7.1.0 ('Good Love') 64bit built on Jul 27 2014 13:06:55_STATISTICS_WRITING_DATE_UTC : 2014-09-03 07:32:33_STATISTICS_TAGS : BPS DURATION NUMBER_OF_FRAMES NUMBER_OF_BYTES

Аудио #1Идентификатор : 2Формат : AC-3Формат/Информация : Audio Coding 3Расширение режима : CM (complete main)Параметр Endianness формата : BigИдентификатор кодека : A_AC3Продолжительность : 1 ч. 30 м.Вид битрейта : ПостоянныйБитрейт : 448 Кбит/секКаналы : 6 каналовРасположение каналов : Front: L C R, Side: L R, LFEЧастота : 48,0 КГцБитовая глубина : 16 битМетод сжатия : С потерямиРазмер потока : 289 Мбайт (16%)Язык : RussianDefault : ДаForced : Нет

Аудио #2Идентификатор : 3Формат : AC-3Формат/Информация : Audio Coding 3Расширение режима : CM (complete main)Параметр Endianness формата : BigИдентификатор кодека : A_AC3Продолжительность : 1 ч. 30 м.Вид битрейта : ПостоянныйБитрейт : 448 Кбит/секКаналы : 6 каналовРасположение каналов : Front: L C R, Side: L R, LFEЧастота : 48,0 КГцБитовая глубина : 16 битМетод сжатия : С потерямиРазмер потока : 289 Мбайт (16%)Язык : EnglishDefault : НетForced : Нет

ТекстИдентификатор : 4Формат : UTF-8Идентификатор кодека : S_TEXT/UTF8Идентификатор кодека/Информация : UTF-8 Plain TextЯзык : EnglishDefault : НетForced : Нет

Меню00:00:00.000 : en:00:00:00.00000:08:32.042 : en:00:08:32.04200:20:00.667 : en:00:20:00.66700:28:50.125 : en:00:28:50.12500:35:13.750 : en:00:35:13.75000:46:39.500 : en:00:46:39.50000:57:56.792 : en:00:57:56.79201:09:39.083 : en:01:09:39.08301:18:16.708 : en:01:18:16.70801:25:14.125 : en:01:25:14.125

piratbit.ru

Кирпичные особняки (2013) через торрент

gig-torrent.net

16 февраля 2016 10:36 13-й район: Кирпичные особняки / Brick Mansions (2014) BDRip-AVC | D .torrent   [Информация о файле (нажмите для просмотра)] Перевод: ДублированныйСубтитры: АнглийскиеКодек: x264Качество: BDRip-AVC (Рип с |Blu-ray Disc 1080i)Видео: 880*392 (2,25:1), 25,000 fps, x264, 1115 Kbps, 0.129 bit/pixelАудио: 48 kHz, AAC-HE, 2 ch, ~92 kbpsВидео: Идентификатор : 1 Формат : AVC Формат/Информация : Advanced Video Codec Профиль формата : [email protected] Параметр CABAC формата : Да Параметр ReFrames формата : 9 кадров Идентификатор кодека : V_MPEG4/ISO/AVC Продолжительность : 1 ч. 26 м. Номинальный битрейт : 1115 Кбит/сек Ширина : 880 пикселей Высота : 392 пикселя Соотношение сторон : 2,25:1 Режим частоты кадров : Постоянный Частота кадров : 25,000 кадров/сек Цветовое пространство : YUV Субдискретизация насыщенности : 4:2:0 Битовая глубина : 8 бит Тип развёртки : Прогрессивная Бит/(Пиксели*Кадры) : 0.129 Библиотека кодирования : x264 core 125 r2208 d9d2288 Настройки программы : cabac=1 / ref=9 / deblock=1:-2:-2 / analyse=0x3:0x113 / me=umh / subme=10 / psy=1 / psy_rd=1.00:0.15 / mixed_ref=1 / me_range=32 / chroma_me=1 / trellis=2 / 8x8dct=1 / cqm=0 / deadzone=21,11 / fast_pskip=1 / chroma_qp_offset=-3 / threads=2 / lookahead_threads=1 / sliced_threads=0 / nr=0 / decimate=0 / interlaced=0 / bluray_compat=0 / constrained_intra=0 / bframes=8 / b_pyramid=2 / b_adapt=2 / b_bias=0 / direct=3 / weightb=1 / open_gop=0 / weightp=2 / keyint=240 / keyint_min=23 / scenecut=40 / intra_refresh=0 / rc=2pass / mbtree=0 / bitrate=1115 / ratetol=1.0 / qcomp=0.60 / qpmin=0 / qpmax=69 / qpstep=4 / cplxblur=20.0 / qblur=0.5 / ip_ratio=1.40 / pb_ratio=1.30 / aq=1:1.00 Язык : English Default : Да Forced : НетАудио: Идентификатор : 2 Формат : AAC Формат/Информация : Advanced Audio Codec Профиль формата : HE-AAC / LC Идентификатор кодека : A_AAC Продолжительность : 1 ч. 26 м. Каналы : 2 канала Расположение каналов : Front: L R Частота : 48,0 КГц / 24,0 КГц Метод сжатия : С потерями Задержка видео : 31 мс. Заголовок : Дубляж (92,0 Кбит/сек) Язык : Russian Default : Да Forced : Нет 748,11 Mb 42 6
16 февраля 2016 10:36 13-й район: Кирпичные особняки / Brick Mansions (2014) BDRip 720p от HELLYWOOD | US-Transfer | Лицензия .torrent   [Информация о файле (нажмите для просмотра)] Перевод: Профессиональный (полное дублирование) [лицензия BD RUS]Субтитры: Английские (SDH + SDH-Colored)Качество: BDRip 720pФормат: MKVВидео: х.264, 1280x536 (2,40:1), 23,976 fps, 5654 kbps, 0.344 bit/pixelАудио#1: 48 kHz, AC3 Dolby Digital, 3/2 (L,C,R,l,r) + LFE ch, 640.00 kbps |RUSАудио#2: 48 kHz, AC3 Dolby Digital, 3/2 (L,C,R,l,r) + LFE ch, 640.00 kbps |ENG 4,37 Gb 18 4
16 февраля 2016 10:36 13-й район: Кирпичные особняки / Brick Mansions (2014) BDRip от ExKinoRay | Лицензия .torrent   [Информация о файле (нажмите для просмотра)] Перевод: Дублированный[Лицензия]Качество: BDRipВидео: XviD, 2347 Кбит/с, 720x304Аудио: Русский, английский (AC3, 6 ch, 448 Кбит/с) 2,05 Gb 17 4
16 февраля 2016 10:36 13-й район: Кирпичные особняки / Brick Mansions (2014) BDRip 1080p от NNNB .torrent   [Информация о файле (нажмите для просмотра)] Перевод: ДублированныйКачество: BDRip 1080p (исходник Blu-ray Disc)Видео: 1920x804, 11234 Кбит/сек, 24,000 кадр/сек, AVC, x264, [email protected], 2.40:1, 0.303 Бит/[Пиксели*Кадры]Аудио 1: AC-3, 448 Кбит/сек, 6 канала(ов), 48,0 КГц - Дублированный / РусскийАудио 2: AC-3, 640 Кбит/сек, 6 канала(ов), 48,0 КГц - Оригинал / АнглийскийСубтитры: Английские | Полные 7,75 Gb 17 3
16 февраля 2016 10:36 13-й район: Кирпичные особняки / Brick Mansions (2014) BDRip от HQCLUB | Лицензия .torrent   [Информация о файле (нажмите для просмотра)] Перевод: профессиональный (полное дублирование)BD RUSСубтитры: английские (SDH)Формат: AVIКачество: BDRip (источник:Видео: 704x400 (1.76:1), 23,976 fps, XviD build 65 ~1896 kbps avg, 0.28 bit/pixelАудио #1: 48 kHz, AC3 Dolby Digital, 3/2 (L,C,R,l,r) + LFE ch, ~448 kbps avg (RUS)Аудио #2: 48 kHz, AC3 Dolby Digital, 2/0 (L,R) ch, ~192 kbps avg (DUB.UKR)(отдельно)Аудио #3: 48 kHz, AC3 Dolby Digital, 2/0 (L,R) ch, ~192 kbps avg (MVO.UKR.ICTV)(отдельно)Аудио #4: 48 kHz, AC3 Dolby Digital, 3/2 (L,C,R,l,r) + LFE ch, ~448 kbps avg (ENG)(отдельно) 1,45 Gb 40 5
16 февраля 2016 10:36 13-й район: Кирпичные особняки / Brick Mansions (2014) BDRemux 1080p от New-Team | D | лицензия .torrent   [Информация о файле (нажмите для просмотра)] Перевод: Профессиональный (дублированный)Качество: BDRemux 1080p /Blu-ray 1080i RUS от Lizard + 1080p Blu-ray AVC DTS-HD MA 5.1-CHDBitsФормат: MKVВидео: 1920x1080, MPEG-4 AVC Video 24999 kbps 1080p / 24,000 fps / 16:9 / High Profile 4.1Аудио 1: Russian: 48 kHz/24-bit, DTS, 3/2 (L,C,R,l,r) + LFE ch, ~1510.00 kbps avg |Дубляж, Blu-ray Rus|Аудио 2: English: DTS-HD Master Audio 2160 kbps 5.1 / 48 kHz / 2160 kbps / 24-bit (DTS Core: 5.1 / 48 kHz / 1509 kbps / 24-bit)Видео: Идентификатор : 1 Формат : AVC Формат/Информация : Advanced Video Codec Профиль формата : [email protected] Параметр CABAC формата : Да Параметр ReFrames формата : 4 кадра Идентификатор кодека : V_MPEG4/ISO/AVC Продолжительность : 1 ч. 30 м. Вид битрейта : Постоянный Номинальный битрейт : 25,0 Мбит/сек Ширина : 1920 пикселей Высота : 1080 пикселей Соотношение сторон : 16:9 Режим частоты кадров : Постоянный Частота кадров : 24,000 кадра/сек Стандарт вещания : NTSC Цветовое пространство : YUV Субдискретизация насыщенности : 4:2:0 Битовая глубина : 8 бит Тип развёртки : Прогрессивная Бит/(Пиксели*Кадры) : 0.502 Язык : English Default : Да Forced : НетАудио #1: Идентификатор : 2 Формат : DTS Формат/Информация : Digital Theater Systems Режим : 16 Параметр Endianness формата : Big Идентификатор кодека : A_DTS Продолжительность : 1 ч. 30 м. Вид битрейта : Постоянный Битрейт : 1510 Кбит/сек Каналы : 6 каналов Расположение каналов : Front: L C R, Side: L R, LFE Частота : 48,0 КГц Битовая глубина : 24 бит Метод сжатия : С потерями Размер потока : 974 Мбайт (5%) Заголовок : |Дубляж,Blu-ray RUS| Язык : Russian Default : Да Forced : НетАудио #2: Идентификатор : 3 Формат : DTS Формат/Информация : Digital Theater Systems Профиль формата : MA / Core Режим : 16 Параметр Endianness формата : Big Идентификатор кодека : A_DTS Продолжительность : 1 ч. 30 м. Вид битрейта : Переменный Битрейт : Неизвестно / 1509 Кбит/сек Каналы : 6 каналов Расположение каналов : Front: L C R, Side: L R, LFE Частота : 48,0 КГц Битовая глубина : 16 бит Метод сжатия : Без потерь / Lossy Язык : English Default : Нет Forced : Нет 17,56 Gb 4 5
16 февраля 2016 10:36 13-й район: Кирпичные особняки / Brick Mansions (2014) BDRip 720p от HDCLUB и New-Team | D | лицензия .torrent   [Информация о файле (нажмите для просмотра)] Перевод: Профессиональный (дублированный)Качество: BDRip 720p /1080p Blu-ray AVC DTS-HD MA 5.1-CHDBitsФормат: MKVВидео: 1280x536 (2.35:1), MPEG-4 AVC Video 6 939 Кбит/с 1080p / 24,000 fps / 16:9 / High Profile 4.1 / 0.421 bit/pixАудио 1: Russian: 48 kHz/24-bit, DTS, 3/2 (L,C,R,l,r) + LFE ch, ~1510.00 kbps avg |Дубляж, Blu-ray Rus|Аудио 2: English: 48 kHz/24-bit, DTS, 3/2 (L,C,R,l,r) + LFE ch, ~1510.00 kbps avgВидео: Идентификатор : 1 Формат : AVC Формат/Информация : Advanced Video Codec Профиль формата : [email protected] Параметр CABAC формата : Да Параметр ReFrames формата : 12 кадров Идентификатор кодека : V_MPEG4/ISO/AVC Продолжительность : 1 ч. 30 м. Битрейт : 6879 Кбит/сек Ширина : 1280 пикселей Высота : 536 пикселей Соотношение сторон : 2,40:1 Режим частоты кадров : Постоянный Частота кадров : 24,000 кадра/сек Цветовое пространство : YUV Субдискретизация насыщенности : 4:2:0 Битовая глубина : 8 бит Тип развёртки : Прогрессивная Бит/(Пиксели*Кадры) : 0.418 Размер потока : 4,33 Гбайт (68%) Библиотека кодирования : x264 core 142 r2453kMod ea0ca51 Настройки программы : cabac=1 / ref=12 / deblock=1:-3:-3 / analyse=0x3:0x133 / me=umh / subme=10 / psy=1 / fade_compensate=0.00 / psy_rd=1.01:0.00 / mixed_ref=1 / me_range=24 / chroma_me=1 / trellis=2 / 8x8dct=1 / cqm=0 / deadzone=21,11 / fast_pskip=0 / chroma_qp_offset=-2 / threads=24 / lookahead_threads=4 / sliced_threads=0 / nr=0 / decimate=0 / interlaced=0 / bluray_compat=0 / constrained_intra=0 / fgo=0 / bframes=10 / b_pyramid=2 / b_adapt=2 / b_bias=0 / direct=3 / weightb=1 / open_gop=0 / weightp=2 / keyint=250 / keyint_min=24 / scenecut=40 / intra_refresh=0 / rc=crf / mbtree=0 / crf=15.6000 / qcomp=0.75 / qpmin=0 / qpmax=69 / qpstep=4 / ip_ratio=1.20 / pb_ratio=1.10 / aq=1:0.89 Язык : English Default : Да Forced : НетАудио #1: Идентификатор : 2 Формат : DTS Формат/Информация : Digital Theater Systems Режим : 16 Параметр Endianness формата : Big Идентификатор кодека : A_DTS Продолжительность : 1 ч. 30 м. Вид битрейта : Постоянный Битрейт : 1510 Кбит/сек Каналы : 6 каналов Расположение каналов : Front: L C R, Side: L R, LFE Частота : 48,0 КГц Битовая глубина : 24 бит Метод сжатия : С потерями Размер потока : 974 Мбайт (15%) Заголовок : |Дубляж,Blu-ray RUS| Язык : Russian Default : Да Forced : НетАудио #2: Идентификатор : 3 Формат : DTS Формат/Информация : Digital Theater Systems Режим : 16 Параметр Endianness формата : Big Идентификатор кодека : A_DTS Продолжительность : 1 ч. 30 м. Вид битрейта : Постоянный Битрейт : 1509 Кбит/сек Каналы : 6 каналов Расположение каналов : Front: L C R, Side: L R, LFE Частота : 48,0 КГц Битовая глубина : 24 бит Метод сжатия : С потерями Размер потока : 973 Мбайт (15%) Язык : English Default : Нет Forced : Нет 6,36 Gb 15 1
16 февраля 2016 10:36 13-й район: Кирпичные особняки / Brick Mansions (2014) BDRip 1080p от HDCLUB и New-Team | D | лицензия .torrent   [Информация о файле (нажмите для просмотра)] Перевод: Профессиональный (дублированный)Качество: BDRip 1080p /1080p Blu-ray AVC DTS-HD MA 5.1-CHDBitsФормат: MKVВидео: 1920x804 (2.35:1), MPEG-4 AVC Video 13,8 Мбит/с 1080p / 24,000 fps / 16:9 / High Profile 4.1 / 0.371 bit/pixАудио 1: Russian: 48 kHz/24-bit, DTS, 3/2 (L,C,R,l,r) + LFE ch, ~1510.00 kbps avg |Дубляж, Blu-ray Rus|Аудио 2: English: 48 kHz/24-bit, DTS, 3/2 (L,C,R,l,r) + LFE ch, ~1510.00 kbps avgВидео: Идентификатор : 1 Формат : AVC Формат/Информация : Advanced Video Codec Профиль формата : [email protected] Параметр CABAC формата : Да Параметр ReFrames формата : 5 кадров Идентификатор кодека : V_MPEG4/ISO/AVC Продолжительность : 1 ч. 30 м. Битрейт : 13,8 Мбит/сек Ширина : 1920 пикселей Высота : 804 пикселя Соотношение сторон : 2,40:1 Режим частоты кадров : Постоянный Частота кадров : 24,000 кадра/сек Цветовое пространство : YUV Субдискретизация насыщенности : 4:2:0 Битовая глубина : 8 бит Тип развёртки : Прогрессивная Бит/(Пиксели*Кадры) : 0.371 Размер потока : 8,66 Гбайт (80%) Библиотека кодирования : x264 core 142 r2431kMod ac76440 Настройки программы : cabac=1 / ref=5 / deblock=1:-3:-3 / analyse=0x3:0x133 / me=tesa / subme=11 / psy=1 / fade_compensate=0.00 / psy_rd=1.00:0.00 / mixed_ref=1 / me_range=32 / chroma_me=1 / trellis=2 / 8x8dct=1 / cqm=0 / deadzone=21,11 / fast_pskip=0 / chroma_qp_offset=-2 / threads=12 / lookahead_threads=3 / sliced_threads=0 / nr=0 / decimate=0 / interlaced=0 / bluray_compat=0 / constrained_intra=0 / fgo=0 / bframes=12 / b_pyramid=2 / b_adapt=2 / b_bias=0 / direct=3 / weightb=1 / open_gop=0 / weightp=2 / keyint=250 / keyint_min=24 / scenecut=40 / intra_refresh=0 / rc=crf / mbtree=0 / crf=15.8000 / qcomp=0.65 / qpmin=0 / qpmax=69 / qpstep=4 / ip_ratio=1.30 / pb_ratio=1.20 / aq=1:0.80 Язык : English Default : Да Forced : Нет Коэффициенты матрицы : BT.709Аудио #1: Идентификатор : 2 Формат : DTS Формат/Информация : Digital Theater Systems Режим : 16 Параметр Endianness формата : Big Идентификатор кодека : A_DTS Продолжительность : 1 ч. 30 м. Вид битрейта : Постоянный Битрейт : 1510 Кбит/сек Каналы : 6 каналов Расположение каналов : Front: L C R, Side: L R, LFE Частота : 48,0 КГц Битовая глубина : 24 бит Метод сжатия : С потерями Размер потока : 974 Мбайт (9%) Заголовок : |Дубляж,Blu-ray RUS| Язык : Russian Default : Да Forced : НетАудио #2: Идентификатор : 3 Формат : DTS Формат/Информация : Digital Theater Systems Режим : 16 Параметр Endianness формата : Big Идентификатор кодека : A_DTS Продолжительность : 1 ч. 30 м. Вид битрейта : Постоянный Битрейт : 1509 Кбит/сек Каналы : 6 каналов Расположение каналов : Front: L C R, Side: L R, LFE Частота : 48,0 КГц Битовая глубина : 24 бит Метод сжатия : С потерями Размер потока : 973 Мбайт (9%) Язык : English Default : Нет Forced : Нет 10,78 Gb 17 2
16 февраля 2016 10:36 13-й район: Кирпичные особняки / Brick Mansions (2014) Blu-ray 1080i от New-Team | D | лицензия .torrent   [Информация о файле (нажмите для просмотра)] Перевод: Профессиональный (дублированный)Качество: BLu-ray 1080iФормат: BDAVВидео: 1920x1080, MPEG-4 AVC Video 17996 kbps 1080i / 25 fps / 16:9 / High Profile 4.1Аудио 1: DTS Audio Russian 1509 kbps 5.1 / 48 kHz / 1509 kbps / 24-bitАудио 2: Dolby Digital Audio Russian 640 kbps 5.1 / 48 kHz / 640 kbps / DN -4dB 13,43 Gb 2 2
16 февраля 2016 10:35 13-й район: Кирпичные особняки / Brick Mansions (2014) BDRip от HELLYWOOD | Лицензия .torrent   [Информация о файле (нажмите для просмотра)] Перевод: Профессиональный (полное дублирование) [R5] + Оригинальная звуковая дорожкаСубтитры: английские (Отдельным файлом)Формат: AVIКачество: BDRip (источник: /Blu-ray Disc /1080p) Видео: 720x304 (2.37:1), 24 fps, XviD build 65 ~1845 kbps avg, 0.35 bit/pixelАудио: #1: 48 kHz, AC3 Dolby Digital, 3/2 (L,C,R,l,r) + LFE ch, 448.00 kbps|DUB - R5|Аудио: #2: 48 kHz, AC3 Dolby Digital, 3/2 (L,C,R,l,r) + LFE ch, 448.00 kbps|ENG| (Отдельным файлом) 1,73 Gb 14 8
16 февраля 2016 10:35 13-й район: Кирпичные особняки / Brick Mansions (2014) HDRip от Scarabey | D | Лицензия .torrent   [Информация о файле (нажмите для просмотра)] Перевод: Профессиональный (полное дублирование) - ЛицензияКачество: HDRipФормат: AVIВидео: 720x304 (2.37:1), 24 fps, XviD build 73 ~1902 kbps avg, 0.36 bit/pixelАудио: 48 kHz, AC3 Dolby Digital, 3/2 (L,C,R,l,r) + LFE ch, ~448 kbps 1,49 Gb 43 2
16 февраля 2016 10:35 13-й район: Кирпичные особняки / Brick Mansions (2014) HDRip от Scarabey | D | Лицензия .torrent   [Информация о файле (нажмите для просмотра)] Перевод: Профессиональный (полное дублирование) - ЛицензияКачество: HDRipФормат: AVIВидео: 720x304 (2.37:1), 24 fps, XviD build 73 ~1019 kbps avg, 0.19 bit/pixelАудио: 48 kHz, MPEG Layer 3, 2 ch, ~128.00 kbps avg 746 Mb 19 2
16 февраля 2016 10:35 13-й район: Кирпичные особняки / Brick Mansions (2014) DVD5 от New-Team | D | Сжатый .torrent   [Информация о файле (нажмите для просмотра)] Перевод: Профессиональный (полное дублирование)Кодек: MPEG2Качество: DVD5 (сжатый)Видео: PAL 16:9 (720x576) VBR ~ 7280.91 kbps avgЗвук: Русский DD 5.1 (448Kbps) 4,21 Gb 17 1
16 февраля 2016 10:35 13-й район: Кирпичные особняки / Brick Mansions (2014) BDRip 720p от Leonardo and Scarabey | Лицензия .torrent   [Информация о файле (нажмите для просмотра)] Перевод: Профессиональный (полное дублирование) ЛицензияФормат: MKVВидео кодек: MPEG-4 AVC Аудио кодек: AC3Видео: AVC, 1280x536 (2.40:1) at 24.000 fps, AVC at 3024 kbps avg, 0.184 bit/pixelАудио: Russian; AC3; 448 Kbps; CBR; 6 ch; 16 bit; DUBСубтитры: английские 2,23 Gb 19 2
16 февраля 2016 10:35 13-й район: Кирпичные особняки / Brick Mansions (2014) DVD9 от New-Team | D | Лицензия .torrent   [Информация о файле (нажмите для просмотра)] Перевод: Профессиональный (полное дублирование)Кодек: MPEG2Качество: DVD9Видео: PAL 16:9 (720x576) VBR ~ 7280.91 kbps avgЗвук: Русский DD 5.1 (448Kbps), Русский DTS (768Kbps) 4,79 Gb 5 6
16 февраля 2016 10:35 13-й район: Кирпичные особняки / Brick Mansions (2014) HDRip | D | Лицензия .torrent   [Информация о файле (нажмите для просмотра)] Перевод: Дублированный (профессиональный)Кодек: AVI (XviD)Качество: HDRip (Рип с BDRip 720p)Видео: 981 Kbps, 640x268 25.000 fps, XviDЗвук: MPEG Audio (mp3) 128 Kbps 44.1 KHz 2 ch 723,44 Mb 943 31
16 февраля 2016 10:35 13-й район: Кирпичные особняки / Brick Mansions (2014) BDRip-AVC от HELLYWOOD | Лицензия .torrent   [Информация о файле (нажмите для просмотра)] Перевод: Профессиональный (полное дублирование) [лицензия R5]Субтитры: Английские (SDH + SDH-Colored)Качество: BDRip-AVCФормат: MKVВидео: х.264, 1084x454 (2,40:1), 24,000 fps, 2571 kbps, 0.218 bit/pixelАудио#1: 48 kHz, AC3 Dolby Digital, 3/2 (L,C,R,l,r) + LFE ch, 448.00 kbps |RUSАудио#2: 48 kHz, AC3 Dolby Digital, 3/2 (L,C,R,l,r) + LFE ch, 448.00 kbps |ENG 2,18 Gb 16 3
16 февраля 2016 10:35 13-й район: Кирпичные особняки / Brick Mansions (2014) BDRip-AVC от HELLYWOOD | Лицензия .torrent   [Информация о файле (нажмите для просмотра)] Перевод: Профессиональный (полное дублирование) [лицензия R5]Субтитры: Английские (SDH + SDH-Colored)Качество: BDRip-AVCФормат: MKVВидео: х.264, 960x402 (2,40:1), 24,000 fps, 1875 kbps, 0.202 bit/pixelАудио: 48 kHz, AC3 Dolby Digital, 3/2 (L,C,R,l,r) + LFE ch, 448.00 kbps 1,46 Gb 4 3
16 февраля 2016 10:35 13-й район: Кирпичные особняки / Brick Mansions (2014) BDRip 720p от Hot-Film | D | Лицензия .torrent   [Информация о файле (нажмите для просмотра)] Перевод: Дублированный (профессиональный) [Лицензия]Качество: BDRip 720pВидео: 1280x536 (2.40:1) at 24.000 fps, AVC at 3358 kbps avg, 0.204 bit/pixelАудио: Русский, английский (АС3, 6 ch, 640 Кбит/с)Субтитры: Английские 2,92 Gb 20 3
16 февраля 2016 10:35 13-й район: Кирпичные особняки / Brick Mansions (2014) BDRip от New-Team | D | лицензия .torrent   [Информация о файле (нажмите для просмотра)] Перевод: Профессиональный (дублированный)Качество: BDRip /DVD9 R5 от Lizard + Brick.Mansions.2014.BluRay.Remux.1080p.x264.Rus.Eng-Womanizer0.mkvФормат: AVIВидео: 720x304 (2.35:1), XviD, 1855 Кбит/с, 24,000 fps / 0.353 bit/pixАудио: Dolby Digital Audio Russian 448 kbps 5.1 / 48 kHz / 448 kbps / DN -4dBВидео: Идентификатор : 0 Формат : MPEG-4 Visual Профиль формата : Advanced [email protected] Параметр BVOP формата : 1 Параметр QPel формата : Нет Параметр GMC формата : Без точки перехода Параметр матрицы формата : Выборочная Идентификатор кодека : XVID Идентификатор кодека/Подсказка : XviD Продолжительность : 1 ч. 30 м. Битрейт : 1855 Кбит/сек Ширина : 720 пикселей Высота : 304 пикселя Соотношение сторон : 2,35:1 Частота кадров : 24,000 кадра/сек Цветовое пространство : YUV Субдискретизация насыщенности : 4:2:0 Битовая глубина : 8 бит Тип развёртки : Прогрессивная Метод сжатия : С потерями Бит/(Пиксели*Кадры) : 0.353 Размер потока : 1,17 Гбайт (80%) Библиотека кодирования : XviD 73Аудио: Идентификатор : 1 Формат : AC-3 Формат/Информация : Audio Coding 3 Расширение режима : CM (complete main) Параметр Endianness формата : Big Идентификатор кодека : 2000 Продолжительность : 1 ч. 30 м. Вид битрейта : Постоянный Битрейт : 448 Кбит/сек Каналы : 6 каналов Расположение каналов : Front: L C R, Side: L R, LFE Частота : 48,0 КГц Битовая глубина : 16 бит Метод сжатия : С потерями Размер потока : 289 Мбайт (19%) Выравнивание : Разделение по промежуткам Продолжительность промежутка : 42 мс. (1,00 видеокадр) Время предзагрузки промежутка : 500 мс. 1,46 Gb 242 7
16 февраля 2016 10:35 13-й район: Кирпичные особняки / Brick Mansions (2014) BDRip-AVC от New-Team | D | лицензия .torrent   [Информация о файле (нажмите для просмотра)] Перевод: Профессиональный (дублированный)Качество: BDRip-AVC /DVD9 R5 от Lizard + Brick.Mansions.2014.BluRay.Remux.1080p.x264.Rus.Eng-Womanizer0.mkvФормат: MKVВидео: 1024x428 (2.40:1), MPEG-4 AVC Video 1862 Кбит/с 1080p / 24,000 fps / 16:9 / High Profile 4.1 / 0.177 bit/pixАудио 1: Dolby Digital Audio Russian 448 kbps 5.1 / 48 kHz / 448 kbps / DN -4dBАудио 2: Dolby Digital Audio English 448 kbps 5.1 / 48 kHz / 448 kbps / DN -4dBВидео: Идентификатор : 1 Формат : AVC Формат/Информация : Advanced Video Codec Профиль формата : [email protected] Параметр CABAC формата : Да Параметр ReFrames формата : 8 кадров Идентификатор кодека : V_MPEG4/ISO/AVC Продолжительность : 1 ч. 30 м. Битрейт : 1862 Кбит/сек Ширина : 1024 пикселя Высота : 428 пикселей Соотношение сторон : 2,40:1 Режим частоты кадров : Постоянный Частота кадров : 24,000 кадра/сек Цветовое пространство : YUV Субдискретизация насыщенности : 4:2:0 Битовая глубина : 8 бит Тип развёртки : Прогрессивная Бит/(Пиксели*Кадры) : 0.177 Размер потока : 1,14 Гбайт (66%) Библиотека кодирования : x264 core 130 r2273 b3065e6 Настройки программы : cabac=1 / ref=8 / deblock=1:-3:-2 / analyse=0x3:0x113 / me=umh / subme=10 / psy=1 / psy_rd=1.00:0.05 / mixed_ref=1 / me_range=32 / chroma_me=1 / trellis=2 / 8x8dct=1 / cqm=0 / deadzone=21,11 / fast_pskip=0 / chroma_qp_offset=-3 / threads=9 / lookahead_threads=1 / sliced_threads=0 / nr=0 / decimate=0 / interlaced=0 / bluray_compat=0 / constrained_intra=0 / bframes=8 / b_pyramid=2 / b_adapt=2 / b_bias=0 / direct=3 / weightb=1 / open_gop=0 / weightp=2 / keyint=240 / keyint_min=24 / scenecut=40 / intra_refresh=0 / rc_lookahead=40 / rc=2pass / mbtree=1 / bitrate=1862 / ratetol=1.0 / qcomp=0.60 / qpmin=0 / qpmax=69 / qpstep=4 / cplxblur=20.0 / qblur=0.5 / ip_ratio=1.40 / aq=1:1.00 Язык : English Default : Да Forced : Нет DURATION : 01:30:10.046000000 NUMBER_OF_FRAMES : 129841 NUMBER_OF_BYTES : 1258157242 _STATISTICS_WRITING_APP : mkvmerge v7.1.0 ('Good Love') 64bit built on Jul 27 2014 13:06:55 _STATISTICS_WRITING_DATE_UTC : 2014-09-03 07:32:33 _STATISTICS_TAGS : BPS DURATION NUMBER_OF_FRAMES NUMBER_OF_BYTESАудио #1: Идентификатор : 2 Формат : AC-3 Формат/Информация : Audio Coding 3 Расширение режима : CM (complete main) Параметр Endianness формата : Big Идентификатор кодека : A_AC3 Продолжительность : 1 ч. 30 м. Вид битрейта : Постоянный Битрейт : 448 Кбит/сек Каналы : 6 каналов Расположение каналов : Front: L C R, Side: L R, LFE Частота : 48,0 КГц Битовая глубина : 16 бит Метод сжатия : С потерями Размер потока : 289 Мбайт (16%) Язык : Russian Default : Да Forced : НетАудио #2: Идентификатор : 3 Формат : AC-3 Формат/Информация : Audio Coding 3 Расширение режима : CM (complete main) Параметр Endianness формата : Big Идентификатор кодека : A_AC3 Продолжительность : 1 ч. 30 м. Вид битрейта : Постоянный Битрейт : 448 Кбит/сек Каналы : 6 каналов Расположение каналов : Front: L C R, Side: L R, LFE Частота : 48,0 КГц Битовая глубина : 16 бит Метод сжатия : С потерями Размер потока : 289 Мбайт (16%) Язык : English Default : Нет Forced : Нет 1,74 Gb 11 3
16 февраля 2016 10:35 13-й район: Кирпичные особняки / Brick Mansions (2014) HDRip от ImperiaFilm | КПК | Чистый звук .torrent   [Информация о файле (нажмите для просмотра)] Качество: HDRip | КПК (BDRip 720p)Видео: кодеккодек: x264,формат: mp4,размер кадра: 480x208, битрейт: 350 кб/сАудио: языкрусский, перевод: дублированный [Чистый звук], 308,25 Mb 3 2
16 февраля 2016 10:35 13-й район: Кирпичные особняки / Brick Mansions (2014) BDRip-AVC от MediaClub | Чистый звук .torrent   [Информация о файле (нажмите для просмотра)] Перевод: ДублированныйКачество: BDRip (AVC)Видео: MPEG-4 AVC, 2800 Кбит/с, 1024x428, 24.000 Кбит/сАудио #1: Русский (AC3, 2 ch, 384 Кбит/с) / Дублированный (Чистый звук)Аудио #2: Английский (AC3, 6 ch, 448 Кбит/с)Субтитры: Английские (Full, Colored)Видео: Идентификатор : 1 Формат : AVC Формат/Информация : Advanced Video Codec Профиль формата : [email protected] Параметр CABAC формата : Да Параметр ReFrames формата : 10 кадров Идентификатор кодека : V_MPEG4/ISO/AVC Продолжительность : 1 ч. 30 м. Битрейт : 2800 Кбит/сек Ширина : 1024 пикселя Высота : 428 пикселей Соотношение сторон : 2,40:1 Режим частоты кадров : Постоянный Частота кадров : 24,000 кадра/сек Цветовое пространство : YUV Субдискретизация насыщенности : 4:2:0 Битовая глубина : 8 бит Тип развёртки : Прогрессивная Бит/(Пиксели*Кадры) : 0.266 Размер потока : 1,72 Гбайт (75%) Заголовок : -=MediaClub-kaspr=- Библиотека кодирования : x264 core 142 r2431+42 c69a006 tMod [[email protected]:2:0 X86_64] Настройки программы : cabac=1 / ref=10 / deblock=1:-3:-3 / analyse=0x3:0x113 / me=umh / subme=11 / psy=1 / fade_compensate=0.00 / psy_rd=1.00:0.20 / mixed_ref=1 / me_range=32 / chroma_me=1 / trellis=2 / 8x8dct=1 / cqm=0 / deadzone=21,11 / fast_pskip=0 / chroma_qp_offset=-3 / threads=12 / lookahead_threads=3 / sliced_threads=0 / nr=0 / decimate=0 / interlaced=0 / bluray_compat=0 / constrained_intra=0 / fgo=0 / bframes=14 / b_pyramid=2 / b_adapt=2 / b_bias=0 / direct=3 / weightb=1 / open_gop=0 / weightp=2 / keyint=240 / keyint_min=24 / scenecut=40 / intra_refresh=0 / rc=2pass / mbtree=0 / bitrate=2800 / ratetol=1.0 / qcomp=0.60 / qpmin=0:0:0 / qpmax=69:69:69 / qpstep=4 / cplxblur=20.0 / qblur=0.5 / ip_ratio=1.40 / pb_ratio=1.30 / aq=4:0.80 / aq-sensitivity=10.00 / aq-factor=1.00:1.00:1.00 / aq2=0 / aq3=0 Default : Да Forced : НетАудио #1: Идентификатор : 2 Формат : AC-3 Формат/Информация : Audio Coding 3 Расширение режима : CM (complete main) Параметр Endianness формата : Big Идентификатор кодека : A_AC3 Продолжительность : 1 ч. 30 м. Вид битрейта : Постоянный Битрейт : 384 Кбит/сек Каналы : 2 канала Расположение каналов : Front: L R Частота : 48,0 КГц Битовая глубина : 16 бит Метод сжатия : С потерями Размер потока : 248 Мбайт (11%) Заголовок : Dub Язык : Russian Default : Да Forced : НетАудио #2: Идентификатор : 3 Формат : AC-3 Формат/Информация : Audio Coding 3 Расширение режима : CM (complete main) Параметр Endianness формата : Big Идентификатор кодека : A_AC3 Продолжительность : 1 ч. 30 м. Вид битрейта : Постоянный Битрейт : 448 Кбит/сек Каналы : 6 каналов Расположение каналов : Front: L C R, Side: L R, LFE Частота : 48,0 КГц Битовая глубина : 16 бит Метод сжатия : С потерями Размер потока : 289 Мбайт (12%) Язык : English Default : Нет Forced : Нет 2,29 Gb 48 2

Скачать 13-й район: Кирпичные особняки через торрент

Категория: Фильмы 2387 0 Торрент добавлен: 23-04-2015 Рейтинг:

2014 / Боевик, драма, криминал / 83 мин.Название: 13-й район: Кирпичные особнякиОригинальное название: Brick MansionsВыпущено: Франция, КанадаРежиссер: Камиль ДеламаррВ ролях: Пол Уокер, Давид Белль, RZA, Гучи Бой, Каталина Денис, Аиша Исса, Карло Рота, Андреас Апергис, Ричард Земан, Роберт Мэйллет

История закручивается вокруг детектива, работающего под прикрытием, задание которого отыскать оружие массового поражения, которое украл наркоторговец из гетто под названием «кирпичные особняки». Детектив просит помощи у Лино, единственного человека знающего этот район как свои пять пальцев, причем только он не боится этого места и его обитателей.

Трейлер к фильму 13-й район: Кирпичные особняки

13-й район: Кирпичные особняки скачать торрент

Качество: BDRemux 1080pФормат: MKVВидео: 1920x1080, MPEG-4 AVC Video 24999 kbps 1080p / 24,000 fps / 16:9 / High Profile 4.1Аудио 1: Russian: 48 kHz/24-bit, DTS, 3/2 (L,C,R,l,r) + LFE ch, ~1510.00 kbps avg, Дубляж

17,56 Gb

Качество: BDRip 1080pФормат: MKVВидео: 1920x804 (2.35:1), MPEG-4 AVC Video 13,8 Мбит/с 1080p / 24,000 fps / 16:9 / High Profile 4.1 / 0.371 bit/pixАудио 1: Russian: 48 kHz/24-bitПрофессиональный (дублированный)

10,78 Gb

Качество: BDRip 720p Формат: MKVВидео: 1280x536 (2.35:1), MPEG-4 AVC Video 6 939 Кбит/с 1080p / 24,000 fps / 16:9 / High Profile 4.1 / 0.421 bit/pixАудио 1: Russian: 48 kHz/24-bitПрофессиональный (дублированный)

6,36 Gb

Качество: HDRipФормат: AVIВидео: 720x304 (2.37:1), 24 fps, XviD build 73 ~1902 kbps avg, 0.36 bit/pixelАудио: 48 kHz, AC3 Dolby Digital, 3/2 (L,C,R,l,r) + LFE ch, ~448 kbpsПрофессиональный (полное дублирование)

Вы находитесь на странице, где можете совершенно бесплатно скачать фильм 13-й район: Кирпичные особняки в хорошем качестве через торрент, в любом формате, который больше всего вам на данный момент подходит. Скачивание осуществляется через торрент, что означает максимально высокую скорость загрузки. Желаем Вам приятного просмотра!. Не забудь поделиться своими впечатлениями после того как посмотришь фильм 13-й район: Кирпичные особняки.

Информация Посетители, находящиеся в группе Гости, не могут оставлять комментарии к данной публикации.

psp-gu.ru

Кирпичные особняки через торрент в хорошем качестве бесплатно 720p

GeneralUnique ID : 219453633226960744606500016437883822541 (0xA5193B7C2EF0DB2C978B131D21A3E1CD)Complete name : C:\Фильмы и мульты\13_Raj0n.K1rp1ch2.2014.D.BDRip.720p.mkvFormat : MatroskaFormat version : Version 2File size : 4.84 GiBDuration : 1h 30mnOverall bit rate : 7 693 KbpsEncoded date : UTC 2014-08-15 15:21:14Writing application : mkvmerge v7.1.0 ('Good Love') 64bit built on Jul 27 2014 13:06:55Writing library : libebml v1.3.0 + libmatroska v1.4.1DURATION : 01:30:09.984000000NUMBER_OF_FRAMES : 169062NUMBER_OF_BYTES : 259679232_STATISTICS_WRITING_APP : mkvmerge v7.1.0 ('Good Love') 64bit built on Jul 27 2014 13:06:55_STATISTICS_WRITING_DATE_UTC : 2014-08-15 15:21:14_STATISTICS_TAGS : BPS DURATION NUMBER_OF_FRAMES NUMBER_OF_BYTES

VideoID : 1Format : AVCFormat/Info : Advanced Video CodecFormat profile : [email protected] settings, CABAC : YesFormat settings, ReFrames : 12 framesCodec ID : V_MPEG4/ISO/AVCDuration : 1h 30mnBit rate : 5 800 KbpsWidth : 1 280 pixelsHeight : 536 pixelsDisplay aspect ratio : 2.40:1Frame rate mode : ConstantFrame rate : 24.000 fpsColor space : YUVChroma subsampling : 4:2:0Bit depth : 8 bitsScan type : ProgressiveBits/(Pixel*Frame) : 0.352Stream size : 3.56 GiB (73%)Writing library : x264 core 142 r2431+42 c69a006 tMod [[email protected]:2:0 X86_64]Encoding settings : cabac=1 / ref=12 / deblock=1:-3:-3 / analyse=0x3:0x113 / me=umh / subme=11 / psy=1 / fade_compensate=0.00 / psy_rd=0.90:0.05 / mixed_ref=1 / me_range=32 / chroma_me=1 / trellis=2 / 8x8dct=1 / cqm=0 / deadzone=21,11 / fast_pskip=0 / chroma_qp_offset=-3 / threads=18 / lookahead_threads=3 / sliced_threads=0 / nr=0 / decimate=0 / interlaced=0 / bluray_compat=0 / constrained_intra=0 / fgo=0 / bframes=8 / b_pyramid=2 / b_adapt=2 / b_bias=0 / direct=3 / weightb=1 / open_gop=0 / weightp=2 / keyint=240 / keyint_min=24 / scenecut=40 / intra_refresh=0 / rc_lookahead=40 / rc=2pass / mbtree=0 / bitrate=5800 / ratetol=1.0 / qcomp=0.70 / qpmin=0:0:0 / qpmax=69:69:69 / qpstep=4 / cplxblur=20.0 / qblur=0.5 / vbv_maxrate=40000 / vbv_bufsize=30000 / nal_hrd=none / filler=0 / ip_ratio=1.20 / pb_ratio=1.20 / aq=4:0.85 / aq-sensitivity=10.00 / aq-factor=1.00:1.00:1.00 / aq2=0 / aq3=0Language : EnglishDefault : YesForced : NoDURATION : 01:30:10.000000000NUMBER_OF_FRAMES : 129840NUMBER_OF_BYTES : 3920242942_STATISTICS_WRITING_APP : mkvmerge v7.1.0 ('Good Love') 64bit built on Jul 27 2014 13:06:55_STATISTICS_WRITING_DATE_UTC : 2014-08-15 15:21:14_STATISTICS_TAGS : BPS DURATION NUMBER_OF_FRAMES NUMBER_OF_BYTES

Audio #1ID : 2Format : DTSFormat/Info : Digital Theater SystemsMode : 16Format settings, Endianness : BigCodec ID : A_DTSDuration : 1h 30mnBit rate mode : ConstantBit rate : 1 509 KbpsChannel(s) : 6 channelsChannel positions : Front: L C R, Side: L R, LFESampling rate : 48.0 KHzBit depth : 16 bitsCompression mode : LossyStream size : 973 MiB (20%)Language : EnglishDefault : NoForced : No

Audio #2ID : 3Format : AC-3Format/Info : Audio Coding 3Mode extension : CM (complete main)Format settings, Endianness : BigCodec ID : A_AC3Duration : 1h 30mnBit rate mode : ConstantBit rate : 384 KbpsChannel(s) : 2 channelsChannel positions : Front: L RSampling rate : 48.0 KHzBit depth : 16 bitsCompression mode : LossyStream size : 248 MiB (5%)Default : YesForced : No

piratbit.ru

Кирпичные особняки через торрент в хорошем качестве бесплатно DVD9

piratbit.ru

Качают: 1 [ 0 KB/s ]
Размер: 4.78 GB | Добавлен: 3 года 1 мес. назад | Торрент скачан:64 раза
Реклама Дарим 3000 рублей за регистрацию, не упусти свой шанс получить шикарный бонус!!!

06-09-2014 08:12 13-й район: Кирпичные особняки Скачать торрент  

13-й район: Кирпичные особняки / Brick Mansions«Undercover and never Outgunned» Страна: Франция, КанадаСтудия: Brick Mansions Productions Inc, Canal+ [fr], Ciné, D8, EuropaCorpЖанр: боевик, криминалГод выпуска: 2014Мировая премьера: 23 апреля 2014Российская премьера: 8 мая 2014Дата выхода DVD: 2 сентября 2014Дата выхода Blu-Ray: 2 сентября 2014Продолжительность: 01:26:33Перевод: Профессиональный (дублированный) [Лицензия]Cубтитры: нетОригинальная аудиодорожка: нетРежиссер: Камиль Деламарр / Camille DelamarreВ ролях: Пол Уокер, Давид Белль, RZA, Гучи Бой, Каталина Денис, Аиша Исса, Карло Рота, Андреас Апергис, Ричард Земан, Роберт Мэйллет...Описание: История детектива под прикрытием, ищущего оружие массового уничтожения, похищенное наркодилером гетто Кирпичные дома. Детектив обращается за помощью к знатоку района Лино, единственному человеку, который не боится бандитов.Бонусы: нет Релиз группы: Качество: DVD9 R5Формат: DVD-VideoВидео кодек: MPEG2Аудио кодек: AC3Видео: PAL 16:9 (720x576(0.605)) MPEG Video, 25,000 кадр/сек, 6276 Кбит/секАудио #1: Russian (Dolby AC3, 6 ch) 448 Кбит/сек, 48,0 КГцАудио #2: Russian (DTS, 5 ch) 768 Кбит/сек, 48,0 КГцTitle: 13-j.rajon.Kirpichnye.osobnjaki.2014.DVD9Size: 4.78 Gb ( 5 015 560,00 KBytes ) - DVD-9Enabled regions: 1, 2, 3, 4, 5, 6, 7, 8

VTS_01 :Play Length: 00:00:25+{00:00:25}+{00:00:25}Video: PAL 4:3 (720x576) VBRAudio:Russian (Dolby AC3, 6 ch)English (Dolby AC3, 6 ch)English (Dolby AC3, 6 ch)

VTS_02 :Play Length: 01:26:33Video: PAL 16:9 (720x576) VBR, Auto Pan&Scan, Auto LetterboxedAudio:Russian (Dolby AC3, 6 ch)Russian (DTS, 5 ch)

* Menus Information *

VIDEO_TS MenuVideo:PAL 16:9 (720x576) VBRAuto Pan&Scan, Auto LetterboxedEnglish Language Unit :Title Menu

VTS_01 MenuVideo:PAL 16:9 (720x576) VBRAuto LetterboxedAudio:Not specified (Dolby AC3, 2 ch)English Language Unit :Root MenuChapter (PTT) Menu

VTS_02 MenuVideo:PAL 4:3 (720x576) VBREnglish Language Unit :Root MenuAudio MenuChapter (PTT) Menu

ОбщееПолное имя : D:\Новинки 2014\13-j.rajon.Kirpichnye.osobnjaki.2014.DVD9\VIDEO_TS\VTS_02_2.VOBФормат : MPEG-PSРазмер файла : 1024 МбайтПродолжительность : 18 м.Режим общего битрейта : ПеременныйОбщий поток : 7631 Кбит/сек

ВидеоИдентификатор : 224 (0xE0)Формат : MPEG VideoВерсия формата : Version 2Профиль формата : [email protected]Параметр BVOP формата : ДаПараметр матрицы формата : ВыборочнаяПараметр GOP формата : VariableПродолжительность : 18 м.Вид битрейта : ПеременныйБитрейт : 6276 Кбит/секМаксимальный битрейт : 8000 Кбит/секШирина : 720 пикселейВысота : 576 пикселейСоотношение сторон : 16:9Частота кадров : 25,000 кадров/секСтандарт вещания : PALЦветовое пространство : YUVСубдискретизация насыщенности : 4:2:0Битовая глубина : 8 битТип развёртки : ПрогрессивнаяМетод сжатия : С потерямиБит/(Пиксели*Кадры) : 0.605Временной код первого кадра : 00:19:46:00Оригинал временного кода : Group of pictures headerРазмер потока : 842 Мбайт (82%)

Аудио #1Идентификатор : 189 (0xBD)-128 (0x80)Формат : AC-3Формат/Информация : Audio Coding 3Расширение режима : CM (complete main)Параметр Endianness формата : BigРежим смешивания : DVD-VideoПродолжительность : 18 м.Вид битрейта : ПостоянныйБитрейт : 448 Кбит/секКаналы : 6 каналовРасположение каналов : Front: L C R, Side: L R, LFEЧастота : 48,0 КГцБитовая глубина : 16 битМетод сжатия : С потерямиЗадержка видео : -736 мс.Размер потока : 60,1 Мбайт (6%)

Аудио #2Идентификатор : 189 (0xBD)-137 (0x89)Формат : DTSФормат/Информация : Digital Theater SystemsРежим : 16Параметр Endianness формата : BigРежим смешивания : DVD-VideoПродолжительность : 18 м.Вид битрейта : ПостоянныйБитрейт : 755 Кбит/секКаналы : 6 каналовРасположение каналов : Front: L C R, Side: L R, LFEЧастота : 48,0 КГцБитовая глубина : 24 битМетод сжатия : С потерямиЗадержка видео : -779 мс.Размер потока : 101 Мбайт (10%)

Скачать 13-й район: Кирпичные особняки через торрент http://i63.fastpic.ru/big/2014/0906/81/f4b622765f6f30d37fffc785d8ee5a81.png Скачать фильм 13-й район: Кирпичные особняки через торрент бесплантно в хорошем качестве Описание: История детектива под прикрытием, ищущего оружие массового уничтожения, похищенное наркодилером гетто Кирпичные дома. Детектив ... 2014-09-06 08:12 9 10 10

Loading...

Loading...

Рекламный пират

Дорогой пользователь! Огромная просьба, поблагодарите релизера, оцените раздачу и оставьте свои комментарий, если Вы скачали 13-й район: Кирпичные особняки через торрент бесплатно! Внесите свою лепту в развитие PiratBit!

Комментировать посты могут только пользователи прошедшие не сложную регистрацию

13-й район: Кирпичные особняки через торрент Скачать бесплатно 13-й район: Кирпичные особняки 13-й район: Кирпичные особняки скачать торрент 13-й район: Кирпичные особняки смотреть онлайн Cкачать фильм 13-й район: Кирпичные особняки бесплатно 13-й район: Кирпичные особняки скачать торрент в хорошем качестве 13-й район: Кирпичные особняки смотреть онлайн бесплатно в хорошем качестве

Вы не можете начинать темыВы не можете отвечать на сообщенияВы не можете редактировать свои сообщенияВы не можете удалять свои сообщенияВы не можете голосовать в опросахВы не можете прикреплять файлы к сообщениямВы можете скачивать файлы


Смотрите также