Скачать человек из стали 2013 через торрент в хорошем качестве торрент


Человек из стали (2013) (Man of Steel)

У нас родился ребенок, наш мальчик.. Первые естественные роды за многие века! И он будет свободен, свободен сам выбирать себе судьбу!!!

- Был установлен искусственный контроль за популяцией… Каждый ребёнок создавался, чтобы исполнить определённую судьбу в нашем обществе: рабочего, воина, лидера и т. д. Мы считали, что Криптон утратил нечто бесценное, возможность выбора, шанс на удачу.. Что если ребёнок мечтал о иной судьбе, а не той, которое общество уготовила для него.. Что, если ребёнок жаждал чего-то большего!! Ты воплощение нашей веры, сынок.. Ты первый, кто родился естественным образом на Криптоне, поэтому мы рисковали, чтобы спасти тебя…

Ну что ж, начнём:

Смысл, философия, драма — тут всё это присутствует, правда не в изобилие, но этого вполне достаточно… Я незнаю, как можно было бы сделать супермена супер реалистичным… Итак создатели постарались, сделали его более человечным, эмоциональным и т. д.

-Ты дашь жителям Земли ИДЕАЛ, к которому надо стремится, они воспрянут вслед за тобой!! Они будут спотыкаться, они будут падать, но со временем, они пойдут за тобой!! Со временем ты поможешь им творить чудеса!!!

Некоторым критикам не нравится концовка с Зодом. Так она здесь логична… Зод демонстративно показывал, что будет мстить и убивать, пролетая под опорами фундаментв и режа лазером здания.. . у ЧиСа первостепенная задача была остановить его, пока он спасал бы одного, погибло бы сотня… Так что всё логично и понятно.. ЧиС правильно поступил, либо он, либо его… Он ж умолял Зода, чтобы тот остановился, на что тот ответил «НИКОГДА».. ЧиС ж не просто так орал то в конце и даже заплакал!Ему было действительно жаль, что так получилось! Не смог он спасти тех людей и предотвратить это…

Вот что говорят создатели фильма по этому поводу:

«Кристофер Нолан не хотел убивать Зода. Единственное в чем сходятся Супермен с Бэтменом это то, что они никогда не убивают. В оригинальной версии сценария Зода просто отправляют обратно в Фантомную Зону. Снайдер с Гойером много обсуждали это и пытались убедить Нолана, что Зода надо убить, и сделать это должен Супермен. То что говорит Зак Снайдер: «Для меня идея состояла в том, что если это действительно история происхождения героя, то мы должны объяснить, откуда взялось правило Супермена никогда не убивать. Я подумал, что если мы поставим его в безвыходную ситуацию, заставим его убить, то это должно сработать как надо. Таким образом мы объясним, почему Супермен решил, что никогда больше не совершит убийство». Снайдер с Гойером долго разговаривали с авторами комиксов DC об этом, но те утверждали, что Супермен никогда бы не пошел на такое, на что первые спрашивали «а что, если бы у него не было выбора?». Нолан также не видел смысле даже пробовать написать такую сцену, но затем Снайдер пришел к нему с идеей лазерных лучей Зода, направленных на невинных людей и Нолан, прочитав сценарий, согласился с тем, что это может сработать.

- Я просто хотел помочь…

- Я знаю, но мы уже говорили об этом! Нельзя, чтобы люди узнали про твои способности!

- Что мне было делать, дать им умереть?

- Возможно… Когда мир узнает, на что ты способен, это всё изменит. Наши убеждения и представления о том, что такое быть человеком, всё! Ты видел реакцию мамы Пита? Она испугалась Кларк!

- Почему?

- Люди боятся того, чего они не понимают!..

Многие жалуются на то, что фильм не похож на комикс! А тот же темный рыцарь похож на комикс?? вот в том и дело, что нет(и разве он этим стал хуже — НЕТ)И здесь то же самое!!!

- Что ты чувствовал?

- Я хотел ударить его!Я безумно хотел ударить его!

- Но что потом, тебе стало бы легче?

Ты должен решить, каким человеком ты хочешь вырасти Кларк, потому что, каким бы ты не стал, плохим или хорошим, ты изменишь мир!

Ещё у людей есть жалобы на флэшбэки, так они тут стоят к месту и дополняют фильм!!! Если бы нам показать детсво в подробностях, то ушло бы минимум часа 3, не меньше!!

- Что тебе подсказывает интуиция?

- Зоду нельзя доверять, проблема в том, что я не уверен , что жителям Земли можно…

- Иногда нужно заставить себя поверить, а доверие придёт позже!

Проблема фильма в том, что многие ждали от него Темного рыцаря, Хочу вам сказать, что невозможно сделать нереального героя(Который может без труда швырнуть поезд(а в комиксах и подавно, смещать планеты(даже уничтожать звёзды лазером), который может летать со скоростью света, который практически неуязвим ну и т. д) сделать реалистичным!!!

- Ударь по панели!… Мы хотели, чтобы ты понял, что такое быть человеком, чтобы однажды, когда придёт время, ты мог стать мостом между двумя народами.. Смотри!

- Луис..

- Ты можешь спасти её, ты можешь спасти их всех!!!

Создатели изрядно постарались.. Стоит лишь взглянуть на физику полётов!!

Спецэффекты на должном уровне(а как без них, ведь это супермен!!)

-Посмотри, мы могли построить новый Криптон в этом убогом месте, но ты предпочёл людей, а не нас.. Я существую, только, чтобы защищать Криптон, это единственное предназначение, для которого я был рождён. И любые мои действия, неважно, на сколько безжалостные и жестокие, направлены на благо моего народа!А теперь, у меня нет народа!Моя душа, вот что ты забрал у меня!Я заставлю их страдать, людишки которых ты пригрел, я заберу их всех у тебя!! Если ты так сильно любишь этих людей, можешь оплакивать их!!

Я не говорю, что фильм идеальный. Да, у него есть свои мелкие глупости в сценарии, но это не портят особо сильно картину(покрайнеменее, поливать его матерными словечками ненужно, всё очень даже неплохо!!)!!

Фильм вышел достойный, со своей философией и драмой!!! Кто не ходил, советую сходить(P.S. не слушайте никогда никаких критиков, ваше мнение может кардинально отличатся от их) Как по мне, фильм удался! Моя оценка фильму 9 из 10!!

www.fast-torrent.ru

Фильм Человек из стали (2013) скачать торрент в хорошем качестве hd

Название: Человек из стали 

Оригинальное название: Man of Steel 

Год выпуска: 2013 

Страна: США, Канада, Великобритания 

Жанр: фантастика, фэнтези, боевик, приключения 

Продолжительность: 02:23:02 

Перевод: Дублированный [Лицензия] 

Субтитры: Русские, английские 

В ролях: Генри Кавилл, Эми Адамс, Майкл Шеннон, Кевин Костнер, Дайан Лэйн, Лоренс Фишбёрн, Антье Трое, Айелет Зурер, Рассел Кроу, Гарри Дж. Ленникс 

Режиссёр: Зак Снайдер 

Кино новинка «Человек из стали» от именитого Зака Снайдера – ещё одна попытка перезапуска одной из популярнейших комиксных франшиз. На сей раз, создатели попробую показать всем знакомого Супермена с другой неожиданной стороны, демонстрируя его появление, эволюцию и сложные взаимоотношения со своим альтер-эго. 

Итак, в соответствии со знакомой историей «Человек из стали» - то есть Супермен, ещё в младенчестве попадает с далекой планеты Криптон на нашу Землю. Усыновляют его Марта и Джонатан Кент и воспитывают как родного. Однако криптонец - будущий защитник и борец за справедливость Кларк Кент, все равно ощущает себя изгоем на Земле, даже невзирая на то, что ему впоследствии удается найти работу и стать востребованным журналистом. Однако невероятные способности «Человека из стали» не дают ему покоя… И только когда Супермену бросает вызов ещё один криптонец, коварный враг и злобный диктатор, известный как генерал Зод, старающийся всеми силами избавиться от Кларка, вот лишь тогда наш защитник понимает, что он единственный кто в силах заступиться за себя, и за новую, ставшую уже родной Землю… Ну а поскольку над созданием фильма поработали такие знаменитости как Зак Снайдер и Кристофер Нолан, а в числе актеров снялись такие звезды как Рассел Кроу, Кевин Костнер, Лоренс Фишберн, Генри Кэвилла и т.д., можно точно утверждать, что кино достойно Вашего внимания! Приятного просмотра!

Качество: BDRip, 1080p, H.265 

Формат: MKV 

Видео кодек: x265 

Аудио кодек: AC3 

Видео: 1920x800, 23,976 fps, HEVC, ~11,7 Mbps 

Аудио 1: Rus, 48 kHz/16-bit, AC3 5.1, ~640 kbps | Дубляж 

Аудио 2: Eng, 48 kHz/16-bit, AC3 5.1, ~640 kbps | Оригинал 

Навигация по главам: Присутствуcет

Поиск торрент раздач, пожалуйста подождите!

Информация о торрент файле

Скачать торрент Торрент: Зарегистрирован Статус: v Проверено Просмотров: 1 691 Категория: фантастика Общий размер: 13.00 GB

Поделитесь ссылкой на наш сайт с друзьями в соц.сетях ↓

mega-torrent.co

Скачать фильм Человек из стали через торрент в хорошем качестве бесплатно BDRip

Размер: 2.19 GB | Добавлен: 4 года назад | Торрент скачан:787 раз
Реклама Дарим 3000 рублей за регистрацию, не упусти свой шанс получить шикарный бонус!!!

20-10-2013 18:58 Человек из стали Скачать торрент  

Год выпуска: 2013Страна: США Великобритания КанадаЖанр: фантастика, фэнтези, боевик, приключенияПродолжительность: 02:23:03Перевод: Профессиональный (полное дублирование) |Лицензия|Режиссер: Зак СнайдерПродюсер: Кристофер Нолан, Чарльз Ровен, Дебора СнайдерСценарий: Дэвид С. Гойер, Джерри Сигел, Джо ШустерВ ролях: Генри Кавилл, Эми Адамс, Майкл Шеннон, Кевин Костнер, Дайан Лэйн, Лоренс Фишбёрн, Антье Трое, Айелет Зурер, Рассел Кроу, Гарри Дж. ЛенниксОписание: Кларк Кент/Кал-Эл — молодой человек, который чувствует себя чужаком из-за своей невероятной силы. Много лет назад он был отправлен на Землю с развитой планеты Криптон, и теперь задается вопросом: зачем? Воспитанный приемными родителями Мартой и Джонатаном Кентами, Кларк знает: обладать сверхспособностями — значит принимать сложные решения. Но когда человечество более всего нуждается в стабильности, оно подвергается нападению. Сможет ли герой восстановить мир, или воспользуется своей силой для того, чтобы окончательно его разрушить? 7.60 (240 448) Качество: BDRipФормат: AVIВидео кодек: XviDАудио кодек: AC3 Видео: 720x304 (2.37:1), 23.976 fps, XviD build 73 ~1732 kbps avg, 0.33 bit/pixel Аудио: 48 kHz, AC3 Dolby Digital, 3/2 (L,C,R,l,r) + LFE ch, ~448 kbps Скачать Человек из стали через торрент http://pic.pb.wtf/images/4/rvfl4.jpg Скачать фильм Человек из стали через торрент бесплантно в хорошем качестве Описание: Кларк Кент/Кал-Эл — молодой человек, который чувствует себя чужаком из-за своей невероятной силы. Много лет назад он был ... 2013-10-20 18:58 9.9 10 27

Loading...

Loading...

Рекламный пират

21-10-2013 05:07 Человек из стали Скачать торрент  

Странно, когда давно (но не очень), были комиксы, кино и мультики с названием "Супермен" про этого Кларка. А почему теперь оно называется "Человек из стали"?

21-10-2013 15:16 Человек из стали Скачать торрент  

akimov71 писал(а):

Странно, когда давно (но не очень), были комиксы, кино и мультики с названием "Супермен" про этого Кларка. А почему теперь оно называется "Человек из стали"?

бэтмена тоже назвали - темный рыцарь чтоб его. что супермен ,что бэтмен они и в африке супермен и бэтмен))) :cansored:

30-03-2014 17:51 Человек из стали Скачать торрент  

Только тухлоголовые америкозы могли снять такую блювотину

Дорогой пользователь! Огромная просьба, поблагодарите релизера, оцените раздачу и оставьте свои комментарий, если Вы скачали Человек из стали через торрент бесплатно! Внесите свою лепту в развитие PiratBit!

Комментировать посты могут только пользователи прошедшие не сложную регистрацию

Человек из стали через торрент Скачать бесплатно Человек из стали Человек из стали скачать торрент Человек из стали смотреть онлайн Cкачать фильм Человек из стали бесплатно Человек из стали скачать торрент в хорошем качестве Человек из стали смотреть онлайн бесплатно в хорошем качестве

Вы не можете начинать темыВы не можете отвечать на сообщенияВы не можете редактировать свои сообщенияВы не можете удалять свои сообщенияВы не можете голосовать в опросахВы не можете прикреплять файлы к сообщениямВы можете скачивать файлы

piratbit.ru

Скачать торрент Человек из стали / Man of Steel (2013) BDRip HEVC 1080p

Название: Человек из сталиОригинальное название: Man of Steel

Год выпуска: 2013Страна: США, Канада, ВеликобританияЖанр: фантастика, фэнтези, боевик, приключенияПродолжительность: 02:23:02Перевод: Дублированный [Лицензия]Субтитры: Русские, английскиеВ ролях: Генри Кавилл, Эми Адамс, Майкл Шеннон, Кевин Костнер, Дайан Лэйн, Лоренс Фишбёрн, Антье Трое, Айелет Зурер, Рассел Кроу, Гарри Дж. ЛенниксРежиссёр: Зак СнайдерОписание: Кларк Кент/Кал-Эл — молодой журналист, который чувствует себя чужаком из-за своей невероятной силы. Много лет назад он был отправлен на Землю с развитой планеты Криптон, и теперь задается вопросом: зачем? Воспитанный приемными родителями Мартой и Джонатаном Кентами, Кларк знает: обладать сверхспособностями — значит принимать сложные решения. Но когда человечество более всего нуждается в стабильности, оно подвергается нападению. Сможет ли герой восстановить мир, или воспользуется своей силой для того, чтобы окончательно его разрушить? Кларк должен стать супергероем известным как «Супермен», чтобы вселять надежду в сердца людей и защищать тех, кого он любит.Качество: BDRip, 1080p, H.265Формат: MKVВидео кодек: x265Аудио кодек: AC3Видео: 1920x800, 23,976 fps, HEVC, ~11,7 MbpsАудио 1: Rus, 48 kHz/16-bit, AC3 5.1, ~640 kbps | ДубляжАудио 2: Eng, 48 kHz/16-bit, AC3 5.1, ~640 kbps | ОригиналНавигация по главам: ПрисутствуcетАвтор рипа: Alex_A

Внимание!

- H.265/HEVC (High Efficiency Video Coding) - это новый стандарт кодирования видео. - Стандарт H.265/HEVC является логическим продолжением стандарта H.264/AVC (Advanced Video Coding), и характеризуется более эффективными алгоритмами сжатия, а также поддержкой высокого разрешения вплоть до 8K UHD (8192x4320). Первая версия стандарта H.265 была опубликована в начале 2013 года. - Рипы в фомате HEVC, в настоящее время не поддерживается большинством аппаратных проигрывателей. - Для корректного воспроизведения может потребоваться обновление ПО. - Найти подходящий плеер можно по ссылке, или поищите на этом ресурсе. - Владельцам несовместимого железа просьба не беспокоить, есть альтернативные релизы.

Медиаинфо

Общее Уникальный идентификатор : 230287699372287518614240183368569193616 (0xAD3FCC2FCF3446C3A22ECCDF9D1E0490) Полное имя : E:HEVCMan Of Steel (2013)Man.Of.Steel.2013.1080p_HEVCCLUB.mkv Формат : Matroska Версия формата : Version 4 / Version 2 Размер файла : 13,0 Гбайт Продолжительность : 2 ч. 23 м. Общий поток : 13,0 Мбит/сек Название фильма : Man of Steel (2013) - HEVC.CLUB Дата кодирования : UTC 2016-06-12 15:53:40 Программа кодирования : mkvmerge v9.2.0 ('Photograph') 64bit Библиотека кодирования : libebml v1.3.3 + libmatroska v1.4.4 Обложка : Yes Attachments : cover.jpg

Видео Идентификатор : 1 Формат : HEVC Формат/Информация : High Efficiency Video Coding Профиль формата : [email protected]@Main Идентификатор кодека : V_MPEGH/ISO/HEVC Продолжительность : 2 ч. 23 м. Битрейт : 11,7 Мбит/сек Ширина : , пикселей Высота : 800 пикселей Соотношение сторон : 2,40:1 Режим частоты кадров : Переменный Частота кадров : 23,976 кадра/сек Цветовое пространство : YUV Субдискретизация насыщенности : 4:2:0 Битовая глубина : 8 бит Бит/(Пиксели*Кадры) : 0.319 Размер потока : 11,7 Гбайт (90%) Заголовок : HEVC.CLUB Библиотека кодирования : x265 1.9+150-00ea3784bd36:[Windows][GCC 5.3.0][64 bit] 8bit Настройки программы : wpp / ctu=64 / min-cu-size=8 / max-tu-size=32 / tu-intra-depth=1 / tu-inter-depth=1 / me=3 / subme=5 / merange=92 / no-rect / no-amp / max-merge=2 / temporal-mvp / no-early-skip / rdpenalty=0 / no-tskip / no-tskip-fast / strong-intra-smoothing / no-lossless / no-cu-lossless / no-constrained-intra / no-fast-intra / open-gop / no-temporal-layers / interlace=0 / keyint=230 / min-keyint=23 / scenecut=40 / rc-lookahead=60 / lookahead-slices=5 / bframes=8 / bframe-bias=0 / b-adapt=2 / ref=5 / limit-refs=3 / no-limit-modes / weightp / weightb / aq-mode=1 / qg-size=32 / aq-strength=1.00 / cbqpoffs=0 / crqpoffs=0 / rd=3 / psy-rd=2.00 / rdoq-level=0 / psy-rdoq=0.00 / no-rd-refine / signhide / deblock=-3:-3 / sao / no-sao-non-deblock / b-pyramid / cutree / no-intra-refresh / rc=2 / pass / bitrate=11731 / qcomp=0.60 / qpmin=0 / qpmax=51 / qpstep=4 / cplxblur=20.0 / qblur=0.5 / ipratio=1.40 / pbratio=1.30 Default : Да Forced : Нет

Аудио #1 Идентификатор : 2 Формат : AC-3 Формат/Информация : Audio Coding 3 Расширение режима : CM (complete main) Параметр Endianness формата : Big Идентификатор кодека : A_AC3 Продолжительность : 2 ч. 23 м. Вид битрейта : Постоянный Битрейт : 640 Кбит/сек Каналы : 6 каналов Расположение каналов : Front: L C R, Side: L R, LFE Частота : 48,0 КГц Частота кадров : 31,250 кадров/сек (1536 spf) Метод сжатия : С потерями Размер потока : 655 Мбайт (5%) Заголовок : DUB Язык : Russian Default : Да Forced : Нет

Аудио #2 Идентификатор : 3 Формат : AC-3 Формат/Информация : Audio Coding 3 Расширение режима : CM (complete main) Параметр Endianness формата : Big Идентификатор кодека : A_AC3 Продолжительность : 2 ч. 23 м. Вид битрейта : Постоянный Битрейт : 640 Кбит/сек Каналы : 6 каналов Расположение каналов : Front: L C R, Side: L R, LFE Частота : 48,0 КГц Частота кадров : 31,250 кадров/сек (1536 spf) Метод сжатия : С потерями Размер потока : 655 Мбайт (5%) Заголовок : Original Язык : English Default : Нет Forced : Нет

Текст #1 Идентификатор : 4 Формат : UTF-8 Идентификатор кодека : S_TEXT/UTF8 Идентификатор кодека/Информация : UTF-8 Plain Text Продолжительность : 1 ч. 29 м. Битрейт : 0 бит/сек Count of elements : 6 Размер потока : 170 байт (0%) Заголовок : Forced Язык : Russian Default : Да Forced : Нет

Текст #2 Идентификатор : 5 Формат : UTF-8 Идентификатор кодека : S_TEXT/UTF8 Идентификатор кодека/Информация : UTF-8 Plain Text Продолжительность : 2 ч. 11 м. Битрейт : 69 бит/сек Count of elements : 1253 Размер потока : 67,5 Кбайт (0%) Заголовок : Blu-Ray Язык : Russian Default : Нет Forced : Нет

Текст #3 Идентификатор : 6 Формат : UTF-8 Идентификатор кодека : S_TEXT/UTF8 Идентификатор кодека/Информация : UTF-8 Plain Text Продолжительность : 2 ч. 11 м. Битрейт : 42 бит/сек Count of elements : 1306 Размер потока : 40,7 Кбайт (0%) Заголовок : Full Язык : English Default : Нет Forced : Нет

Текст #4 Идентификатор : 7 Формат : UTF-8 Идентификатор кодека : S_TEXT/UTF8 Идентификатор кодека/Информация : UTF-8 Plain Text Продолжительность : 2 ч. 11 м. Битрейт : 46 бит/сек Count of elements : 1469 Размер потока : 44,7 Кбайт (0%) Заголовок : SDH Язык : English Default : Нет Forced : Нет

Текст #5 Идентификатор : 8 Формат : UTF-8 Идентификатор кодека : S_TEXT/UTF8 Идентификатор кодека/Информация : UTF-8 Plain Text Продолжительность : 2 ч. 11 м. Битрейт : 58 бит/сек Count of elements : 1469 Размер потока : 56,2 Кбайт (0%) Заголовок : SDH-Colored Язык : English Default : Нет Forced : Нет

Меню 00:00:00.000 : en:Chapter 1 00:11:16.967 : en:Chapter 2 00:20:01.450 : en:Chapter 3 00:30:09.474 : en:Chapter 4 00:39:21.609 : en:Chapter 5 00:48:57.643 : en:Chapter 6 00:59:03.414 : en:Chapter 7 01:08:57.883 : en:Chapter 8 01:17:35.108 : en:Chapter 9 01:28:36.185 : en:Chapter 10 01:40:47.791 : en:Chapter 11 01:50:55.857 : en:Chapter 12 02:00:53.579 : en:Chapter 13 02:10:13.555 : en:Chapter 14 02:12:49.920 : en:Chapter 15

mrutor.org

Скачать фильм Человек из стали через торрент в хорошем качестве бесплатно BDRip-AVC

ОбщееУникальный идентификатор : 229443920304715165309536437761890448008 (0xAC9D4AAAB45E5ACCB24ED0271569F288)Полное имя : Chelovek.iz.Stali.2013.RUS.BDRip.x264.-HELLYWOOD.mkvФормат : MatroskaВерсия формата : Version 4 / Version 2Размер файла : 2,25 ГбайтПродолжительность : 2 ч. 23 м.Общий поток : 2255 Кбит/секНазвание фильма : HELLYWOOD - rip by potroksДата кодирования : UTC 2013-10-18 17:39:54Программа кодирования : mkvmerge v5.9.0 ('On The Loose') built on Dec 15 2012 16:39:58Библиотека кодирования : libebml v1.3.0 + libmatroska v1.4.0

ВидеоИдентификатор : 1Формат : AVCФормат/Информация : Advanced Video CodecПрофиль формата : [email protected]Параметр CABAC формата : ДаПараметр ReFrames формата : 12 кадровРежим смешивания : Header strippingИдентификатор кодека : V_MPEG4/ISO/AVCПродолжительность : 2 ч. 23 м.Битрейт : 1806 Кбит/секШирина : 960 пикселейВысота : 400 пикселейСоотношение сторон : 2,40:1Режим частоты кадров : ПостоянныйЧастота кадров : 23,976 кадра/секЦветовое пространство : YUVСубдискретизация насыщенности : 4:2:0Битовая глубина : 8 битТип развёртки : ПрогрессивнаяБит/(Пиксели*Кадры) : 0.196Размер потока : 1,76 Гбайт (78%)Заголовок : Man of SteelБиблиотека кодирования : x264 core 130 r2273 b3065e6Настройки программы : cabac=1 / ref=12 / deblock=1:-3:-3 / analyse=0x3:0x133 / me=umh / subme=9 / psy=1 / psy_rd=0.99:0.00 / mixed_ref=1 / me_range=48 / chroma_me=1 / trellis=2 / 8x8dct=1 / cqm=0 / deadzone=21,11 / fast_pskip=0 / chroma_qp_offset=-2 / threads=9 / lookahead_threads=2 / sliced_threads=0 / nr=0 / decimate=0 / interlaced=0 / bluray_compat=0 / constrained_intra=0 / bframes=13 / b_pyramid=2 / b_adapt=2 / b_bias=0 / direct=3 / weightb=1 / open_gop=0 / weightp=2 / keyint=250 / keyint_min=23 / scenecut=40 / intra_refresh=0 / rc_lookahead=60 / rc=2pass / mbtree=0 / bitrate=1806 / ratetol=1.0 / qcomp=0.70 / qpmin=0 / qpmax=69 / qpstep=4 / cplxblur=20.0 / qblur=0.5 / vbv_maxrate=20000 / vbv_bufsize=20000 / nal_hrd=none / ip_ratio=1.35 / pb_ratio=1.30 / aq=2:0.80Язык : EnglishDefault : ДаForced : Нет

АудиоИдентификатор : 2Формат : AC-3Формат/Информация : Audio Coding 3Расширение режима : CM (complete main)Параметр Endianness формата : BigРежим смешивания : Header strippingИдентификатор кодека : A_AC3Продолжительность : 2 ч. 23 м.Вид битрейта : ПостоянныйБитрейт : 448 Кбит/секКаналы : 6 каналовРасположение каналов : Front: L C R, Side: L R, LFEЧастота : 48,0 КГцБитовая глубина : 16 битМетод сжатия : С потерямиРазмер потока : 458 Мбайт (20%)Заголовок : Dub | DD 5.1 @ 448 kbps - R5Язык : RussianDefault : ДаForced : Да

Текст #1Идентификатор : 3Формат : UTF-8Идентификатор кодека : S_TEXT/UTF8Идентификатор кодека/Информация : UTF-8 Plain TextЗаголовок : SDH - ColoredЯзык : EnglishDefault : НетForced : Нет

Текст #2Идентификатор : 4Формат : UTF-8Идентификатор кодека : S_TEXT/UTF8Идентификатор кодека/Информация : UTF-8 Plain TextЗаголовок : FullЯзык : EnglishDefault : НетForced : Нет

Меню00:00:00.000 : en:00:00:00.00000:11:16.968 : en:00:11:16.96800:20:01.450 : en:00:20:01.45000:30:09.474 : en:00:30:09.47400:39:21.609 : en:00:39:21.60900:48:57.643 : en:00:48:57.64300:59:03.415 : en:00:59:03.41501:08:57.884 : en:01:08:57.88401:17:35.109 : en:01:17:35.10901:28:36.186 : en:01:28:36.18601:40:47.792 : en:01:40:47.79201:50:55.858 : en:01:50:55.85802:00:53.580 : en:02:00:53.58002:10:13.556 : en:02:10:13.55602:12:49.920 : en:02:12:49.920

piratbit.ru

Скачать фильм Человек из стали через торрент в хорошем качестве бесплатно 1080p

ОбщееУникальный идентификатор : 241068810974774492264955452226655241190 (0xB55C2A072348014DA6A6065F5A4443E6)Полное имя : E:Man.of.Steel.2013.1080p.bluray.x264.(CROP).mkvФормат : MatroskaВерсия формата : Version 4 / Version 2Размер файла : 8,78 ГбайтПродолжительность : 2 ч. 23 м.Общий поток : 8784 Кбит/секНазвание фильма : Человек из стали / Man of Steel (2013) BDRip 1080p (Crop) | DubДата кодирования : UTC 2013-10-18 18:25:50Программа кодирования : mkvmerge v6.2.0 ('Promised Land') built on Apr 28 2013 12:22:01Библиотека кодирования : libebml v1.3.0 + libmatroska v1.4.0

ВидеоИдентификатор : 1Формат : AVCФормат/Информация : Advanced Video CodecПрофиль формата : [email protected]Параметр CABAC формата : НетПараметр ReFrames формата : 4 кадраИдентификатор кодека : V_MPEG4/ISO/AVCПродолжительность : 2 ч. 23 м.Битрейт : 8004 Кбит/секШирина : 1920 пикселейВысота : 1080 пикселейСоотношение сторон : 16:9Частота кадров : 23,976 кадра/секЦветовое пространство : YUVСубдискретизация насыщенности : 4:2:0Битовая глубина : 8 битТип развёртки : ПрогрессивнаяБит/(Пиксели*Кадры) : 0.161Размер потока : 7,77 Гбайт (89%)Заголовок : Man of Steel (2013) BDRip 1080p (Crop).mkvБиблиотека кодирования : x264 core 130 r2273 b3065e6Настройки программы : cabac=0 / ref=4 / deblock=0:-1:-1 / analyse=0:0 / me=dia / subme=2 / psy=1 / psy_rd=1.00:0.15 / mixed_ref=0 / me_range=16 / chroma_me=1 / trellis=0 / 8x8dct=0 / cqm=0 / deadzone=21,11 / fast_pskip=1 / chroma_qp_offset=0 / threads=3 / lookahead_threads=1 / sliced_threads=0 / nr=0 / decimate=1 / interlaced=0 / bluray_compat=0 / constrained_intra=0 / bframes=4 / b_pyramid=2 / b_adapt=0 / b_bias=0 / direct=1 / weightb=0 / open_gop=0 / weightp=0 / keyint=240 / keyint_min=24 / scenecut=0 / intra_refresh=0 / rc=abr / mbtree=0 / bitrate=8004 / ratetol=1.0 / qcomp=0.60 / qpmin=0 / qpmax=69 / qpstep=4 / ip_ratio=1.40 / pb_ratio=1.30 / aq=0Язык : EnglishОсновные цвета : BT.709-5, BT.1361, IEC 61966-2-4, SMPTE RP177Характеристики трансфера : BT.709-5, BT.1361Коэффициенты матрицы : BT.709-5, BT.1361, IEC 61966-2-4 709, SMPTE RP177

Аудио #1Идентификатор : 2Формат : AC-3Формат/Информация : Audio Coding 3Расширение режима : CM (complete main)Идентификатор кодека : A_AC3Продолжительность : 2 ч. 23 м.Вид битрейта : ПостоянныйБитрейт : 448 Кбит/секКаналы : 6 каналовРасположение каналов : Front: L C R, Side: L R, LFEЧастота : 48,0 КГцБитовая глубина : 16 битМетод сжатия : С потерямиРазмер потока : 458 Мбайт (5%)Заголовок : DubЯзык : Russian

Аудио #2Идентификатор : 3Формат : AC-3Формат/Информация : Audio Coding 3Расширение режима : CM (complete main)Идентификатор кодека : A_AC3Продолжительность : 2 ч. 23 м.Вид битрейта : ПостоянныйБитрейт : 384 Кбит/секКаналы : 6 каналовРасположение каналов : Front: L C R, Side: L R, LFEЧастота : 48,0 КГцБитовая глубина : 16 битМетод сжатия : С потерямиРазмер потока : 393 Мбайт (4%)Заголовок : OriginalЯзык : English

Меню00:00:00.000 : en:Chapter 100:11:17.009 : en:Chapter 200:20:01.450 : en:Chapter 300:30:09.474 : en:Chapter 400:48:57.726 : en:Chapter 600:59:03.456 : en:Chapter 701:08:57.925 : en:Chapter 801:17:35.150 : en:Chapter 901:28:36.185 : en:Chapter 1001:40:47.791 : en:Chapter 1101:50:55.940 : en:Chapter 1202:00:53.621 : en:Chapter 1302:10:13.555 : en:Chapter 1402:12:49.962 : en:Chapter 15

piratbit.ru

Скачать фильм Человек из стали через торрент в хорошем качестве бесплатно 1080p

GeneralUnique ID : 226337684575304914523708789404553703042 (0xAA470D6BD5D2AEC6A89422DA5F87EE82)Complete name : I:Man.of.Steel.2013.BluRay.1080p.DTS.x264-CHD1.mkvFormat : MatroskaFormat version : Version 2File size : 14.4 GiBDuration : 2h 23mnOverall bit rate : 14.5 MbpsEncoded date : UTC 2013-10-18 16:49:15Writing application : mkvmerge v6.3.0 ('You can't stop me!') built on Jun 28 2013 20:09:41Writing library : libebml v1.3.0 + libmatroska v1.4.0

VideoID : 1Format : AVCFormat/Info : Advanced Video CodecFormat profile : [email protected] settings, CABAC : YesFormat settings, ReFrames : 5 framesCodec ID : V_MPEG4/ISO/AVCDuration : 2h 23mnBit rate : 12.5 MbpsWidth : 1 920 pixelsHeight : 800 pixelsDisplay aspect ratio : 2.40:1Frame rate : 23.976 fpsColor space : YUVChroma subsampling : 4:2:0Bit depth : 8 bitsScan type : ProgressiveBits/(Pixel*Frame) : 0.339Stream size : 12.2 GiB (84%)Title : Man.of.Steel.2013Writing library : x264 core 138 r2356 a1d3d17Encoding settings : cabac=1 / ref=5 / deblock=1:-3:-3 / analyse=0x3:0x113 / me=umh / subme=10 / psy=1 / psy_rd=1.05:0.10 / mixed_ref=1 / me_range=32 / chroma_me=1 / trellis=2 / 8x8dct=1 / cqm=0 / deadzone=21,11 / fast_pskip=0 / chroma_qp_offset=-2 / threads=18 / lookahead_threads=1 / sliced_threads=0 / nr=0 / decimate=1 / interlaced=0 / bluray_compat=0 / constrained_intra=0 / bframes=6 / b_pyramid=2 / b_adapt=2 / b_bias=0 / direct=3 / weightb=1 / open_gop=0 / weightp=2 / keyint=250 / keyint_min=23 / scenecut=40 / intra_refresh=0 / rc=2pass / mbtree=0 / bitrate=12500 / ratetol=1.0 / qcomp=0.70 / qpmin=0 / qpmax=69 / qpstep=4 / cplxblur=20.0 / qblur=0.5 / ip_ratio=1.40 / pb_ratio=1.30 / aq=2:1.00Language : EnglishDefault : YesForced : No

Audio #1ID : 2Format : AC-3Format/Info : Audio Coding 3Mode extension : CM (complete main)Codec ID : A_AC3Duration : 2h 23mnBit rate mode : ConstantBit rate : 448 KbpsChannel(s) : 6 channelsChannel positions : Front: L C R, Side: L R, LFESampling rate : 48.0 KHzBit depth : 16 bitsCompression mode : LossyStream size : 458 MiB (3%)Language : RussianDefault : YesForced : No

Audio #2ID : 3Format : DTSFormat/Info : Digital Theater SystemsCodec ID : A_DTSDuration : 2h 23mnBit rate mode : ConstantBit rate : 1 510 KbpsChannel(s) : 6 channelsChannel positions : Front: L C R, Side: L R, LFESampling rate : 48.0 KHzBit depth : 24 bitsCompression mode : LossyStream size : 1.51 GiB (10%)Language : EnglishDefault : NoForced : No

Menu00:00:00.000 : en:00:00:00.00000:11:16.967 : en:00:11:16.96700:20:01.450 : en:00:20:01.45000:30:09.474 : en:00:30:09.47400:39:21.609 : en:00:39:21.60900:48:57.643 : en:00:48:57.64300:59:03.414 : en:00:59:03.41401:08:57.883 : en:01:08:57.88301:17:35.108 : en:01:17:35.10801:28:36.185 : en:01:28:36.18501:40:47.791 : en:01:40:47.79101:50:55.857 : en:01:50:55.85702:00:53.579 : en:02:00:53.57902:10:13.555 : en:02:10:13.55502:12:49.920 : en:02:12:49.920

piratbit.ru


Смотрите также