Скачать центурион через торрент в хорошем качестве


Скачать фильм Центурион (2010) через торрент

gig-torrent.net

28 декабря 2015 08:18 Центурион / Centurion (2010) BDRip-AVC от MediaClub | D, P, A .torrent   [Информация о файле (нажмите для просмотра)] Перевод: Дублированный, профессиональный многоголосый, авторский одноголосый (Немахов)Кодек: MPEG-4 AVCКачество: BDRip-AVCВидео: MPEG-4 AVC, 3500 Кбит/с, 1024x436, 23.976 кадр/сЗвук: Аудио #1: Русский (AC3, 6 ch, 448 Кбит/с) / ДублированныйАудио #2: Русский (AC3, 6 ch, 384 Кбит/с) / Профессиональный многоголосыйАудио #3: Русский (AC3, 6 ch, 448 Кбит/с) / Авторский одноголосый (Немахов)Аудио #4: Английский (AC3, 6 ch, 448 Кбит/с)Субтитры: Русские (2 варианта), английскиеВидео: Идентификатор : 1 Формат : AVC Формат/Информация : Advanced Video Codec Профиль формата : [email protected] Параметр CABAC формата : Да Параметр ReFrames формата : 10 кадров Идентификатор кодека : V_MPEG4/ISO/AVC Продолжительность : 1 ч. 37 м. Битрейт : 3500 Кбит/сек Ширина : 1024 пикселя Высота : 436 пикселей Соотношение сторон : 2,35:1 Режим частоты кадров : Постоянный Частота кадров : 23,976 кадра/сек Цветовое пространство : YUV Субдискретизация насыщенности : 4:2:0 Битовая глубина : 8 бит Тип развёртки : Прогрессивная Бит/(Пиксели*Кадры) : 0.327 Размер потока : 2,31 Гбайт (65%) Заголовок : Centurion.2010.x264.BDRip.AVC.MediaClub Библиотека кодирования : x264 core 142 r2409+42 04be48a tMod [[email protected]:2:0 X86] Настройки программы : cabac=1 / ref=10 / deblock=1:-2:-2 / analyse=0x3:0x133 / me=umh / subme=11 / psy=1 / fade_compensate=0.00 / psy_rd=1.00:0.15 / mixed_ref=1 / me_range=32 / chroma_me=1 / trellis=2 / 8x8dct=1 / cqm=0 / deadzone=21,11 / fast_pskip=0 / chroma_qp_offset=-3 / threads=3 / lookahead_threads=1 / sliced_threads=0 / nr=0 / decimate=0 / interlaced=0 / bluray_compat=0 / constrained_intra=0 / fgo=0 / bframes=10 / b_pyramid=2 / b_adapt=2 / b_bias=0 / direct=3 / weightb=1 / open_gop=0 / weightp=2 / keyint=240 / keyint_min=23 / scenecut=40 / intra_refresh=0 / rc=2pass / mbtree=0 / bitrate=3500 / ratetol=1.0 / qcomp=0.60 / qpmin=0:0:0 / qpmax=69:69:69 / qpstep=4 / cplxblur=20.0 / qblur=0.5 / ip_ratio=1.40 / pb_ratio=1.30 / aq=1:1.00 / aq-sensitivity=10.00 / aq-factor=1.00:1.00:1.00 / aq2=0 / aq3=0 Язык : English Default : Да Forced : НетАудио #1: Идентификатор : 2 Формат : AC-3 Формат/Информация : Audio Coding 3 Расширение режима : CM (complete main) Параметр Endianness формата : Big Идентификатор кодека : A_AC3 Продолжительность : 1 ч. 37 м. Вид битрейта : Постоянный Битрейт : 448 Кбит/сек Каналы : 6 каналов Расположение каналов : Front: L C R, Side: L R, LFE Частота : 48,0 КГц Битовая глубина : 16 бит Метод сжатия : С потерями Размер потока : 312 Мбайт (9%) Заголовок : TRACK_01_DUB_RUS Язык : Russian Default : Да Forced : ДаАудио #2: Идентификатор : 3 Формат : AC-3 Формат/Информация : Audio Coding 3 Расширение режима : CM (complete main) Параметр Endianness формата : Big Идентификатор кодека : A_AC3 Продолжительность : 1 ч. 37 м. Вид битрейта : Постоянный Битрейт : 384 Кбит/сек Каналы : 6 каналов Расположение каналов : Front: L C R, Side: L R, LFE Частота : 48,0 КГц Битовая глубина : 16 бит Метод сжатия : С потерями Размер потока : 268 Мбайт (7%) Заголовок : TRACK_02_MVO_RUS Язык : Russian Default : Нет Forced : НетАудио #3: Идентификатор : 4 Формат : AC-3 Формат/Информация : Audio Coding 3 Расширение режима : CM (complete main) Параметр Endianness формата : Big Идентификатор кодека : A_AC3 Продолжительность : 1 ч. 37 м. Вид битрейта : Постоянный Битрейт : 448 Кбит/сек Каналы : 6 каналов Расположение каналов : Front: L C R, Side: L R, LFE Частота : 48,0 КГц Битовая глубина : 16 бит Метод сжатия : С потерями Размер потока : 312 Мбайт (9%) Заголовок : TRACK_03_AVO_RUS_NEMAHOV Язык : Russian Default : Нет Forced : НетАудио #4: Идентификатор : 5 Формат : AC-3 Формат/Информация : Audio Coding 3 Расширение режима : CM (complete main) Параметр Endianness формата : Big Идентификатор кодека : A_AC3 Продолжительность : 1 ч. 37 м. Вид битрейта : Постоянный Битрейт : 448 Кбит/сек Каналы : 6 каналов Расположение каналов : Front: L C R, Side: L R, LFE Частота : 48,0 КГц Битовая глубина : 16 бит Метод сжатия : С потерями Размер потока : 312 Мбайт (9%) Заголовок : TRACK_04_ORIGINAL_ENG Язык : English Default : Нет Forced : Нет 3,56 Gb 36 2
28 декабря 2015 08:18 Центурион / Centurion (2010) BDRip 1080p от HDCLUB | D, P, A .torrent   [Информация о файле (нажмите для просмотра)] Перевод: Профессиональный (полное дублирование)Субтитры: Russian (x2), EnglishФормат: MatroskaВидео: 1920x818 at 23.976 fps, [email protected], crf, ~18186 kbps avgАудио#1: Russian: 48 kHz, DTS, 3/2 (L,C,R,l,r) + LFE ch, ~1509 kbps avg |Дубляж|Аудио#2: Russian: 48 kHz, AC3, 3/2 (L,C,R,l,r) + LFE ch, ~384 kbps avg |Многоголосый закадровый|Аудио#3: Russian: 48 kHz, DTS, 3/2 (L,C,R,l,r) + LFE ch, ~1509 kbps avg |Авторский, Ю. Немахов|Аудио#4: English: 48 kHz, DTS, 3/2 (L,C,R,l,r) + LFE ch, ~1509 kbps avg 15,73 Gb 22 2
28 декабря 2015 08:18 Центурион / Centurion (2010) DVD-9 .torrent   [Информация о файле (нажмите для просмотра)] Перевод: Дублированный, профессиональный многоголосый, авторскийКодек: MPEG-2Качество: DVD-9Видео: NTSC 16:9 (720x480) VBRЗвук: Русский, английский (Dolby AC3, 2 ch)Перевод: 1. Дублированный 2. Профессиональный многоголосый 3. Авторский (Немахов) 4. Авторский (Королев) 5. АнглийскийМенюDVDInfoTitle: DATA Size: 5.70 Gb ( 5 981 104 KBytes ) - DVD-9 Enabled regions: 1, 2, 3, 4, 5, 6, 7, 8Видео: Идентификатор : 224 (0xE0) Формат : MPEG Video Версия формата : Version 2 Профиль формата : [email protected] Параметр BVOP формата : Да Параметр матрицы формата : По умолчанию Параметр GOP формата : M=3, N=12 Продолжительность : 16 м. Вид битрейта : Переменный Битрейт : 7361 Кбит/сек Максимальный битрейт : 8640 Кбит/сек Ширина : 720 пикселей Высота : 480 пикселей Соотношение сторон : 16:9 Частота кадров : 23,976 кадра/сек Стандарт вещания : NTSC Цветовое пространство : YUV Субдискретизация насыщенности : 4:2:0 Битовая глубина : 8 бит Тип развёртки : Прогрессивная Порядок развёртки : 2:3 Pulldown Метод сжатия : С потерями Бит/(Пиксели*Кадры) : 0.888 TimeCode_FirstFrame : 00:00:00;00 TimeCode_Source : Group of pictures header Размер потока : 867 Мбайт (87%)Аудио #1: Идентификатор : 189 (0xBD)-128 (0x80) Формат : AC-3 Формат/Информация : Audio Coding 3 Расширение режима : CM (complete main) Параметр Endianness формата : Big Режим смешивания : DVD-Video Продолжительность : 16 м. Вид битрейта : Постоянный Битрейт : 192 Кбит/сек Каналы : 2 канала Расположение каналов : Front: L R Частота : 48,0 КГц Битовая глубина : 16 бит Метод сжатия : С потерями Размер потока : 22,6 Мбайт (2%)Аудио #2: Идентификатор : 189 (0xBD)-129 (0x81) Формат : AC-3 Формат/Информация : Audio Coding 3 Расширение режима : CM (complete main) Параметр Endianness формата : Big Режим смешивания : DVD-Video Продолжительность : 16 м. Вид битрейта : Постоянный Битрейт : 192 Кбит/сек Каналы : 2 канала Расположение каналов : Front: L R Частота : 48,0 КГц Битовая глубина : 16 бит Метод сжатия : С потерями Размер потока : 22,6 Мбайт (2%)Аудио #3: Идентификатор : 189 (0xBD)-130 (0x82) Формат : AC-3 Формат/Информация : Audio Coding 3 Расширение режима : CM (complete main) Параметр Endianness формата : Big Режим смешивания : DVD-Video Продолжительность : 16 м. Вид битрейта : Постоянный Битрейт : 192 Кбит/сек Каналы : 2 канала Расположение каналов : Front: L R Частота : 48,0 КГц Битовая глубина : 16 бит Метод сжатия : С потерями Размер потока : 22,6 Мбайт (2%)Аудио #4: Идентификатор : 189 (0xBD)-131 (0x83) Формат : AC-3 Формат/Информация : Audio Coding 3 Расширение режима : CM (complete main) Параметр Endianness формата : Big Режим смешивания : DVD-Video Продолжительность : 16 м. Вид битрейта : Постоянный Битрейт : 192 Кбит/сек Каналы : 2 канала Расположение каналов : Front: L R Частота : 48,0 КГц Битовая глубина : 16 бит Метод сжатия : С потерями Размер потока : 22,6 Мбайт (2%)Аудио #5: Идентификатор : 189 (0xBD)-132 (0x84) Формат : AC-3 Формат/Информация : Audio Coding 3 Расширение режима : CM (complete main) Параметр Endianness формата : Big Режим смешивания : DVD-Video Продолжительность : 16 м. Вид битрейта : Постоянный Битрейт : 192 Кбит/сек Каналы : 2 канала Расположение каналов : Front: L R Частота : 48,0 КГц Битовая глубина : 16 бит Метод сжатия : С потерями Размер потока : 22,6 Мбайт (2%) 5,7 Gb 9 6
28 декабря 2015 08:18 Центурион / Centurion (2010) BDRip 720p от HQCLUB | Лицензия .torrent   [Информация о файле (нажмите для просмотра)] Перевод: Профессиональный (дублированный) + Двухголосый закадровый + ОригиналСубтитры: русские © voronine, английские|softsub SRT|Формат: MKVКачество: BDRip (источник: HDCLUB / Blu-ray RUS / 1080p)Видео: 1280x544 (2.35:1) OAR, 23.976 fps, ~5615 kbps avgАудио #1: 48 kHz,DTS, 3/2 (L,C,R,l,r) + LFE ch, ~Аудио #2: 48 kHz, AC3 Dolby Digital, 3/2 (L,C,R,l,r) + LFE ch, ~384 kbps|Двухголосый закадровый|Аудио #3: 48 kHz,DTS, 3/2 (L,C,R,l,r) + LFE ch, ~ 6,27 Gb 103 22
28 декабря 2015 08:17 Центурион / Centurion (2010) BDRip от HQCLUB | Лицензия .torrent   [Информация о файле (нажмите для просмотра)] Перевод: профессиональный (полное дублирование) (BD RUS)Субтитры: русские (2 вида), английскиеФормат: AVIКачество: BDRip (источник: HDCLUB / Blu-ray Disc RUS / 1080p)Видео: 720x304 (2.37:1), 23.976 fps, XviD build 50 ~1742 kbps avg, 0.33 bit/pixelАудио #1: (DUB) 48 kHz, AC3 Dolby Digital, 3/2 (L,C,R,l,r) + LFE ch, 384 kbps avgАудио #2: (DVO) 48 kHz, AC3 Dolby Digital, 3/2 (L,C,R,l,r) + LFE ch, 384 kbps avg (отдельно)Аудио #3: (AVO.NEMAHOV) 48 kHz, AC3 Dolby Digital, 3/2 (L,C,R,l,r) + LFE ch, 384 kbps avg (отдельно)Аудио #4: (ENG) 48 kHz, AC3 Dolby Digital, 3/2 (L,C,R,l,r) + LFE ch, 384 kbps avg (отдельно) 1,45 Gb 192 7
28 декабря 2015 08:17 Центурион / Centurion (2010) BDRip 720p от Leonardo and Scarabey | D .torrent   [Информация о файле (нажмите для просмотра)] Перевод: Профессиональный (полное дублирование) ЛицензияФормат: MKVВидео кодек: MPEG-4 AVC Аудио кодек: AC3Видео: AVC, 1280x544 (2.35:1) at 23.976 fps, AVC at 6208 kbps avg, 0.364 bit/pixelАудио: Russian: 48 kHz; AC3 5.1; 448.00 kbps avg; профессиональный, полное дублированиеСубтитры: Русские, английские 4,53 Gb 124 18
28 декабря 2015 08:17 Центурион / Centurion (2010) BDRip-AVC от ExKinoRay .torrent   [Информация о файле (нажмите для просмотра)] Перевод: Дублированный, авторский одноголосый (Ю.Немахов)Кодек: H.264Качество: BDRip-AVCВидео: MPEG-4 AVC, 2619 Кбит/с, 1024x436Звук: Русский (AC3, 6 ch, 448 Кбит/с), русский (AC3, 6 ch, 448 Кбит/с), английский (AC3, 6 ch, 448 Кбит/с)Видео: Идентификатор : 1 Формат : AVC Формат/Информация : Advanced Video Codec Профиль формата : [email protected] Параметр CABAC формата : Да Параметр ReFrames формата : 8 кадров Идентификатор кодека : V_MPEG4/ISO/AVC Продолжительность : 1 ч. 37 м. Битрейт : 2619 Кбит/сек Ширина : 1024 пикселя Высота : 436 пикселей Соотношение сторон : 2,35:1 Частота кадров : 23,976 кадра/сек Цветовое пространство : YUV Субдискретизация насыщенности : 4:2:0 Битовая глубина : 8 бит Тип развёртки : Прогрессивная Бит/(Пиксели*Кадры) : 0.245 Размер потока : 1,73 Гбайт (64%) Заголовок : ExKinoRay Библиотека кодирования : x264 core 129 r2230 1cffe9f Настройки программы : cabac=1 / ref=8 / deblock=1:-2:-2 / analyse=0x3:0x133 / me=umh / subme=11 / psy=1 / psy_rd=1.00:0.00 / mixed_ref=1 / me_range=48 / chroma_me=1 / trellis=2 / 8x8dct=1 / cqm=0 / deadzone=21,11 / fast_pskip=0 / chroma_qp_offset=-2 / threads=3 / lookahead_threads=1 / sliced_threads=0 / nr=0 / decimate=0 / interlaced=0 / bluray_compat=0 / constrained_intra=0 / bframes=8 / b_pyramid=2 / b_adapt=2 / b_bias=0 / direct=3 / weightb=1 / open_gop=0 / weightp=2 / keyint=240 / keyint_min=23 / scenecut=40 / intra_refresh=0 / rc_lookahead=40 / rc=2pass / mbtree=1 / bitrate=2619 / ratetol=1.0 / qcomp=0.60 / qpmin=10 / qpmax=51 / qpstep=4 / cplxblur=20.0 / qblur=0.5 / ip_ratio=1.40 / aq=2:1.00 Язык : EnglishАудио #1: Идентификатор : 2 Формат : AC-3 Формат/Информация : Audio Coding 3 Расширение режима : CM (complete main) Идентификатор кодека : A_AC3 Продолжительность : 1 ч. 37 м. Вид битрейта : Постоянный Битрейт : 448 Кбит/сек Каналы : 6 каналов Расположение каналов : Front: L C R, Side: L R, LFE Частота : 48,0 КГц Битовая глубина : 16 бит Метод сжатия : С потерями Размер потока : 312 Мбайт (11%) Заголовок : Дублированный Язык : RussianАудио #2: Идентификатор : 3 Формат : AC-3 Формат/Информация : Audio Coding 3 Расширение режима : CM (complete main) Идентификатор кодека : A_AC3 Продолжительность : 1 ч. 37 м. Вид битрейта : Постоянный Битрейт : 448 Кбит/сек Каналы : 6 каналов Расположение каналов : Front: L C R, Side: L R, LFE Частота : 48,0 КГц Битовая глубина : 16 бит Метод сжатия : С потерями Размер потока : 312 Мбайт (11%) Заголовок : Ю.Немахов Язык : RussianАудио #3: Идентификатор : 4 Формат : AC-3 Формат/Информация : Audio Coding 3 Расширение режима : CM (complete main) Идентификатор кодека : A_AC3 Продолжительность : 1 ч. 37 м. Вид битрейта : Постоянный Битрейт : 448 Кбит/сек Каналы : 6 каналов Расположение каналов : Front: L C R, Side: L R, LFE Частота : 48,0 КГц Битовая глубина : 16 бит Метод сжатия : С потерями Размер потока : 312 Мбайт (11%) Заголовок : английский Язык : English 2,7 Gb 105 10
28 декабря 2015 08:17 Центурион / Centurion (2010) BDRip | 3D-Video / Анаглиф .torrent   [Информация о файле (нажмите для просмотра)] Перевод: ДублированныйКачество: BDRipВидео: 720x304, XVid, 23.976 кадр/сек, ~2527 кбит/сАудио: AC-3, 384 кбит/сек, 6 канала(ов), 48,0 КГцФормат: AVI 1,99 Gb 19 6
28 декабря 2015 08:17 Центурион / Centurion (2010) BDRip от alldown | КПК .torrent   [Информация о файле (нажмите для просмотра)] Перевод: Профессиональный (дублированный)Формат: mp4Кодек: MPEG-4 (DivX)Качество: BDRip [Исходник BDRip]Видео: 640x270, 23.976 fps; ~512 kbps avgЗвук: 48000 Hz, AAC, ~96.00 kbps avgСубтитры: нет 433,94 Mb 7 1
28 декабря 2015 08:17 Центурион / Centurion (2010) BDRip от HQ-ViDEO .torrent   [Информация о файле (нажмите для просмотра)] Перевод: Русский дублированныйСубтитры: Русские (voronine, Gellard), Русские форсированные, Английские.Качество: BDRipКодек: XviD, build 50 codecВидео: 720 x 304; 23.976 fps; 1744 kbps; 0.33 bit/pixelАудио: 48 kHz; 5.1 ch; 384.00 kbps; AC3 Dolby Digital 1,46 Gb 1317 50
28 декабря 2015 08:17 Центурион / Centurion (2010) BDRip 720p от HQ-ViDEO .torrent   [Информация о файле (нажмите для просмотра)] Субтитры: Русские, Английские. 4,67 Gb 3 1
28 декабря 2015 08:17 Центурион / Centurion (2010) BDRip от HQCLUB .torrent   [Информация о файле (нажмите для просмотра)] Перевод: профессиональный (полное дублирование) + оригинал (отдельно)Субтитры: русские (перевод by Gellard), английскиеФормат: AVIКачество: BDRip (источник: HD-bits.RO / Blu-Ray Remux / 1080p)Видео: 720x304 (2.37:1), 23.976 fps, XviD build 50 ~1748 kbps avg, 0.33 bit/pixelАудио #1: (DUB) 48 kHz, AC3 Dolby Digital, 3/2 (L,C,R,l,r) + LFE ch, 384.00 kbps avgАудио #2: (ENG) 48 kHz, AC3 Dolby Digital, 3/2 (L,C,R,l,r) + LFE ch, 448.00 kbps avg (отдельно) 1,76 Gb 8 5
28 декабря 2015 08:17 Центурион / Centurion (2010) HDRip .torrent   [Информация о файле (нажмите для просмотра)] Видео: Xvid 672x288, 23.98fps, 859 kb/sАудио: MPEG Audio Layer 3 48000Hz stereo 128kbps 694,96 Mb 40 9
28 декабря 2015 08:17 Центурион / Centurion (2010) BDRip 1080p | Лицензия .torrent   [Информация о файле (нажмите для просмотра)] Перевод: Профессиональный (полное дублирование) |Лицензия|Качество: BDRip 1080pФормат: MKVВидео: 1920x816 at 23.976 fps,, ~10.1 Mbps avgСубтитры: English 8,25 Gb 6 8

Скачать фильм Центурион через торрент в хорошем качестве бесплатно BDRip

piratbit.ru

Размер: 1.45 GB | Добавлен: 6 лет 9 мес. назад | Торрент скачан:713 раз
Реклама Дарим 3000 рублей за регистрацию, не упусти свой шанс получить шикарный бонус!!!

22-01-2011 20:05 Центурион Скачать торрент  

Центурион / Centurion Год выпуска: 2010Страна: ВеликобританияЖанр: боевик, триллер, драма, приключения, военный, историяПродолжительность: 97 мин.Перевод: Профессиональный (полное дублирование)Cубтитры: отдельным файломРежиссер: Нил МаршаллПродюссер: Кристиан Колсон, Роберт Джонс, Ивана МаккиннонСценарий: Нил МаршаллБюджет: $12 000 000R-Лицам до 17 лет обязательно присутствие взрослогоМировой рейтинг IMDB 6.40 (15 517) В ролях: Майкл Фассбендер, Ольга Куриленко, Доминик Уэст, Джей Джей Филд, Андреас Висневски, Дэвид Леджено, Аксель Кэролин, Ноэль Кларк, Ли Росс, Дэвид МоррисОписание: Действие разворачивается в 117 году нашей эры. Главный герой — Квинтус Диас — единственный человек, уцелевший после налёта пиктов на пограничную римскую крепость. Вместе с легендарным Девятым легионом он отправляется на север, чтобы стереть с лица земли пиктов и уничтожить их предводителя, Горлакона.Качество видео: BDRipФормат видео: AVIВидео кодек: XviD, build 57 codecАудио кодек: AC3Видео: 720x304 (2.37:1), 23.976 fps, XviD build 50 ~1742 kbps avg, 0.33 bit/pixelАудио: 48 kHz, AC3 Dolby Digital, 3/2 (L,C,R,l,r) + LFE ch, ~384 kbpsРазмер: 1489.46 Mb (1/3 DVD-R)              Скачать Центурион через торрент http://s013.radikal.ru/i323/1101/5a/130eaf65431b.jpg Скачать фильм Центурион через торрент бесплантно в хорошем качестве Описание: Действие разворачивается в 117 году нашей эры. Главный герой — Квинтус Диас — единственный человек, уцелевший после налёта пиктов ... 2011-01-22 20:05 10 10 10

Loading...

Loading...

% Раздел Тема Автор DL S | L
Фильмы [HD 720p, 1080p] (Хороший звук DUB, MVO) [ 9.33 GB ] Новые центурионы / The New Centurions [1972 BDRip 1080p by msltel] DUB DVO AVO msltel Скачать
Фильмы [HD 720p, 1080p] (Хороший звук DUB, MVO) [ 3.97 GB ] Новые центурионы / The New Centurions [1972 BDRip 720p by msltel] DUB DVO AVO msltel Скачать
Фильмы 2010 [ 1.36 GB ] Центурион / Centurion [2010 военный история HDRip] DUB L_E_X Скачать
Фильмы [HD 720p, 1080p] (Хороший звук DUB, MVO) [ 8.25 GB ] Центурион / Centurion [Нил Маршалл/ военный история/BDRip 1080p] .::Sergey::. Скачать
Фильмы [HD 720p, 1080p] (Хороший звук DUB, MVO) [ 2.3 GB ] Центурион / Centurion [2010 военный история ... BDRip ] Venxxx Скачать
Фильмы [HD 720p, 1080p] (Хороший звук DUB, MVO) [ 4.37 GB ] Центурион / Centurion [2010 военный история ... BDRip ] Timberwolf Скачать
Фильмы (DVD фильмы) [ 5.48 GB ] Центурион / Centurion [2010 военный история DVD9 лицензия] nickson-82 Скачать

Последний раз редактировалось: aspace (2011-01-22 20:11), всего редактировалось 2 раз(а)

Рекламный пират

22-01-2011 20:07 Центурион Скачать торрент  

Кинуха не очень...

22-01-2011 20:25 Центурион Скачать торрент  

отличный фильм!!!понравился!!!спасибо

22-01-2011 20:27 Центурион Скачать торрент  

Cnopsan писал(а):

Кинуха не очень...

смотри тогда папины дочки и не трынди

22-01-2011 20:32 Центурион Скачать торрент  

да, фильм отличный! спасибо)

22-01-2011 21:22 Центурион Скачать торрент  

vitaha1982 писал(а):

Cnopsan писал(а):

Кинуха не очень...

смотри тогда папины дочки и не трынди

23-01-2011 06:51 Центурион Скачать торрент  

Капитальный фильм....,благодарю.

20-05-2013 13:52 Центурион Скачать торрент  

Будьте добры, если раздачи нет - закрывайте.

24-10-2015 19:10 Центурион Скачать торрент  

встаньте пожалуйста на раздачу((((

Pекламный агент PB

Дорогой пользователь! Огромная просьба, поблагодарите релизера, оцените раздачу и оставьте свои комментарий, если Вы скачали Центурион через торрент бесплатно! Внесите свою лепту в развитие PiratBit!

Комментировать посты могут только пользователи прошедшие не сложную регистрацию

Центурион через торрент Скачать бесплатно Центурион Центурион скачать торрент Центурион смотреть онлайн Cкачать фильм Центурион бесплатно Центурион скачать торрент в хорошем качестве Центурион смотреть онлайн бесплатно в хорошем качестве

Вы не можете начинать темыВы не можете отвечать на сообщенияВы не можете редактировать свои сообщенияВы не можете удалять свои сообщенияВы не можете голосовать в опросахВы не можете прикреплять файлы к сообщениямВы можете скачивать файлы

Скачать фильм Центурион через торрент в хорошем качестве бесплатно HDRip

piratbit.ru

Размер: 1.36 GB | Добавлен: 7 лет 2 мес. назад | Торрент скачан:3769 раз
Реклама Дарим 3000 рублей за регистрацию, не упусти свой шанс получить шикарный бонус!!!

25-08-2010 09:03 Центурион Скачать торрент  

Год выпуска: 2010Страна: ВеликобританияСлоган: «Сражайся или умри»Жанр: боевик, триллер, драма, приключения, военный, историяПродолжительность: 01:37:29Перевод: Профессиональный (полное дублирование)Режиссер: Нил Маршалл / Neil MarshallСценарий: Нил Маршалл / Neil MarshallПродюсер: Кристиан Колсон / Christian Colson, Роберт Джонс / Robert Jones, Ивана Маккиннон / Ivana Mackinnon, Дьярмуид МакКиоун / Diarmuid McKeown, Энди Стебблинг / Andy StebbingОператор: Сэм МакКёрди / Sam McCurdyКомпозитор: Илан Эшкери / Ilan EshkeriВ ролях:Майкл Фассбендер(Quintus Dias), Доминик Уэст (Virilus), Ольга Куриленко (Etain), Ноэль Кларк (Macros), Дэвид Моррисси (Bothos), Джей Джей Филд (Thax), Аксель Кэролин (Aeron), Риз Ахмед, Дэвид Леджено (Vortix), Ульрих Томсен (Gorlacon), Джеймс Карри (Maximus), Даффер Лабидин (Vigo)Дублёры: Василий Дахненко (Quintus Dias), Владимир Антоник (Virilus), Екатерина Ишимцева (Etain), Даниил Щебланов (Macros), Михаил Георгиу (Bothos), Станислав Стрелков (Thax), Леонид Белозорович (Gorlacon), Валентина Абрамова (Arian), Екатерина Африкантова (Drusilla), Василий Зотов, Борис Токарев, Игорь СтаросельцевСборы в России: $814 695Сборы в мире: $698 717Мировая премьера: 12 февраля 2010Релиз на DVD: 26 августа 2010, «Новый Диск»Описание: Действие разворачивается в 117 году нашей эры. Главный герой - Квинтус Диас - единственный человек, уцелевший после налёта пиктов на пограничную римскую крепость. Вместе с легендарным Девятым легионом он отправляется на север, чтобы стереть с лица земли пиктов и уничтожить их предводителя, Горлакона.Рейтингkinopoisk.ru: 6.431 (1 291)imdb.com: 6.80 (855)MPAA: R - Лицам до 17 лет обязательно присутствие взрослогоКачество: HDRip [Рип с BDRip 1080p]Формат: AVIВидео: MPEG4, XviD, 720x304 (2.35), 23.976 fps, 1 611 Kbps (0.307 bit/pixel)Аудио: AC-3, 48.0 KHz, 6 ch, 384 Kbps, CBRСЭМПЛ Скачать Центурион через торрент http://img821.imageshack.us/img821/8969/88742756.png Скачать фильм Центурион через торрент бесплантно в хорошем качестве Описание: Действие разворачивается в 117 году нашей эры. Главный герой - Квинтус Диас - единственный человек, уцелевший после налёта пиктов ... 2010-08-25 09:03 9.9 10 8

Loading...

Loading...

Рекламный пират

25-08-2010 09:40 Центурион Скачать торрент  

спасибо-супер

25-08-2010 17:22 Центурион Скачать торрент  

Сейчас глянем =))Спасибо! :good2:

25-08-2010 19:00 Центурион Скачать торрент  

Плиз - выложите отдельно дубляж!

25-08-2010 20:21 Центурион Скачать торрент  

за раздачку спс заценим фильму

26-08-2010 15:15 Центурион Скачать торрент  

26-08-2010 16:18 Центурион Скачать торрент  

26-08-2010 17:09 Центурион Скачать торрент  

Ах, древний Рим! Спасибо!

27-08-2010 17:39 Центурион Скачать торрент  

спасибо . фильм очень хороший!

Pекламный агент PB

27-08-2010 18:39 Центурион Скачать торрент  

Отличный исторический боевик,давно не получал такого удовольствия от просмотра исторического кино :good:

28-08-2010 18:47 Центурион Скачать торрент  

Увы, фильм средненький, даже и не знаю с каким его фильмом сравнить. Но больше всего меня разочаровала игра новоявленной звезды с Украины Ольги Куреленко. Но один раз можно посмотреть!

01-09-2010 15:38 Центурион Скачать торрент  

хм низнаю кому как но мне понравился рекомендую)

05-09-2010 04:00 Центурион Скачать торрент  

спасибо пасмотрим

06-09-2010 12:51 Центурион Скачать торрент  

Спасибо заценим

07-09-2010 10:47 Центурион Скачать торрент  

08-09-2010 00:22 Центурион Скачать торрент  

Спасибо за раздачу. А вот фильм убог, лучше "Короля Артура" пересмотреть по той же тематике, но экшн несравним.

24-09-2010 13:52 Центурион Скачать торрент  

спасибо-хороший фильмец

Pекламный агент PB

29-09-2010 21:00 Центурион Скачать торрент  

Неплохой фильм! Рекомендую всем!!!

01-10-2010 19:07 Центурион Скачать торрент  

так себе фильмец, по сравнению с робином гудом или с гладиатором трэш полный

21-11-2010 20:53 Центурион Скачать торрент  

Интересно, качну. Спасибо.

05-12-2010 18:55 Центурион Скачать торрент  

Фильм не шедевр, но вполне смотрибельный. Сюжет так себе, игра актёров тоже не ахти, зато картинка шикарная и впечатляющие батальные сцены!...Посмотрел с удовольствием! Спасибо!

14-01-2011 05:12 Центурион Скачать торрент  

мне не понравился...2 из 10

14-01-2011 23:02 Центурион Скачать торрент  

класный кинчик, спасибо.

25-01-2011 18:06 Центурион Скачать торрент  

Фильм ниче глянуть можно. Интересро закручивают и вдруг пши..ик конец!Одно слово англичане,зато природу сняли супер красиво есть что пасмотреть.

25-01-2011 18:13 Центурион Скачать торрент  

Pекламный агент PB

Дорогой пользователь! Огромная просьба, поблагодарите релизера, оцените раздачу и оставьте свои комментарий, если Вы скачали Центурион через торрент бесплатно! Внесите свою лепту в развитие PiratBit!

Комментировать посты могут только пользователи прошедшие не сложную регистрацию

Центурион через торрент Скачать бесплатно Центурион Центурион скачать торрент Центурион смотреть онлайн Cкачать фильм Центурион бесплатно Центурион скачать торрент в хорошем качестве Центурион смотреть онлайн бесплатно в хорошем качестве

Вы не можете начинать темыВы не можете отвечать на сообщенияВы не можете редактировать свои сообщенияВы не можете удалять свои сообщенияВы не можете голосовать в опросахВы не можете прикреплять файлы к сообщениямВы можете скачивать файлы

Скачать фильм Центурион через торрент в хорошем качестве бесплатно 1080p

piratbit.ru

Размер: 8.25 GB | Добавлен: 6 лет 8 мес. назад | Торрент скачан:32 раза
Реклама Дарим 3000 рублей за регистрацию, не упусти свой шанс получить шикарный бонус!!!

02-02-2011 14:26 Центурион Скачать торрент  

Уважительная просьба всем кто,собирается качать или уже качает эту раздачу,когда раздающих меньше 1-ого на протяжение 24 часовжать вот эту кнопку ==> <==,а не ждать святого духа,который встанет на раздачу.

«Сражайся или умри» Год выхода:2010Выпущено: Великобритания Жанр: боевик, триллер, драма, приключения, военный, историяПродолжительность: 01:37:29 Перевод: Дубляж, R5

Режиссер:Нил МаршаллВ Ролях:Майкл Фассбендер, Андреас Висневски, Дэвид Леджено, Аксель Кэролин, Доминик Уэст, Даффер Лабидин, Джей Джей Филд, Ли Росс, Дэвид Моррисси, Саймон Чадвик, Ольга Куриленко Описание: Действие разворачивается в 117 году нашей эры. Главный герой - Квинтус Диас - единственный человек, уцелевший после налёта пиктов на пограничную римскую крепость. Вместе с легендарным Девятым легионом он отправляется на север, чтобы стереть с лица земли пиктов и уничтожить их предводителя, Горлакона. Доп. информация: Релиз группы: Качество: BDRip 1080p Формат: MKVВидео кодек: H.26x Аудио кодек: AC3,DTS Размер:8.25 GB (8,862,879,767 байт)Видео: 1920x816 at 23.976 fps, [email protected], 2pass, ~10.1 Mbps avgАудио#1:RU:48 kHz, AC3, 3/2 (L,C,R,l,r) + LFE ch, ~448.00 kbps avg |Дубляж, R5|Аудио#2: EN:48 kHz, DTS, 3/2 (L,C,R,l,r) + LFE ch, ~1536.00 kbps avg |Оригинал|Субтитры:

Сохранены оригинальные чаптеры как на Blu-ray.

© Оформление by .::Sergey::. Скачать Центурион через торрент http://piratbit.in.ua/d7c77d24e19db5b3cd553328ece549da.jpg Скачать фильм Центурион через торрент бесплантно в хорошем качестве Описание: Действие разворачивается в 117 году нашей эры. Главный герой - Квинтус Диас - единственный человек, уцелевший после налёта пиктов ... 2011-02-02 14:26 10 10 4

Loading...

Loading...

Рекламный пират

Дорогой пользователь! Огромная просьба, поблагодарите релизера, оцените раздачу и оставьте свои комментарий, если Вы скачали Центурион через торрент бесплатно! Внесите свою лепту в развитие PiratBit!

Комментировать посты могут только пользователи прошедшие не сложную регистрацию

Центурион через торрент Скачать бесплатно Центурион Центурион скачать торрент Центурион смотреть онлайн Cкачать фильм Центурион бесплатно Центурион скачать торрент в хорошем качестве Центурион смотреть онлайн бесплатно в хорошем качестве

Вы не можете начинать темыВы не можете отвечать на сообщенияВы не можете редактировать свои сообщенияВы не можете удалять свои сообщенияВы не можете голосовать в опросахВы не можете прикреплять файлы к сообщениямВы можете скачивать файлы


Смотрите также