Скачать боевой конь через торрент в хорошем качестве


Боевой конь 2011 - скачать бесплатно через торрент в хорошем качестве. Без регистрации

www.kinovit.net

Название: Боевой конь / War Horse (2011) HDRip от Scarabey | D
Качество видео: HDRip
Перевод: Профессиональный (полное дублирование)
Видео: 720x304 (2.37:1), 23.976 fps, XviD build 50 ~1220 kbps avg, 0.23 bit/pixel
Аудио: 48 kHz, AC3 Dolby Digital, 2/0 (L,R) ch, ~192.00 kbps avg
Скачать

Загрузка начнется в течение 5 сек.

1.46 GB

Название: Боевой конь / War Horse (2011) Blu-Ray 1080p | D
Качество видео: Blu Ray Disc
Перевод: Дублированный
Видео: AVC 1920х1080, 23,976 кадр/сек, 19,300 Кбит/сек
Аудио: Испанская, 1536 Кбит/сек, 6 канала(ов), 48,0 КГцРусская, 640 Кбит/сек, 6 канала(ов), 48,0 КГцУкраиская, 640 Кбит/сек, 6 канала(ов), 48,0 КГц
Скачать

Загрузка начнется в течение 5 сек.

22.18 GB

Название: Боевой конь / War Horse (2011) BDRip-AVC | D
Качество видео: BDRip-AVC
Перевод: Дублированный
Видео: x264 768x320 (2.40:1), 23.976 fps, AVC ~1 229 kbps avg, 0.209 bit/pixel
Аудио: 48.0 KHz, AC3, 2 ch, 192 kbps
Скачать

Загрузка начнется в течение 5 сек.

1.46 GB

Название: Боевой конь / War Horse (2011) BDRip 720p от Leonardo and Scarabey | Лицензия
Качество видео: BDRip 720p Исходник: Blu-ray
Перевод: Профессиональный (полное дублирование) Лицензия
Формат видео: MKV Видео кодек: MPEG-4 AVC Аудио кодек: AC3
Видео: AVC, 1280x534 (2.40:1) at 23.976 fps, AVC at 2793 kbps avg, 0.170 bit/pixel
Аудио: Russian; AC3; 640 Kbps; CBR; 6 ch; 16 bit; DUB
Скачать

Загрузка начнется в течение 5 сек.

3.58 GB

Название: Боевой конь / War Horse (2010) BDRip 1080p
Качество видео: BDRip 1080p (исходник Blu-ray Disc)
Перевод: Дублированный
Видео: 1920x800, 9990 Кбит/сек, 23,976 кадр/сек, AVC, x264, [email protected], 2.40:1, 0.271 Бит/[Пиксели*Кадры], 2pass
Аудио: AC-3, 640 Кбит/сек, 6 канала(ов), 48,0 КГц - Дублированный / РусскийAC-3, 640 Кбит/сек, 6 канала(ов), 48,0 КГц - Оригинал / Английский
Скачать

Загрузка начнется в течение 5 сек.

11.53 GB

Название: Боевой конь / War Horse (2011) HDRip от Youtracker | Лицензия
Качество видео: HDRip / источник: BDRip 720p
Перевод: Профессиональный (дублированный)
Видео: 720x304 (2.37:1), 23.976 fps, XviD build 65, 1739 kbps avg, 0.33 bit/pixel
Аудио: AC3 Dolby Digital, 48 kHz, 6 ch, 384 kbps
Скачать

Загрузка начнется в течение 5 сек.

2.18 GB

Название: Боевой конь / War Horse (2011) BDRip-AVC | iPad
Качество видео: BDRip Исходник: Blu-ray
Перевод: Дублированный
Формат видео: MP4 (контейнер m4v)
Видео: AVC, 1024x432 (2.35:1) at 23.976 fps, AVC at 2410 kbps avg, 0.227 bit/pixel
Аудио: Русский: 48 kHz, AAC, 2ch, 165 kbps | ДублированныйАнглийский: 48 kHz, AAC, 2ch, 165 Kbps | Оригинал
Скачать

Загрузка начнется в течение 5 сек.

2.82 GB

Название: Боевой конь / War Horse (2011) DVD5
Качество видео: DVD5
Перевод: профессиональный (полное дублирование)
Видео: MPEG2 PAL 16:9 1024 (720)x576 VBR 3629 Kbps
Аудио: English (Dolby AC3, 6 ch) 384 Kbps, 48000 Hz
Скачать

Загрузка начнется в течение 5 сек.

4.37 GB

Название: Боевой конь / War Horse (2011) HDRip от Scarabey
Качество видео: HDRip
Перевод: Полное дублирование
Видео: 624x256 (2.44:1), 23.976 fps, XviD build 50 ~707 kbps avg, 0.19 bit/pixel
Аудио: 48 kHz, MPEG Layer 3, 2 ch, ~128.00 kbps avg
Скачать

Загрузка начнется в течение 5 сек.

886.85 MB

Название: Боевой конь / War Horse (2011) BDRip | КПК от Generalfilm
Качество видео: ВDRip | КПК
Видео: кодек: x264, формат: mp4, размер кадра: 480х208, битрейт: 350 кб/с
Аудио: язык: русский, перевод: Дублированный (дубляж), кодек: AAC LC 2.0, битрейт: 128 кб/с
Скачать

Загрузка начнется в течение 5 сек.

502.25 MB

Название: Боевой конь / War Horse (2011) Blu-Ray
Качество видео: BluRay
Формат видео: BDMV
Видео: H.264, 1920x1080, 23,976 fps, 25229 kbps
Аудио: English: DTS-HD MA 7.1, 48 kHz, 4859 kbps avg (DTS Core: 5.1 / 48 kHz / 1509 kbps)Spanish: DTS 5.1, 48 kHz, 1509 kbps avgRussian: AC3 5.1, 48 kHz, 640 kbps avg |Дубляж|Ukrainian: AC3 5.1, 48 kHz, 640 kbps avg |Дубляж|
Скачать

Загрузка начнется в течение 5 сек.

59.29 GB

Название: Боевой конь / War Horse (2011) BDRemux
Качество видео: BD Remux
Формат видео: MKV
Видео: AVC, 1920x1080, 25228 Kbps, 23.976 fps
Аудио: 48 kHz, AC3, 3/2 (L,C,R,l,r) + LFE ch, ~384.00 kbps avg48 kHz, AC3, 3/2 (L,C,R,l,r) + LFE ch, ~384.00 kbps avgDTS-HD 7.1, 48 kHz, 4859 kbps, 24-bit (DTS Core: 5.1, 48 kHz, 1509 kbps, 24-bit)
Скачать

Загрузка начнется в течение 5 сек.

31.46 GB

Название: Боевой конь / War Horse (2011) HDRip-AVC от R.G. AVI | AVC | Лицензия
Перевод: Профессиональный (полное дублирование) [лицензия]
Формат видео: MKV
Видео: H.264, 968x400 (2,42:1), 23,976 кадр/сек, 1488 Кбит/сек, 0.160 bit/pixel
Аудио: 48 kHz, AC3 Dolby Digital, 3/2 (L,C,R,l,r) + LFE ch, ~384.00 kbps avg | RUS48 kHz, AC3 Dolby Digital, 2/0 (L,R) ch, ~192 kbps | ENG
Скачать

Загрузка начнется в течение 5 сек.

2.12 GB

Название: Боевой конь / War Horse (2011) BDRip от HQCLUB
Качество видео: BDRip (источник: / Blu-Ray Disc / 1080p)
Перевод: Профессиональный (полное дублирование) + Оригинальная звуковая дорожка (Английский) + Украинский (полное дублирование) narod.ru
Формат видео: AVI
Видео: 720x304 (2.37:1), 23.976 fps, XviD build 72 ~2059 kbps avg, 0.39 bit/pixel
Аудио: 48 kHz, AC3 Dolby Digital, 3/2 (L,C,R,l,r) + LFE ch, ~384 kbps avg (RUS) DUB48 kHz, AC3 Dolby Digital, 3/2 (L,C,R,l,r) + LFE ch, ~384 kbps avg (ENG)48 kHz, AC3 Dolby Digital, 3/2 (L,C,R,l,r) + LFE ch, ~384 kbps avg (UKR) DUB отдельно на narod.ru
Скачать

Загрузка начнется в течение 5 сек.

2.90 GB

Название: Боевой конь / War Horse (2011) BDRip от HQ-ViDEO
Качество видео: BDRip (Исходник: Blu-ray)
Формат видео: AVI
Видео: 720 x 304; 23.976 fps; 2053 kbps; 0.391 bit/pixel; 2.35:1
Аудио: 48 kHz, AC3 Dolby Digital, 3/2 (L,C,R,l,r) + LFE ch, ~384.00 kbps avg48 kHz, AC3 Dolby Digital, 3/2 (L,C,R,l,r) + LFE ch, ~384.00 kbps avg
Скачать

Загрузка начнется в течение 5 сек.

3.30 GB

Название: Боевой конь / War Horse (2011) BDRip от HELLYWOOD
Качество видео: BDRip (источник: BitHQ / Blu-Ray / 1080p)
Перевод: Профессиональный (полное дублирование) + Оригинал (отдельно на narod.ru)
Формат видео: AVI
Видео: 720x304 (2.37:1), 23.976 fps, XviD build 65 ~1739 kbps avg, 0.33 bit/pixel
Аудио: 48 kHz, AC3 Dolby Digital, 3/2 (L,C,R,l,r) + LFE ch, ~384 kbps|DUB|48 kHz, AC3 Dolby Digital, 3/2 (L,C,R,l,r) + LFE ch, ~384 kbps|ENG| (отдельно)
Скачать

Загрузка начнется в течение 5 сек.

2.18 GB

Название: Боевой конь / War Horse (2011) BDRip 1080p от HQ-ViDEO | Лицензия
Качество видео: BDRip 1080p | исх. War Horse 2011 1080p Blu-ray AVC DTS-HD MA 7.1-CHDBits
Видео: [email protected] / 1920 x 800 / 2.40:1 / 14.2 mbps / 23,976 fps
Аудио: Русский / AC3 Dolby Digital / 48 KHz / 384 kbps / 3/2 (L,C,R,l,r) + LFE chУкраинский / AC3 Dolby Digital / 48 KHz / 384 kbps / 3/2 (L,C,R,l,r) + LFE chАнглийский / AC3 Dolby Digital / 48 KHz / 640 kbps / 3/2 (L,C,R,l,r) + LFE ch
Скачать

Загрузка начнется в течение 5 сек.

16.34 GB

Название: Боевой Конь / War Horse (2011) BDRip
Качество видео: BDRip
Перевод: дублирование
Видео: XviD 720x304 (2.37:1), 23.976 fps, XviD build 50 ~1738 kbps avg, 0.33 bit/pixel
Аудио: 48 kHz, AC3 Dolby Digital, 3/2 (L,C,R,l,r) + LFE ch, ~384 kbps
Скачать

Загрузка начнется в течение 5 сек.

2.18 GB

Название: Боевой конь / War Horse (2011) BDRip 720p от HQ-ViDEO | Лицензия
Качество видео: BDRip 720p | исх. 1080p Blu-ray AVC DTS-HD MA 7.1-HDChina
Видео: [email protected] / 1280 x 534 / 2.40:1 / 5342 kbps / 23,976 fps
Аудио: Русский / AC3 Dolby Digital / 48 KHz / 384 kbps / 3/2 (L,C,R,l,r) + LFE chУкраинский / AC3 Dolby Digital / 48 KHz / 384 kbps / 3/2 (L,C,R,l,r) + LFE chАнглийский / AC3 Dolby Digital / 48 KHz / 640 kbps / 3/2 (L,C,R,l,r) + LFE ch
Скачать

Загрузка начнется в течение 5 сек.

7.06 GB

Название: Боевой конь / War Horse (2011) BDRip от Vaippp | Лицензия
Качество видео: BDRip | исх. War Horse 2011 1080p Blu-Ray AVC DTS-HD MA 7.1-HDChina
Перевод: Профессиональный дублированный (Лицензия)
Видео: XviD / 720 x 304 / 2.37:1 / 1218 kbps / 23,976 fps
Аудио: Русский / AC3 Dolby Digital / 48 KHz / 192 kbps / 2/0 (L,R) ch
Скачать

Загрузка начнется в течение 5 сек.

1.45 GB

Название: Боевой конь / War Horse (2011) BDRip 1080p от FREEISLAND | Лицензия
Качество видео: BDRip 1080p
Перевод: Дублированное [лицензия]
Видео: H.264 1920x800 (2.40:1), 23.976 fps, AVC, 3 883 Kbps
Аудио: Russian, 384 Кбит/сек, 48,0 КГц, 16 бит, 6 каналов, AC-3
Скачать

Загрузка начнется в течение 5 сек.

4.36 GB

Название: Боевой конь / War Horse (2011) BDRip-AVC от HQ-ViDEO | Лицензия
Качество видео: BDRip-AVC | исх. War Horse 2011 1080p Blu-Ray AVC DTS-HD MA 7.1-HDChina
Перевод: Профессиональный дублированный (Лицензия) + Оригинальная дорожка (Английская) + Украинская дорожка (отдельно)
Видео: x.264 / 1056 x 440 / 2.40:1 / 2073 kbps / 23,976 fps
Аудио: Русский / AC3 Dolby Digital / 48 KHz / 384 kbps / 3/2 (L,C,R,l,r) + LFE chАнглийский / AC3 Dolby Digital / 48 KHz / 384 kbps / 3/2 (L,C,R,l,r) + LFE chУкраинский / AC3 Dolby Digital / 48 KHz / 384 kbps / 3/2 (L,C,R,l,r) + LFE ch | narod.ru
Скачать

Загрузка начнется в течение 5 сек.

2.91 GB

Название: Боевой конь / War Horse (2011) BDRip 720p от FREEISLAND | Лицензия
Качество видео: BDRip 720p
Перевод: Дублированное [лицензия]
Видео: H.264 3179 Кбит/сек, 1280*532 (2,40:1), в 23,976 кадра/сек, AVC ([email protected])
Аудио: Russian, 384 Кбит/сек, 48,0 КГц, 16 бит, 6 каналов, AC-3
Скачать

Загрузка начнется в течение 5 сек.

4.11 GB

Название: Боевой Конь / War Horse (2011) BDRip 1080p | Лицензия
Качество видео: BDRip 1080p
Видео: MPEG-4 AVC, 12.2 Мбит/с, 1920x800, 23.976 кадр/с
Аудио: Русский (AC3, 6 ch, 384 Кбит/с), украинский (AC3, 6 ch, 384 Кбит/с), английский (DTS, 6 ch, 1510 Кбит/с)
Скачать

Загрузка начнется в течение 5 сек.

14.80 GB

Название: Боевой Конь / War Horse (2011) DVD9 | Лицензия
Качество видео: DVD9
Видео: PAL 16:9 (720x576), 9800 Kbps
Аудио: Russian / Ukrainian / English / Spanish (Dolby AC3, 384 Kbps, 6 ch)
Скачать

Загрузка начнется в течение 5 сек.

7.38 GB

Скачать фильм Боевой конь через торрент в хорошем качестве бесплатно HDRip

piratbit.ru

Качают: 1 [ 0 KB/s ]
Размер: 2.18 GB | Добавлен: 5 лет 6 мес. назад | Торрент скачан:1182 раза
Реклама Дарим 3000 рублей за регистрацию, не упусти свой шанс получить шикарный бонус!!!

18-04-2012 16:27 Боевой конь Скачать торрент  

Боевой конь / War Horse

Год выпуска: 2011Страна: СШАЖанр: драма, военный, историяПродолжительность: 146 мин. Перевод:Дубляж (Лицензия)Тип релиза: Лицензия

Режиссер: Стивен СпилбергПродюссер: Кэтлин Кеннеди, Стивен Спилберг, Ревель ГестСценарий: Ли Холл, Ричард Кёртис, Майкл Морпурго

Бюджет: $66 000 000Премьера в мире: 4 декабря 2011

RG-13 детям до 13 лет просмотр не желателенМировой рейтинг IMDB 7.20 (35 287)

В ролях: Джереми Ирвин, Том Хиддлстон, Питер Муллан, Дэвид Тьюлис, Эмили Уотсон, Нильс Ареструп, Бенедикт Камбербэтч, Селин Бакенс, Тоби Кеббелл, Патрик Кеннеди, Артём Николаев, Андрей Лёвин, Валерий Кухарешин, Лариса Луппиан, Дмитрий Стрелков

Описание: «В огне войны. В любящем сердце. Живет надежда.»История невероятной дружбы мальчика Альберта и коня Джоуи.Когда начинается Первая мировая, и Джоуи отправляют вместе с кавалерийским полком на поля сражений Франции, Альберт, несмотря на слишком юный для военной службы возраст, все равно уходит на фронт, чтобы найти и спасти друга.

Качество: HDRipФормат: AVIВидео кодек: XviDАудио кодек: AC3Видео: 1 735 Kbps, 720 pixels х 304 pixels, 23.976 fps, Bits/Pixel : 0.331Аудио#1: 384 Kbps, 6 channels, 48.0 KHz

Format : AVIFormat/Info : Audio Video InterleaveFormat profile : OpenDMLFile size : 2.18 GiBDuration : 2h 26mnOverall bit rate : 2 131 KbpsGenre : Drama | History | WarWriting application : VirtualDubMod 1.5.10.2 (build 2540/release)

VideoID : 0Format : MPEG-4 VisualFormat profile : Advanced [email protected] settings, BVOP : 2Format settings, QPel : NoFormat settings, GMC : No warppointsFormat settings, Matrix : CustomCodec ID : XVIDCodec ID/Hint : XviDDuration : 2h 26mnBit rate : 1 735 KbpsWidth : 720 pixelsHeight : 304 pixelsDisplay aspect ratio : 2.35:1Frame rate : 23.976 fpsColor space : YUVChroma subsampling : 4:2:0Bit depth : 8 bitsScan type : ProgressiveCompression mode : LossyBits/(Pixel*Frame) : 0.331Stream size : 1.78 GiB (81%)Writing library : XviD 1.2.1 (UTC 2008-12-04)

AudioID : 1Format : AC-3Format/Info : Audio Coding 3Mode extension : CM (complete main)Codec ID : 2000Duration : 2h 26mnBit rate mode : ConstantBit rate : 384 KbpsChannel(s) : 6 channelsChannel positions : Front: L C R, Side: L R, LFESampling rate : 48.0 KHzBit depth : 16 bitsCompression mode : LossyStream size : 403 MiB (18%)Alignment : Split accross interleavesInterleave, duration : 42 ms (1.00 video frame)Interleave, preload duration : 500 ms

Скачать Боевой конь через торрент http://pic.pb.wtf/images/2000/b5hkhcte3w.png Скачать фильм Боевой конь через торрент бесплантно в хорошем качестве Описание: «В огне войны. В любящем сердце. Живет надежда.»История невероятной дружбы мальчика Альберта и коня Джоуи.Когда начинается Первая ... 2012-04-18 16:27 10 10 5

Loading...

Loading...

Последний раз редактировалось: Neftannik (2012-04-19 02:18), всего редактировалось 4 раз(а)

Рекламный пират

18-04-2012 16:46 Боевой конь Скачать торрент  

Спасибо, забираю

18-04-2012 17:39 Боевой конь Скачать торрент  

28-04-2012 15:28 Боевой конь Скачать торрент  

В конце я даже прослезился. Такие фильмы нужны кинематографу.

06-05-2012 16:58 Боевой конь Скачать торрент  

Margaritto писал(а):

В конце я даже прослезился. Такие фильмы нужны кинематографу.

я себя еле сдержал... и был не один такой момент ... фильм очень удачно снят!!! советую всем к просмотру независимо от возраста ...

15-05-2012 12:47 Боевой конь Скачать торрент  

Буду качать,жду наилучшего...

04-06-2012 16:54 Боевой конь Скачать торрент  

так себе , мне на один раз.

Дорогой пользователь! Огромная просьба, поблагодарите релизера, оцените раздачу и оставьте свои комментарий, если Вы скачали Боевой конь через торрент бесплатно! Внесите свою лепту в развитие PiratBit!

Комментировать посты могут только пользователи прошедшие не сложную регистрацию

Боевой конь через торрент Скачать бесплатно Боевой конь Боевой конь скачать торрент Боевой конь смотреть онлайн Cкачать фильм Боевой конь бесплатно Боевой конь скачать торрент в хорошем качестве Боевой конь смотреть онлайн бесплатно в хорошем качестве

Вы не можете начинать темыВы не можете отвечать на сообщенияВы не можете редактировать свои сообщенияВы не можете удалять свои сообщенияВы не можете голосовать в опросахВы не можете прикреплять файлы к сообщениямВы можете скачивать файлы

Скачать фильм Боевой конь через торрент в хорошем качестве бесплатно HDRip

piratbit.ru

Размер: 1.36 GB | Добавлен: 5 лет 6 мес. назад | Торрент скачан:782 раза
Реклама Дарим 3000 рублей за регистрацию, не упусти свой шанс получить шикарный бонус!!!

18-04-2012 16:57 Боевой конь Скачать торрент  

Боевой конь _ War HorseГод выпуска: 2011Страна: СШАЖанр: драма, военный, историяПродолжительность: 02:26:39Перевод: Дубляж (Лицензия)Тип релиза: ЛицензияРежиссер: Стивен СпилбергПродюссер: Кэтлин Кеннеди, Стивен Спилберг, Ревель ГестСценарий: Ли Холл, Ричард Кёртис, Майкл МорпургоБюджет: $66 000 000детям до 13 лет просмотр не желателенМировой рейтинг IMDB 7.20 (35 287) В ролях: Джереми Ирвин, Том Хиддлстон, Питер Муллан, Дэвид Тьюлис, Эмили Уотсон, Нильс Ареструп, Бенедикт Камбербэтч, Селин Бакенс, Тоби Кеббелл, Патрик Кеннеди, Артём Николаев, Андрей Лёвин, Валерий Кухарешин, Лариса Луппиан, Дмитрий СтрелковОписание: История невероятной дружбы мальчика Альберта и коня Джоуи.Когда начинается Первая мировая, и Джоуи отправляют вместе с кавалерийским полком на поля сражений Франции, Альберт, несмотря на слишком юный для военной службы возраст, все равно уходит на фронт, чтобы найти и спасти друга.Качество: HDRipФормат: AVIВидео кодек: XviDАудио кодек: AC3Видео: 720x304 (2.37:1), 23.976 fps, XviD build 50 ~938 kbpsАудио: 48 kHz, AC3 Dolby Digital, 3/2 (L,C,R,l,r) + LFE ch, ~384 kbps Скачать Боевой конь через торрент http://pic.pb.wtf/images/2000/jymlhbj657.png Скачать фильм Боевой конь через торрент бесплантно в хорошем качестве Описание: История невероятной дружбы мальчика Альберта и коня Джоуи.Когда начинается Первая мировая, и Джоуи отправляют вместе ... 2012-04-18 16:57 10 10 3

Loading...

Loading...

Рекламный пират

19-04-2012 03:53 Боевой конь Скачать торрент  

Фильм на 10 из 10!

19-04-2012 19:24 Боевой конь Скачать торрент  

Спилберг, как всегда на высоте! Фильм отличный.

17-05-2012 06:46 Боевой конь Скачать торрент  

g0sh писал(а):

Фильм на 10 из 10!

Согласен. Вроде ничего особенного, а досмотреть охота...

Дорогой пользователь! Огромная просьба, поблагодарите релизера, оцените раздачу и оставьте свои комментарий, если Вы скачали Боевой конь через торрент бесплатно! Внесите свою лепту в развитие PiratBit!

Комментировать посты могут только пользователи прошедшие не сложную регистрацию

Боевой конь через торрент Скачать бесплатно Боевой конь Боевой конь скачать торрент Боевой конь смотреть онлайн Cкачать фильм Боевой конь бесплатно Боевой конь скачать торрент в хорошем качестве Боевой конь смотреть онлайн бесплатно в хорошем качестве

Вы не можете начинать темыВы не можете отвечать на сообщенияВы не можете редактировать свои сообщенияВы не можете удалять свои сообщенияВы не можете голосовать в опросахВы не можете прикреплять файлы к сообщениямВы можете скачивать файлы

Скачать фильм Боевой конь через торрент в хорошем качестве бесплатно BDRip

piratbit.ru

Раздают: 1 [ 0 KB/s ]
Размер: 1.45 GB | Добавлен: 5 лет 5 мес. назад | Торрент скачан:1206 раз
Реклама Дарим 3000 рублей за регистрацию, не упусти свой шанс получить шикарный бонус!!!

Боевой конь / War Horse«В огне войны. В любящем сердце. Живет надежда.» Страна: СШАЖанр: драма, военный, историяГод выпуска: 2011Продолжительность: 02:26:39Перевод: Профессиональный (дублированный) | ЛицензияCубтитры: НетРежиссер: Стивен Спилберг / Steven SpielbergВ ролях: Джереми Ирвин / Jeremy Irvine (Albert Narracott), Том Хиддлстон / Tom Hiddleston (Captain Nicholls), Питер Муллан / Peter Mullan (Ted Narracott), Дэвид Тьюлис / David Thewlis (Lyons), Эмили Уотсон / Emily Watson (Rose Narracott), Нильс Ареструп / Niels Arestrup (Grandfather), Бенедикт Камбербэтч / Benedict Cumberbatch (Maj. Jamie Stewart), Селин Бакенс / Celine Buckens (Emilie), Тоби Кеббелл / Toby Kebbell (Geordie Soldier), Патрик Кеннеди / Patrick Kennedy (Lt. Charlier Waverly), Леонард Кэроу / Leonhard Carow (Michael), Дэвид Кросс / David Kross (Gunther)Описание: История невероятной дружбы мальчика Альберта и коня Джоуи.Когда начинается Первая мировая, и Джоуи отправляют вместе с кавалерийским полком на поля сражений Франции, Альберт, несмотря на слишком юный для военной службы возраст, все равно уходит на фронт, чтобы найти и спасти друга. Качество видео: BDRip | исх. War Horse 2011 1080p Blu-Ray AVC DTS-HD MA 7.1-HDChinaФормат видео: AVIВидео кодек : XviDАудио кодек : AC3Видео: XviD / 720 x 304 / 2.37:1 / 1218 kbps / 23,976 fpsАудио: Русский / AC3 Dolby Digital / 48 KHz / 192 kbps / 2/0 (L,R) chСЭМПЛ Скачать Боевой конь через торрент http://st.kinopoisk.ru/images/movies/awardOscarGray.png Скачать фильм Боевой конь через торрент бесплантно в хорошем качестве Описание: История невероятной дружбы мальчика Альберта и коня Джоуи.Когда начинается Первая мировая, и Джоуи отправляют вместе с ... 2012-05-20 05:57 10 10 6

Loading...

Loading...

Рекламный пират

Фильм просто супер)) 10 из 10

Дорогой пользователь! Огромная просьба, поблагодарите релизера, оцените раздачу и оставьте свои комментарий, если Вы скачали Боевой конь через торрент бесплатно! Внесите свою лепту в развитие PiratBit!

Комментировать посты могут только пользователи прошедшие не сложную регистрацию

Боевой конь через торрент Скачать бесплатно Боевой конь Боевой конь скачать торрент Боевой конь смотреть онлайн Cкачать фильм Боевой конь бесплатно Боевой конь скачать торрент в хорошем качестве Боевой конь смотреть онлайн бесплатно в хорошем качестве

Вы не можете начинать темыВы не можете отвечать на сообщенияВы не можете редактировать свои сообщенияВы не можете удалять свои сообщенияВы не можете голосовать в опросахВы не можете прикреплять файлы к сообщениямВы можете скачивать файлы

/ War Horse (2011) BDRemux

: : War Horse : 2011: : , , : : , , , , , , , , , , , , , , , , , , , , , , , , , , , - , , ', , ',

: , ( ), , , . . . ( ) . .

: AVC, 1920x1080, 25228 Kbps, 23.976 fps 1: 48 kHz, AC3, 3/2 (L,C,R,l,r) + LFE ch, ~384.00 kbps avg 2: 48 kHz, AC3, 3/2 (L,C,R,l,r) + LFE ch, ~384.00 kbps avg 3: DTS-HD 7.1, 48 kHz, 4859 kbps, 24-bit (DTS Core: 5.1, 48 kHz, 1509 kbps, 24-bit)

GeneralUnique ID : 199905748392043303067365515499897553224 (0x9664725A2AB9CE7C94927E0AB4D70148)Complete name : D:War.Horse.2011.BDRemux 1080p.AVC.DTS-HD.MA5.1-CHDBits.mkvFormat : MatroskaFormat version : Version 2File size : 31.5 GiBDuration : 2h 26mnOverall bit rate mode : VariableOverall bit rate : 30.7 MbpsMovie name : -Talian-Encoded date : UTC 2012-04-26 10:36:58Writing application : mkvmerge v5.3.0 ('I could have danced') built on Feb 9 2012 10:38:07Writing library : libebml v1.2.3 + libmatroska v1.3.0VideoID : 1Format : AVCFormat/Info : Advanced Video CodecFormat profile : [email protected]Format settings, CABAC : YesFormat settings, ReFrames : 4 framesCodec ID : V_MPEG4/ISO/AVCDuration : 2h 26mnBit rate mode : VariableBit rate : 27.7 MbpsMaximum bit rate : 33.0 MbpsWidth : 1 920 pixelsHeight : 1 080 pixelsDisplay aspect ratio : 16:9Frame rate : 23.976 fpsColor space : YUVChroma subsampling : 4:2:0Bit depth : 8 bitsScan type : ProgressiveBits/(Pixel*Frame) : 0.558Stream size : 28.4 GiB (90%)Title : War.Horse.2011.BluRay.1080p.AVC.DTS-HD.MA5.1-CHDBitsLanguage : EnglishDefault : NoForced : NoAudio #1ID : 2Format : AC-3Format/Info : Audio Coding 3Mode extension : CM (complete main)Format settings, Endianness : BigCodec ID : A_AC3Duration : 2h 26mnBit rate mode : ConstantBit rate : 384 KbpsChannel(s) : 6 channelsChannel positions : Front: L C R, Side: L R, LFESampling rate : 48.0 KHzBit depth : 16 bitsCompression mode : LossyStream size : 403 MiB (1%)Title : DUBLanguage : RussianDefault : NoForced : NoAudio #2ID : 3Format : AC-3Format/Info : Audio Coding 3Mode extension : CM (complete main)Format settings, Endianness : BigCodec ID : A_AC3Duration : 2h 26mnBit rate mode : ConstantBit rate : 384 KbpsChannel(s) : 6 channelsChannel positions : Front: L C R, Side: L R, LFESampling rate : 48.0 KHzBit depth : 16 bitsCompression mode : LossyStream size : 403 MiB (1%)Title : DUBLanguage : UkrainianDefault : NoForced : NoAudio #3ID : 4Format : DTSFormat/Info : Digital Theater SystemsFormat profile : MA / CoreCodec ID : A_DTSDuration : 2h 26mnBit rate mode : VariableBit rate : 1 606 Kbps / 1 510 KbpsChannel(s) : 8 channels / 6 channelsChannel positions : Front: L C R, Side: L R, Back: L R, LFE / Front: L C R, Side: L R, LFESampling rate : 48.0 KHzBit depth : 24 bitsCompression mode : Lossless / LossyTitle : OriginalLanguage : EnglishDefault : NoForced : NoText #1ID : 5Format : UTF-8Codec ID : S_TEXT/UTF8Codec ID/Info : UTF-8 Plain TextTitle : Sub-forcedLanguage : RussianDefault : YesForced : NoText #2ID : 6Format : UTF-8Codec ID : S_TEXT/UTF8Codec ID/Info : UTF-8 Plain TextTitle : Sub-full-R5Language : RussianDefault : NoForced : NoText #3ID : 7Format : UTF-8Codec ID : S_TEXT/UTF8Codec ID/Info : UTF-8 Plain TextTitle : Sub-voronineLanguage : RussianDefault : NoForced : NoText #4ID : 8Format : UTF-8Codec ID : S_TEXT/UTF8Codec ID/Info : UTF-8 Plain TextTitle : Sub-forcedLanguage : UkrainianDefault : NoForced : NoText #5ID : 9Format : UTF-8Codec ID : S_TEXT/UTF8Codec ID/Info : UTF-8 Plain TextTitle : Sub-R5Language : UkrainianDefault : NoForced : NoText #6ID : 10Format : UTF-8Codec ID : S_TEXT/UTF8Codec ID/Info : UTF-8 Plain TextTitle : SubLanguage : EnglishDefault : NoForced : NoText #7ID : 11Format : UTF-8Codec ID : S_TEXT/UTF8Codec ID/Info : UTF-8 Plain TextTitle : Sub-SDHDefault : NoForced : NoMenu00:00:00.000 : en:Chapter 100:04:31.104 : en:Chapter 200:09:31.320 : en:Chapter 300:13:57.002 : en:Chapter 400:17:45.230 : en:Chapter 500:22:29.097 : en:Chapter 600:29:16.963 : en:Chapter 700:34:17.180 : en:Chapter 800:37:49.934 : en:Chapter 900:41:30.196 : en:Chapter 1000:47:19.002 : en:Chapter 1100:51:48.814 : en:Chapter 1200:56:03.151 : en:Chapter 1301:01:19.175 : en:Chapter 1401:04:04.048 : en:Chapter 1501:05:51.030 : en:Chapter 1601:14:04.565 : en:Chapter 1701:18:01.009 : en:Chapter 1801:25:34.379 : en:Chapter 1901:29:48.007 : en:Chapter 2001:35:29.682 : en:Chapter 2101:45:23.275 : en:Chapter 2201:51:06.659 : en:Chapter 2302:00:06.157 : en:Chapter 2402:07:38.275 : en:Chapter 2502:15:12.270 : en:Chapter 2602:18:10.949 : en:Chapter 27

filmtor.net


Смотрите также