Скачать битва богов 2016 через торрент в хорошем качестве


Скачать фильм Боги Египта (2016) через торрент

17 февраля 2017 13:54 Боги Египта (2016) 4K | HEVC | UHD 2160p.mkv.torrent   [Информация о файле (нажмите для просмотра)] Видео данные: HEVC, 30.7 Mбит/с, 3840x1600Аудио данные: Русский (AC3, 6 ch, 448 Кбит/с), английский (AAC, 2 ch, 160 Кбит/с)Перевод: Дублированный [Централ Партнершип]Продолжительность: 02:07:00 27,66 Gb 14 5 7 декабря 2016 07:13 Боги Египта / Gods of Egypt (2016) BDRip-HEVC 720р от SuperMin | D .torrent   [Информация о файле (нажмите для просмотра)] Перевод: ДублированныйКодек: H.265Качество: BDRip HEVC-10bit 720р от SuperMinВидео: 1280x528 (2.40:1), 2786 kbps, 23.976 fpsЗвук: Русский (AC3, 6 ch, 640 Кбит/с) Английский (AC3, 6 ch, 640 Кбит/с)Субтитры: Русские, английские 3,61 Gb 51 4 7 декабря 2016 07:13 Боги Египта / Gods of Egypt (2016) BDRip-AVC от HELLYWOOD | Лицензия .torrent   [Информация о файле (нажмите для просмотра)] Перевод: Дубляж [Централ Партнершип]Субтитры: русские, английские (Full + SDH + SDH-Colored)Качество: BDRip-AVCФормат: MKVВидео: AVC, 1032x430 (2.40:1), 2383 kbps, 23,976 fps, 0,224 bppАудио №1: AC3 / 5.1 / 48 kHz / 448 kbps / 16 bit| RUS Аудио №2: AC3 / 5.1 / 48 kHz / 448 kbps / 16 bit| ENG 2,91 Gb 91 5 7 декабря 2016 07:13 Боги Египта / Gods of Egypt (2016) DVD5 | D .torrent   [Информация о файле (нажмите для просмотра)] Перевод: полное дублированиеКодек: MPEG2Качество: DVD5 (сжатый)Видео: PAL 16:9 ([email protected]) VBR 4968 Kbps, 25.000 fpsАудио: Dolby AC3, 6 ch, 48.0 KHz, 448 KbpsСубтитры: украинскиеПроцесс изготовления дискаИсходник: Боги Египта / Gods of Egypt (2016) DVD9 от New-Team | ЛицензияВидео: Идентификатор : 224 (0xE0) Формат : MPEG Video Версия формата : Version 2 Профиль формата : [email protected] Параметр BVOP формата : Да Параметр матрицы формата : Выборочная Параметр GOP формата : M=3, N=12 Продолжительность : 25 м. Вид битрейта : Переменный Битрейт : 4968 Кбит/сек Максимальный битрейт : 9000 Кбит/сек Ширина : 720 пикселей Высота : 576 пикселей Соотношение сторон : 16:9 Частота кадров : 25,000 кадров/сек Стандарт вещания : PAL Цветовое пространство : YUV Субдискретизация насыщенности : 4:2:0 Битовая глубина : 8 бит Тип развёртки : Прогрессивная Порядок развёртки : Нижнее поле первое Метод сжатия : С потерями Бит/(Пиксели*Кадры) : 0.479 Временной код первого кадра : 00:26:46:01 Оригинал временного кода : Group of pictures header Размер потока : 921 Мбайт (90%)Аудио: Идентификатор : 189 (0xBD)-128 (0x80) Формат : AC-3 Формат/Информация : Audio Coding 3 Расширение режима : CM (complete main) Параметр Endianness формата : Big Режим смешивания : DVD-Video Продолжительность : 25 м. Вид битрейта : Постоянный Битрейт : 448 Кбит/сек Каналы : 6 каналов Расположение каналов : Front: L C R, Side: L R, LFE Частота : 48,0 КГц Частота кадров : 31,250 кадров/сек (1536 spf) Метод сжатия : С потерями Задержка видео : -424 мс. Размер потока : 83,0 Мбайт (8%) 4,37 Gb 8 7 7 декабря 2016 07:13 Боги Египта / Gods of Egypt (2016) DVD9 от New-Team | Лицензия .torrent   [Информация о файле (нажмите для просмотра)] Перевод: Дублированный [Лицензия]Кодек: MPEG2Качество: DVD9 R5Видео: PAL 16:9 (720x576(0.692)) MPEG Video, 25,000 кадр/сек, 7171 Кбит/секЗвук: Russian (Dolby AC3, 6 ch) 448 Кбит/сек, 48,0 КГцСубтитры: украинскиеВидео: Идентификатор : 224 (0xE0) Формат : MPEG Video Версия формата : Version 2 Профиль формата : [email protected] Параметр BVOP формата : Да Параметр матрицы формата : По умолчанию Параметр GOP формата : M=3, N=12 Продолжительность : 18 м. Вид битрейта : Переменный Битрейт : 7171 Кбит/сек Максимальный битрейт : 8500 Кбит/сек Ширина : 720 пикселей Высота : 576 пикселей Соотношение сторон : 16:9 Частота кадров : 25,000 кадров/сек Стандарт вещания : PAL Цветовое пространство : YUV Субдискретизация насыщенности : 4:2:0 Битовая глубина : 8 бит Тип развёртки : Прогрессивная Метод сжатия : С потерями Бит/(Пиксели*Кадры) : 0.692 Временной код первого кадра : 00:38:08:21 Оригинал временного кода : Group of pictures header Размер потока : 944 Мбайт (92%)Аудио: Идентификатор : 189 (0xBD)-128 (0x80) Формат : AC-3 Формат/Информация : Audio Coding 3 Расширение режима : CM (complete main) Параметр Endianness формата : Big Режим смешивания : DVD-Video Продолжительность : 18 м. Вид битрейта : Постоянный Битрейт : 448 Кбит/сек Каналы : 6 каналов Расположение каналов : Front: L C R, Side: L R, LFE Частота : 48,0 КГц Частота кадров : 31,250 кадров/сек (1536 spf) Метод сжатия : С потерями Задержка видео : -664 мс. Размер потока : 59,0 Мбайт (6%) 6,74 Gb 10 3 7 декабря 2016 07:12 Боги Египта / Gods of Egypt (2016) DVD9 | Custom .torrent   [Информация о файле (нажмите для просмотра)] Перевод: ДублированныйСубтитры: Английские, русскиеВидео: MPEG-2, [email protected] (NTSC 16:9), ~6400 Кбит/секАудио 1: AC3 5.1, 448 Кбит/сек [Английский - оригинал]Аудио 2: AC3 5.1, 448 Кбит/сек[Русский - дублированный]Аудио 3: AC3 2.0, 192 Кбит/сек [Английский - описательный]Видео: Идентификатор : 224 (0xE0) Формат : MPEG Video Версия формата : Version 2 Профиль формата : [email protected] Параметр BVOP формата : Да Параметр матрицы формата : Выборочная Параметр GOP формата : Variable Продолжительность : 18 м. Вид битрейта : Переменный Битрейт : 6478 Кбит/сек Ширина : 720 пикселей Высота : 480 пикселей Соотношение сторон : 16:9 Частота кадров : 23,976 (24000/1001) кадра/сек Стандарт вещания : NTSC Цветовое пространство : YUV Субдискретизация насыщенности : 4:2:0 Битовая глубина : 8 бит Тип развёртки : Прогрессивная Порядок развёртки : 2:3 Pulldown Метод сжатия : С потерями Бит/(Пиксели*Кадры) : 0.782 Временной код первого кадра : 00:00:00:00 Оригинал временного кода : Group of pictures header Размер потока : 859 Мбайт (84%) Основные цвета : BT.601 NTSC Характеристики трансфера : BT.601 Коэффициенты матрицы : BT.601Аудио #1: Идентификатор : 189 (0xBD)-128 (0x80) Формат : AC-3 Формат/Информация : Audio Coding 3 Расширение режима : CM (complete main) Параметр Endianness формата : Big Режим смешивания : DVD-Video Продолжительность : 18 м. Вид битрейта : Постоянный Битрейт : 448 Кбит/сек Каналы : 6 каналов Расположение каналов : Front: L C R, Side: L R, LFE Частота : 48,0 КГц Частота кадров : 31,250 кадров/сек (1536 spf) Метод сжатия : С потерями Размер потока : 59,4 Мбайт (6%)Аудио #2: Идентификатор : 189 (0xBD)-129 (0x81) Формат : AC-3 Формат/Информация : Audio Coding 3 Расширение режима : CM (complete main) Параметр Endianness формата : Big Режим смешивания : DVD-Video Продолжительность : 18 м. Вид битрейта : Постоянный Битрейт : 448 Кбит/сек Каналы : 6 каналов Расположение каналов : Front: L C R, Side: L R, LFE Частота : 48,0 КГц Частота кадров : 31,250 кадров/сек (1536 spf) Метод сжатия : С потерями Размер потока : 59,4 Мбайт (6%)Аудио #3: Идентификатор : 189 (0xBD)-130 (0x82) Формат : AC-3 Формат/Информация : Audio Coding 3 Профиль формата : Dolby Digital Расширение режима : CM (complete main) Параметр Endianness формата : Big Режим смешивания : DVD-Video Продолжительность : 18 м. Вид битрейта : Постоянный Битрейт : 192 Кбит/сек Каналы : 2 канала Расположение каналов : Front: L R Частота : 48,0 КГц Частота кадров : 31,250 кадров/сек (1536 spf) Метод сжатия : С потерями Размер потока : 25,5 Мбайт (2%) 7,24 Gb 6 3 7 декабря 2016 07:12 Боги Египта / Gods of Egypt (2016) Blu-Ray 1080p от New-Team | 3D-Video | Rus Transfer | Лицензия .torrent   [Информация о файле (нажмите для просмотра)] Перевод: Дублированный [Лицензия]Кодек: MPEG-4Качество: Blu-ray Disc 1080pВидео: MPEG-4 AVC Video 12306 kbps 1080p / 23,976 fps / 16:9 / High Profile 4.1Звук: DTS-HD Master Audio Russian 2213 kbps 5.1 / 48 kHz / 2213 kbps / 16-bit (DTS Core: 5.1 / 48 kHz / 1509 kbps / 16-bit)Субтитры: нет 19,97 Gb 39 7 7 декабря 2016 07:12 Боги Египта / Gods of Egypt (2016) BDRip 720p от NNNB | 60 fps | Лицензия .torrent   [Информация о файле (нажмите для просмотра)] Перевод: ДублированныйКачество: BDRip 720p (исходник Blu-ray Disc)Контейнер: MKV (расширение файла)Видео: 1280x534, 3637 Кбит/сек, 59.940 кадр/сек, AVC, x264, [email protected], 2.40:1, 0.089 Бит/[Пиксели*Кадры] Аудио 1: AC-3, 640 Кбит/сек, 6 канала(ов), 48,0 КГц - Дублированный / РусскийАудио 2: AC-3, 640 Кбит/сек, 6 канала(ов), 48,0 КГц - Оригинал / АнглийскийСубтитры: Русские | Полные, Английские | Полные 4,45 Gb 50 3 7 декабря 2016 07:12 Боги Египта / Gods of Egypt (2016) BDRip 1080p от ExKinoRay | D, A | Лицензия .torrent   [Информация о файле (нажмите для просмотра)] Перевод: Дублированный | (Централ Партнершип) Авторский одноголосый (закадровый) | А. МатвеевКодек: MPEG-4Качество: BDRip 1080pВидео: 1920x800, 13.5 Mbit/s, 23.976 fpsЗвук: Аудио #01: 48 kHz, DTS, 5.1, 1536 Kbps | Дублированный, Лицензия (Централ Партнершип) |DTSАудио #02: 48 kHz, AC3, 5.1, 640 Kbps | Дублированный, Лицензия (Централ Партнершип) |AC3Аудио #03: 48 kHz, AC3, 5.1, 640 Kbps | Авторский одноголосый (закадровый), А. Матвеев |AC3Аудио #04: 48 kHz, DTS, 5.1, 1510 kbps | Оригинал |DTSСубтитры: Русские (full,A.Matveev), английские (srt,SDH,SDH-Colored) 15,83 Gb 42 5 7 декабря 2016 07:12 Боги Египта / Gods of Egypt (2016) BDRemux 1080p от ExKinoRay | D, A | Лицензия .torrent   [Информация о файле (нажмите для просмотра)] Перевод: Дублированный | Лицензия (Централ Партнершип) Авторский одноголосый (закадровый) | А. МатвеевКодек: MPEG-4Качество: BDRemux 1080pВидео: 1920x1080, 28.7 Mbit/s, 23.976 fpsЗвук: Аудио #01: 48 kHz, DTS-HD MA, 5.1, 2227 Kbps | Дублированный, Лицензия (Централ Партнершип) |DTS-HD MAАудио #02: 48 kHz, AC3, 5.1, 640 Kbps | Дублированный, Лицензия (Централ Партнершип) |AC3Аудио #03: 48 kHz, AC3, 5.1, 640 Kbps | Авторский одноголосый (закадровый), А. Матвеев |AC3Аудио #04: 48 kHz, DTS:X MA, 7.1, 4735 kbps | Оригинал |DTS:X MAСубтитры: Русские (full,A.Matveev), английские (srt,SDH,SDH-Colored) 32,76 Gb 12 5 7 декабря 2016 07:12 Боги Египта / Gods of Egypt (2016) BDRip 720p от ExKinoRay | D, A | Лицензия .torrent   [Информация о файле (нажмите для просмотра)] Перевод: Дублированный | (Централ Партнершип) Авторский одноголосый (закадровый) | А. МатвеевКодек: MPEG-4Качество: BDRip 720pВидео: 1280x534, 7450 Kbit/s, 23.976 fpsЗвук: Аудио #01: 48 kHz, DTS, 5.1, 1536 Kbps | Дублированный, Лицензия (Централ Партнершип) |DTSАудио #02: 48 kHz, AC3, 5.1, 640 Kbps | Дублированный, Лицензия (Централ Партнершип) |AC3Аудио #03: 48 kHz, AC3, 5.1, 640 Kbps | Авторский одноголосый (закадровый), А. Матвеев |AC3Аудио #04: 48 kHz, DTS, 5.1, 1510 kbps | Оригинал |DTSСубтитры: Русские (full,A.Matveev), английские (srt,SDH,SDH-Colored) 10,45 Gb 6 3 7 декабря 2016 07:12 Боги Египта / Gods of Egypt (2016) BDRip 720p от HELLYWOOD | D, A | Лицензия .torrent   [Информация о файле (нажмите для просмотра)] Перевод: Профессиональный (дублированный) Централ Партнершип + Авторский (одноголосый, закадровый) А.МатвеевФормат: MatroskaВидео: 1280x534 at 23.976 fps, [email protected], ~5211 kbps avgАудио#1: Russian: 48 kHz, AC3, 3/2 (L,C,R,l,r) + LFE ch, ~640.00 kbps avg |Дубляж,Аудио#2: Russian: 48 kHz, AC3, 3/2 (L,C,R,l,r) + LFE ch, ~640.00 kbps avg |Авторский,Аудио#3: English: 48 kHz, AC3, 3/2 (L,C,R,l,r) + LFE ch, ~640.00 kbps avgСубтитры: Russian (x2), English (Full + SDH + SDH-Colored)Видео: Идентификатор : 1 Формат : AVC Формат/Информация : Advanced Video Codec Профиль формата : [email protected] Параметр CABAC формата : Да Параметр ReFrames формата : 9 кадров Идентификатор кодека : V_MPEG4/ISO/AVC Продолжительность : 2 ч. 7 м. Битрейт : 5211 Кбит/сек Ширина : 1280 пикселей Высота : 534 пикселя Соотношение сторон : 2,40:1 Режим частоты кадров : Постоянный Частота кадров : 23,976 кадра/сек Цветовое пространство : YUV Субдискретизация насыщенности : 4:2:0 Битовая глубина : 8 бит Тип развёртки : Прогрессивная Бит/(Пиксели*Кадры) : 0.318 Размер потока : 4,50 Гбайт (71%) Заголовок : potroks Библиотека кодирования : x264 core 146 r2538 121396c Настройки программы : cabac=1 / ref=9 / deblock=1:-2:-2 / analyse=0x3:0x113 / me=umh / subme=11 / psy=1 / psy_rd=1.05:0.10 / mixed_ref=1 / me_range=48 / chroma_me=1 / trellis=2 / 8x8dct=1 / cqm=0 / deadzone=21,11 / fast_pskip=0 / chroma_qp_offset=-3 / threads=9 / lookahead_threads=2 / sliced_threads=0 / nr=0 / decimate=0 / interlaced=0 / bluray_compat=0 / constrained_intra=0 / bframes=10 / b_pyramid=2 / b_adapt=2 / b_bias=0 / direct=3 / weightb=1 / open_gop=0 / weightp=2 / keyint=240 / keyint_min=23 / scenecut=40 / intra_refresh=0 / rc_lookahead=60 / rc=2pass / mbtree=0 / bitrate=5211 / ratetol=1.0 / qcomp=0.70 / qpmin=0 / qpmax=69 / qpstep=4 / cplxblur=20.0 / qblur=0.5 / vbv_maxrate=14000 / vbv_bufsize=14000 / nal_hrd=none / filler=0 / ip_ratio=1.40 / pb_ratio=1.30 / aq=1:0.80 Язык : English Default : Да Forced : НетАудио #1: Идентификатор : 2 Формат : AC-3 Формат/Информация : Audio Coding 3 Расширение режима : CM (complete main) Параметр Endianness формата : Big Идентификатор кодека : A_AC3 Продолжительность : 2 ч. 7 м. Вид битрейта : Постоянный Битрейт : 640 Кбит/сек Каналы : 6 каналов Расположение каналов : Front: L C R, Side: L R, LFE Частота : 48,0 КГц Метод сжатия : С потерями Размер потока : 582 Мбайт (9%) Заголовок : Dub | DD 5.1 @ 640 kbps - Central Partnership Язык : Russian Default : Да Forced : НетАудио #2: Идентификатор : 3 Формат : AC-3 Формат/Информация : Audio Coding 3 Расширение режима : CM (complete main) Параметр Endianness формата : Big Идентификатор кодека : A_AC3 Продолжительность : 2 ч. 7 м. Вид битрейта : Постоянный Битрейт : 640 Кбит/сек Каналы : 6 каналов Расположение каналов : Front: L C R, Side: L R, LFE Частота : 48,0 КГц Метод сжатия : С потерями Размер потока : 582 Мбайт (9%) Заголовок : AVO | DD 5.1 @ 640 kbps - A.Matveev Язык : Russian Default : Нет Forced : НетАудио #3: Идентификатор : 4 Формат : AC-3 Формат/Информация : Audio Coding 3 Расширение режима : CM (complete main) Параметр Endianness формата : Big Идентификатор кодека : A_AC3 Продолжительность : 2 ч. 7 м. Вид битрейта : Постоянный Битрейт : 640 Кбит/сек Каналы : 6 каналов Расположение каналов : Front: L C R, Side: L R, LFE Частота : 48,0 КГц Метод сжатия : С потерями Размер потока : 582 Мбайт (9%) Заголовок : Original | DD 5.1 @ 640 kbps Язык : English Default : Нет Forced : Нет 6,33 Gb 6 6 7 декабря 2016 07:12 Боги Египта / Gods of Egypt (2016) HDRip-AVC | Лицензия .torrent   [Информация о файле (нажмите для просмотра)] Перевод: Профессиональный (полное дублирование)Кодек: x264Качество: HDRip-AVCВидео: 768x320 (2,40:1), 23,976 fps, ~749 kbps avg, 0.127 bit/pixelЗвук: 48/24 kHz, AAC-HE, (L,R) 3, 2 ch, ~72.00 kbps avg 742,21 Mb 92 6 7 декабря 2016 07:12 Боги Египта / Gods of Egypt (2016) BDRip HEVC 1080p | D | Лицензия .torrent   [Информация о файле (нажмите для просмотра)] Перевод: Дублированный [Лицензия]Субтитры: Русские, английскиеКачество: BDRip, 1080p, H.265Формат: MKVВидео: 1920x800, 23,976 fps, HEVC, ~7547 kbpsАудио 1: Rus, 48 kHz/16-bit, AC3 5.1, ~640 kbps | ДубляжАудио 2: Eng, 48 kHz/16-bit, AC3 5.1, ~640 kbps | ОригиналВидео: Идентификатор : 1 Формат : HEVC Формат/Информация : High Efficiency Video Coding Профиль формата : [email protected]@Main Идентификатор кодека : V_MPEGH/ISO/HEVC Битрейт : 7547 Кбит/сек Ширина : 1920 пикселей Высота : 800 пикселей Соотношение сторон : 2,40:1 Режим частоты кадров : Переменный Частота кадров в оригинале : 23,976 кадра/сек Цветовое пространство : YUV Субдискретизация насыщенности : 4:2:0 Битовая глубина : 8 бит Заголовок : HEVC.CLUB Библиотека кодирования : x265 1.9+150-00ea3784bd36:[Windows][GCC 5.3.0][64 bit] 8bit Настройки программы : wpp / ctu=64 / min-cu-size=8 / max-tu-size=32 / tu-intra-depth=1 / tu-inter-depth=1 / me=3 / subme=5 / merange=92 / no-rect / no-amp / max-merge=2 / temporal-mvp / no-early-skip / rdpenalty=0 / no-tskip / no-tskip-fast / strong-intra-smoothing / no-lossless / no-cu-lossless / no-constrained-intra / no-fast-intra / open-gop / no-temporal-layers / interlace=0 / keyint=230 / min-keyint=23 / scenecut=40 / rc-lookahead=60 / lookahead-slices=5 / bframes=8 / bframe-bias=0 / b-adapt=2 / ref=5 / limit-refs=3 / no-limit-modes / weightp / weightb / aq-mode=1 / qg-size=32 / aq-strength=1.00 / cbqpoffs=0 / crqpoffs=0 / rd=3 / psy-rd=2.00 / rdoq-level=0 / psy-rdoq=0.00 / no-rd-refine / signhide / deblock=-4:-4 / sao / no-sao-non-deblock / b-pyramid / cutree / no-intra-refresh / rc=2 / pass / bitrate=7724 / qcomp=0.60 / qpmin=0 / qpmax=51 / qpstep=4 / cplxblur=20.0 / qblur=0.5 / ipratio=1.40 / pbratio=1.30 Default : Да Forced : Нет DURATION : 02:07:02.662000000 NUMBER_OF_FRAMES : 182761 NUMBER_OF_BYTES : 7359557694 _STATISTICS_WRITING_APP : mkvmerge v9.1.0 ('Little Earthquakes') 64bit _STATISTICS_WRITING_DATE_UTC : 2016-05-26 06:04:56 _STATISTICS_TAGS : BPS DURATION NUMBER_OF_FRAMES NUMBER_OF_BYTESАудио #1: Идентификатор : 2 Формат : AC-3 Формат/Информация : Audio Coding 3 Расширение режима : CM (complete main) Параметр Endianness формата : Big Идентификатор кодека : A_AC3 Продолжительность : 2 ч. 7 м. Вид битрейта : Постоянный Битрейт : 640 Кбит/сек Каналы : 6 каналов Расположение каналов : Front: L C R, Side: L R, LFE Частота : 48,0 КГц Метод сжатия : С потерями Размер потока : 582 Мбайт (7%) Заголовок : DUB Язык : Russian Default : Да Forced : Нет DURATION : 02:07:02.624000000 NUMBER_OF_FRAMES : 238207 NUMBER_OF_BYTES : 609809920 _STATISTICS_WRITING_APP : mkvmerge v9.1.0 ('Little Earthquakes') 64bit _STATISTICS_WRITING_DATE_UTC : 2016-05-26 06:04:56 _STATISTICS_TAGS : BPS DURATION NUMBER_OF_FRAMES NUMBER_OF_BYTESАудио #2: Идентификатор : 3 Формат : AC-3 Формат/Информация : Audio Coding 3 Расширение режима : CM (complete main) Параметр Endianness формата : Big Идентификатор кодека : A_AC3 Продолжительность : 2 ч. 7 м. Вид битрейта : Постоянный Битрейт : 640 Кбит/сек Каналы : 6 каналов Расположение каналов : Front: L C R, Side: L R, LFE Частота : 48,0 КГц Метод сжатия : С потерями Размер потока : 582 Мбайт (7%) Заголовок : Original Язык : English Default : Нет Forced : Нет DURATION : 02:07:02.656000000 NUMBER_OF_FRAMES : 238208 NUMBER_OF_BYTES : 609812480 _STATISTICS_WRITING_APP : mkvmerge v9.1.0 ('Little Earthquakes') 64bit _STATISTICS_WRITING_DATE_UTC : 2016-05-26 06:04:56 _STATISTICS_TAGS : BPS DURATION NUMBER_OF_FRAMES NUMBER_OF_BYTES 7,99 Gb 35 5 7 декабря 2016 07:12 Боги Египта / Gods of Egypt (2016) BDRip HEVC 720p | D | Лицензия .torrent   [Информация о файле (нажмите для просмотра)] Перевод: Дублированный [Лицензия]Субтитры: Русские, английскиеКачество: BDRip, 720p, H.265Формат: MKVВидео: 1280x536, 23,976 fps, HEVC, ~3343 kbpsАудио 1: Rus, 48 kHz/16-bit, AC3 5.1, ~640 kbps | ДубляжАудио 2: Eng, 48 kHz/16-bit, AC3 5.1, ~640 kbps | ОригиналВидео: Идентификатор : 1 Формат : HEVC Формат/Информация : High Efficiency Video Coding Профиль формата : [email protected]@Main Идентификатор кодека : V_MPEGH/ISO/HEVC Битрейт : 3343 Кбит/сек Ширина : 1280 пикселей Высота : 536 пикселей Соотношение сторон : 2,40:1 Соотношение сторон в оригинале : 2,40:1 Режим частоты кадров : Переменный Частота кадров в оригинале : 23,976 кадра/сек Цветовое пространство : YUV Субдискретизация насыщенности : 4:2:0 Битовая глубина : 8 бит Заголовок : HEVC.CLUB Библиотека кодирования : x265 1.9+150-00ea3784bd36:[Windows][GCC 5.3.0][64 bit] 8bit Настройки программы : wpp / ctu=64 / min-cu-size=8 / max-tu-size=32 / tu-intra-depth=1 / tu-inter-depth=1 / me=3 / subme=5 / merange=92 / no-rect / no-amp / max-merge=2 / temporal-mvp / no-early-skip / rdpenalty=0 / no-tskip / no-tskip-fast / strong-intra-smoothing / no-lossless / no-cu-lossless / no-constrained-intra / no-fast-intra / open-gop / no-temporal-layers / interlace=0 / keyint=230 / min-keyint=23 / scenecut=40 / rc-lookahead=60 / lookahead-slices=0 / bframes=8 / bframe-bias=0 / b-adapt=2 / ref=5 / limit-refs=3 / no-limit-modes / weightp / weightb / aq-mode=1 / qg-size=32 / aq-strength=1.00 / cbqpoffs=0 / crqpoffs=0 / rd=3 / psy-rd=2.00 / rdoq-level=0 / psy-rdoq=0.00 / no-rd-refine / signhide / deblock=-3:-3 / sao / no-sao-non-deblock / b-pyramid / cutree / no-intra-refresh / rc=2 / pass / bitrate=3434 / qcomp=0.60 / qpmin=0 / qpmax=51 / qpstep=4 / cplxblur=20.0 / qblur=0.5 / ipratio=1.40 / pbratio=1.30 Default : Да Forced : Нет DURATION : 02:07:02.662000000 NUMBER_OF_FRAMES : 182761 NUMBER_OF_BYTES : 3272562917 _STATISTICS_WRITING_APP : mkvmerge v9.1.0 ('Little Earthquakes') 64bit _STATISTICS_WRITING_DATE_UTC : 2016-05-26 06:15:21 _STATISTICS_TAGS : BPS DURATION NUMBER_OF_FRAMES NUMBER_OF_BYTESАудио #1: Идентификатор : 2 Формат : AC-3 Формат/Информация : Audio Coding 3 Расширение режима : CM (complete main) Параметр Endianness формата : Big Идентификатор кодека : A_AC3 Продолжительность : 2 ч. 7 м. Вид битрейта : Постоянный Битрейт : 640 Кбит/сек Каналы : 6 каналов Расположение каналов : Front: L C R, Side: L R, LFE Частота : 48,0 КГц Метод сжатия : С потерями Размер потока : 582 Мбайт (14%) Заголовок : DUB Язык : Russian Default : Да Forced : Нет DURATION : 02:07:02.624000000 NUMBER_OF_FRAMES : 238207 NUMBER_OF_BYTES : 609809920 _STATISTICS_WRITING_APP : mkvmerge v9.1.0 ('Little Earthquakes') 64bit _STATISTICS_WRITING_DATE_UTC : 2016-05-26 06:15:21 _STATISTICS_TAGS : BPS DURATION NUMBER_OF_FRAMES NUMBER_OF_BYTESАудио #2: Идентификатор : 3 Формат : AC-3 Формат/Информация : Audio Coding 3 Расширение режима : CM (complete main) Параметр Endianness формата : Big Идентификатор кодека : A_AC3 Продолжительность : 2 ч. 7 м. Вид битрейта : Постоянный Битрейт : 640 Кбит/сек Каналы : 6 каналов Расположение каналов : Front: L C R, Side: L R, LFE Частота : 48,0 КГц Метод сжатия : С потерями Размер потока : 582 Мбайт (14%) Заголовок : Original Default : Нет Forced : Нет DURATION : 02:07:02.656000000 NUMBER_OF_FRAMES : 238208 NUMBER_OF_BYTES : 609812480 _STATISTICS_WRITING_APP : mkvmerge v9.1.0 ('Little Earthquakes') 64bit _STATISTICS_WRITING_DATE_UTC : 2016-05-26 06:15:21 _STATISTICS_TAGS : BPS DURATION NUMBER_OF_FRAMES NUMBER_OF_BYTES 4,19 Gb 36 9 7 декабря 2016 07:12 Боги Египта / Gods of Egypt (2016) BDRip 720p от Scarabey | Лицензия .torrent   [Информация о файле (нажмите для просмотра)] Перевод: Профессиональный (полное дублирование) [Лицензия]Субтитры: нетВидео: 1280x534, 23,976 fps, AVC ~6923 kbps avgАудио: 48 kHz, AC3 Dolby Digital, 3/2 (L,C,R,l,r) + LFE ch, ~640 kbps 7 Gb 35 5 7 декабря 2016 07:12 Боги Египта / Gods of Egypt (2016) HDRip от AleksSin | Лицензия .torrent   [Информация о файле (нажмите для просмотра)] Перевод: Профессиональный (дублированный) - ЛицензияКодек: AVI (XviD)Качество: HDRipВидео: 720x304 (2.37:1), 23.976 fps, XviD build 73 ~1998 kbps avg, 0.38 bit/pixelЗвук: 48 kHz, AC3 Dolby Digital, 3/2 (L,C,R,l,r) + LFE ch, ~448 kbpsСубтитры: нет 2,18 Gb 24 4 7 декабря 2016 07:12 Боги Египта / Gods of Egypt (2016) BDRip 1080p от ExKinoRay | Лицензия .torrent   [Информация о файле (нажмите для просмотра)] Перевод: Дублированный (Централ Партнершип)Кодек: MPEG-4Качество: BDRip 1080pВидео: 1920x800, 13.5 Mbit/s, 23.976 fpsЗвук: Аудио #01: 48 kHz, DTS, 5.1, 1536 Kbps | Дублированный, Лицензия (Централ Партнершип) |DTSАудио #02: 48 kHz, AC3, 5.1, 640 Kbps | Дублированный, Лицензия (Централ Партнершип) |AC3Аудио #03: 48 kHz, DTS, 5.1, 1510 kbps | Оригинал |DTSСубтитры: Русские, английские (srt,SDH) 15,26 Gb 6 3 7 декабря 2016 07:12 Боги Египта / Gods of Egypt (2016) HDRip от Scarabey | Лицензия .torrent   [Информация о файле (нажмите для просмотра)] Перевод: Профессиональный (дублированный) - ЛицензияВидео: 720x304 (2.37:1), 23.976 fps, XviD build 73 ~1434 kbps avg, 0.27 bit/pixelАудио: 48 kHz, AC3 Dolby Digital, 2/0 (L,R) ch, ~192.00 kbps avg 1,45 Gb 783 8 7 декабря 2016 07:12 Боги Египта / Gods of Egypt (2016) BDRip-AVC от New-Team | Лицензия .torrent   [Информация о файле (нажмите для просмотра)] Перевод: Профессиональный (полное дублирование) [Лицензия]Видео: 2640 Кбит/сек, 1032*430 (2,40:1), в 23,976 (24000/1001) кадра/сек, AVCАудио #1: русский, 448 Кбит/сек, 48,0 КГц, 6 каналов, AC-3Аудио #2: английский, 192 Кбит/сек, 48,0 КГц, 2 канала, AC-3Видео: Идентификатор : 1 Формат : AVC Формат/Информация : Advanced Video Codec Профиль формата : [email protected] Параметр CABAC формата : Да Параметр ReFrames формата : 13 кадров Идентификатор кодека : V_MPEG4/ISO/AVC Продолжительность : 2 ч. 7 м. Битрейт : 2640 Кбит/сек Ширина : 1032 пикселя Высота : 430 пикселей Соотношение сторон : 2,40:1 Режим частоты кадров : Постоянный Частота кадров : 23,976 (24000/1001) кадра/сек Цветовое пространство : YUV Субдискретизация насыщенности : 4:2:0 Битовая глубина : 8 бит Тип развёртки : Прогрессивная Бит/(Пиксели*Кадры) : 0.248 Размер потока : 2,34 Гбайт (80%) Заголовок : Gods of Egypt (2016) (New-Team) (Rip by stalkerok) Библиотека кодирования : x264 core 148 r2665kMod a01e339 Настройки программы : cabac=1 / ref=13 / deblock=1:-3:-2 / analyse=0x3:0x133 / me=umh / subme=10 / psy=1 / fade_compensate=0.00 / psy_rd=1.00:0.00 / mixed_ref=1 / me_range=32 / chroma_me=1 / trellis=2 / 8x8dct=1 / cqm=0 / deadzone=21,11 / fast_pskip=0 / chroma_qp_offset=-2 / threads=12 / lookahead_threads=3 / sliced_threads=0 / nr=0 / decimate=0 / interlaced=0 / bluray_compat=0 / constrained_intra=0 / fgo=0 / bframes=13 / b_pyramid=2 / b_adapt=2 / b_bias=0 / direct=3 / weightb=1 / open_gop=0 / weightp=2 / keyint=240 / keyint_min=23 / scenecut=40 / intra_refresh=0 / rc_lookahead=60 / rc=2pass / mbtree=0 / bitrate=2640 / ratetol=1.0 / qcomp=0.65 / qpmin=0 / qpmax=69 / qpstep=4 / cplxblur=20.0 / qblur=0.5 / vbv_maxrate=50000 / vbv_bufsize=62500 / nal_hrd=none / filler=0 / ip_ratio=1.40 / pb_ratio=1.30 / aq=1:0.85 Default : Да Forced : НетАудио #1: Идентификатор : 2 Формат : AC-3 Формат/Информация : Audio Coding 3 Расширение режима : CM (complete main) Параметр Endianness формата : Big Идентификатор кодека : A_AC3 Продолжительность : 2 ч. 7 м. Вид битрейта : Постоянный Битрейт : 448 Кбит/сек Каналы : 6 каналов Расположение каналов : Front: L C R, Side: L R, LFE Частота : 48,0 КГц Частота кадров : 31,250 кадров/сек (1536 spf) Метод сжатия : С потерями Размер потока : 407 Мбайт (14%) Язык : Russian Default : Да Forced : НетАудио #2: Идентификатор : 3 Формат : AC-3 Формат/Информация : Audio Coding 3 Расширение режима : CM (complete main) Параметр Endianness формата : Big Идентификатор кодека : A_AC3 Продолжительность : 2 ч. 7 м. Вид битрейта : Постоянный Битрейт : 192 Кбит/сек Каналы : 2 канала Расположение каналов : Front: L R Частота : 48,0 КГц Частота кадров : 31,250 кадров/сек (1536 spf) Метод сжатия : С потерями Размер потока : 174 Мбайт (6%) Язык : English Default : Нет Forced : Нет 2,91 Gb 184 7 7 декабря 2016 07:12 Боги Египта / Gods of Egypt (2016) HDRip от Scarabey | Лицензия .torrent   [Информация о файле (нажмите для просмотра)] Перевод: Профессиональный (полное дублирование) - ЛицензияВидео: 640x272 (2.35:1), 23.976 fps, XviD build 73 ~691 kbps avg, 0.17 bit/pixelАудио: 48 kHz, MPEG Layer 3, 2 ch, ~128.00 kbps avg 752,94 Mb 58 19 7 декабря 2016 07:12 Боги Египта / Gods of Egypt (2016) BDRip 720p от ExKinoRay | Лицензия .torrent   [Информация о файле (нажмите для просмотра)] Перевод: Дублированный (Централ Партнершип)Кодек: MPEG-4Качество: BDRip 720pВидео: 1280x534, 5496 Kbit/s, 23.976 fpsЗвук: Аудио #01: 48 kHz, AC3, 5.1, 640 Kbps | Дублированный, Лицензия (Централ Партнершип) |DTSАудио #02: 48 kHz, DTS, 5.1, 1536 Kbps | Дублированный, Лицензия (Централ Партнершип) |AC3Аудио #03: 48 kHz, DTS, 5.1, 1510 kbps | Оригинал |DTSСубтитры: Русские, английскиеВидео: Идентификатор : 1 Формат : AVC Формат/Информация : Advanced Video Codec Профиль формата : [email protected] Параметр CABAC формата : Да Параметр ReFrames формата : 12 кадров Идентификатор кодека : V_MPEG4/ISO/AVC Продолжительность : 2 ч. 7 м. Битрейт : 5317 Кбит/сек Ширина : 1280 пикселей Высота : 534 пикселя Соотношение сторон : 2,40:1 Режим частоты кадров : Постоянный Частота кадров : 23,976 (24000/1001) кадра/сек Цветовое пространство : YUV Субдискретизация насыщенности : 4:2:0 Битовая глубина : 8 бит Тип развёртки : Прогрессивная Бит/(Пиксели*Кадры) : 0.324 Размер потока : 4,72 Гбайт (58%) Заголовок : Gods.of.Egypt...2016...BDRip.720p.ExKinoRay***селезень*** Библиотека кодирования : x264 core 142 r2431+42 c69a006 tMod [[email protected] X86_64] Настройки программы : cabac=1 / ref=12 / deblock=1:-3:-3 / analyse=0x3:0x133 / me=umh / subme=11 / psy=1 / fade_compensate=0.00 / psy_rd=1.05:1.00 / mixed_ref=1 / me_range=32 / chroma_me=1 / trellis=2 / 8x8dct=1 / cqm=0 / deadzone=21,11 / fast_pskip=0 / chroma_qp_offset=-4 / threads=12 / lookahead_threads=2 / sliced_threads=0 / nr=0 / decimate=0 / interlaced=0 / bluray_compat=0 / constrained_intra=0 / fgo=0 / bframes=8 / b_pyramid=2 / b_adapt=2 / b_bias=0 / direct=3 / weightb=1 / open_gop=0 / weightp=2 / keyint=240 / keyint_min=23 / scenecut=40 / intra_refresh=0 / rc_lookahead=60 / rc=crf / mbtree=0 / crf=17.0000 / qcomp=0.60 / qpmin=0:0:0 / qpmax=69:69:69 / qpstep=4 / vbv_maxrate=40000 / vbv_bufsize=30000 / crf_max=0.0 / nal_hrd=none / filler=0 / ip_ratio=1.40 / pb_ratio=1.30 / aq=1:1.00 / aq-sensitivity=10.00 / aq-factor=1.00:1.00:1.00 / aq2=0 / aq3=0 Язык : English Default : Да Forced : НетАудио #1: Идентификатор : 2 Формат : AC-3 Формат/Информация : Audio Coding 3 Расширение режима : CM (complete main) Параметр Endianness формата : Big Идентификатор кодека : A_AC3 Продолжительность : 2 ч. 7 м. Вид битрейта : Постоянный Битрейт : 640 Кбит/сек Каналы : 6 каналов Расположение каналов : Front: L C R, Side: L R, LFE Частота : 48,0 КГц Частота кадров : 31,250 кадров/сек (1536 spf) Метод сжатия : С потерями Размер потока : 582 Мбайт (7%) Заголовок : DUB [License] Язык : Russian Default : Да Forced : НетАудио #2: Идентификатор : 3 Формат : DTS Формат/Информация : Digital Theater Systems Режим : 16 Параметр Endianness формата : Big Идентификатор кодека : A_DTS Продолжительность : 2 ч. 7 м. Вид битрейта : Постоянный Битрейт : 1536 Кбит/сек Каналы : 6 каналов Расположение каналов : Front: L C R, Side: L R, LFE Частота : 48,0 КГц Частота кадров : 93,750 кадра/сек (512 spf) Битовая глубина : 16 бит Метод сжатия : С потерями Размер потока : 1,36 Гбайт (17%) Заголовок : DUB [License] Язык : Russian Default : Нет Forced : НетАудио #3: Идентификатор : 4 Формат : DTS Формат/Информация : Digital Theater Systems Режим : 16 Параметр Endianness формата : Big Идентификатор кодека : A_DTS Продолжительность : 2 ч. 7 м. Вид битрейта : Постоянный Битрейт : 1509 Кбит/сек Каналы : 6 каналов Расположение каналов : Front: L C R, Side: L R, LFE Частота : 48,0 КГц Частота кадров : 93,750 кадра/сек (512 spf) Битовая глубина : 24 бит Метод сжатия : С потерями Задержка видео : 11 мс. Размер потока : 1,34 Гбайт (16%) Заголовок : Original Язык : English Default : Нет Forced : Нет 8,15 Gb 26 7 7 декабря 2016 07:12 Боги Египта / Gods of Egypt (2016) BDRip от Twi7ter | D | Лицензия .torrent   [Информация о файле (нажмите для просмотра)] Перевод: Профессиональный (полное дублирование)[Лицензия]Субтитры: НетКачество: BDRip| исх. GODS_OF_EGYPT_REMUX_HDCLUB |Формат: AVIВидео: 720x304 (2.37:1), 23.976 fps, XviD build 73 ~1446 kbps avg, 0.28 bit/pixelАудио: 48 kHz, AC3 Dolby Digital, 2/0 (L,R) ch, ~192 kbps 1,46 Gb 29 4 7 декабря 2016 07:12 Боги Египта / Gods of Egypt (2016) BDRip 1080p от NNNB | Лицензия .torrent   [Информация о файле (нажмите для просмотра)] Перевод: Дублированный - [Лицензия]Качество: BDRip 1080pФормат: AVC (библиотека кодирования x.264)Видео: 1920x800, 11603 Кбит/сек, 23,976 кадр/сек, 0,315 Бит/[Пиксели*Кадры]Аудио №1: русский / AC3 / 5.1 / 48 kHz / 640 kbps / 16 bit|Дублированный - [Лицензия]| Аудио №2: английский / AC3 / 5.1 / 48 kHz / 640 kbps / 16 bitСубтитры: русские, английские 11,66 Gb 20 9 7 декабря 2016 07:11 Боги Египта / Gods of Egypt (2016) BDRip 1080p от Ash61 | 3D-Video | halfOU | D .torrent   [Информация о файле (нажмите для просмотра)] Перевод: Профессиональный дублированныйКачество: BDRip (byAsh61)Контейнер: MKVВидео: AVC / 23,976 fps /1920х1080p / 11.8 MbpsАудио: #1 - Русский / AC3 / 48 KHz / 5.1 ch / 640 Kbps (Дубляж)Субтитры: (внешние SRT UTF-8) 11,88 Gb 40 3 7 декабря 2016 07:11 Боги Египта / Gods of Egypt (2016) BDRip 1080p | Лицензия .torrent   [Информация о файле (нажмите для просмотра)] Перевод: Профессиональный (дублированный) Централ ПартнершипКонтейнер: MKVВидео: MPEG-4 AVC, 12.0 Mбит/с, 1920x800, 23,976 fpsАудио: Rus, DTS, 1510 kb/s (6 ch), 48 kHzАудио 2: Eng, DTS, 1510 kb/s (6 ch), 48 kHz 13,33 Gb 47 6 7 декабря 2016 07:11 Боги Египта / Gods of Egypt (2016) BDRip 720p | Лицензия .torrent   [Информация о файле (нажмите для просмотра)] Перевод: Профессиональный (дублированный) Централ ПартнершипКонтейнер: MKVВидео: MPEG-4 AVC, 5000 Кбит/с, 1280x534, 23,976 fpsАудио: Rus, AC3, 640 kb/s (6 ch), 48 kHzАудио 2: Eng, AC3, 640 kb/s (6 ch), 48 kHz 5,57 Gb 5 11 7 декабря 2016 07:11 Боги Египта / Gods of Egypt (2016) BDRemux 1080p от ExKinoRay | Лицензия .torrent   [Информация о файле (нажмите для просмотра)] Перевод: Дублированный | Лицензия (Централ Партнершип)Кодек: MPEG-4Качество: BDRemux 1080pВидео: 1920x1080, 28.7 Mbit/s, 23.976 fpsЗвук: Аудио #01: 48 kHz, DTS-HD MA, 5.1, 2227 Kbps | Дублированный, Лицензия (Централ Партнершип)Аудио #02: 48 kHz, DTS:X, 7.1, 4735 kbps | Оригинал |Субтитры: Английские 31,63 Gb 3 3 7 декабря 2016 07:11 Боги Египта / Gods of Egypt (2016) HDRip-AVC от ExKinoRay | Лицензия .torrent   [Информация о файле (нажмите для просмотра)] Качество: HDRip (AVC)Видео: MPEG-4 AVC, 2517 Кбит/с, 1024x426, 23.976 кадр/сАудио: Русский, английский (AC3, 6 ch, 448 Кбит/с)Перевод: ДублированныйВидео: Идентификатор : 1 Формат : AVC Формат/Информация : Advanced Video Codec Профиль формата : [email protected] Параметр CABAC формата : Да Параметр ReFrames формата : 12 кадров Идентификатор кодека : V_MPEG4/ISO/AVC Продолжительность : 2 ч. 7 м. Битрейт : 2517 Кбит/сек Ширина : 1024 пикселя Высота : 426 пикселей Соотношение сторон : 2,40:1 Режим частоты кадров : Постоянный Частота кадров : 23,976 (24000/1001) кадра/сек Цветовое пространство : YUV Субдискретизация насыщенности : 4:2:0 Битовая глубина : 8 бит Тип развёртки : Прогрессивная Бит/(Пиксели*Кадры) : 0.241 Размер потока : 2,17 Гбайт (72%) Библиотека кодирования : x264 core 146 r2538 121396c Настройки программы : cabac=1 / ref=12 / deblock=1:-3:-3 / analyse=0x3:0x133 / me=umh / subme=11 / psy=1 / psy_rd=1.05:0.15 / mixed_ref=1 / me_range=48 / chroma_me=1 / trellis=2 / 8x8dct=1 / cqm=0 / deadzone=21,11 / fast_pskip=0 / chroma_qp_offset=-3 / threads=12 / lookahead_threads=2 / sliced_threads=0 / nr=0 / decimate=0 / interlaced=0 / bluray_compat=0 / constrained_intra=0 / bframes=9 / b_pyramid=2 / b_adapt=2 / b_bias=0 / direct=3 / weightb=1 / open_gop=0 / weightp=2 / keyint=240 / keyint_min=23 / scenecut=40 / intra_refresh=0 / rc_lookahead=40 / rc=2pass / mbtree=0 / bitrate=2517 / ratetol=1.0 / qcomp=0.60 / qpmin=0 / qpmax=69 / qpstep=4 / cplxblur=20.0 / qblur=0.5 / vbv_maxrate=50000 / vbv_bufsize=62500 / nal_hrd=none / filler=0 / ip_ratio=1.40 / pb_ratio=1.30 / aq=1:1.00 Язык : English Default : Да Forced : НетАудио #1: Идентификатор : 2 Формат : AC-3 Формат/Информация : Audio Coding 3 Расширение режима : CM (complete main) Параметр Endianness формата : Big Идентификатор кодека : A_AC3 Продолжительность : 2 ч. 7 м. Вид битрейта : Постоянный Битрейт : 448 Кбит/сек Каналы : 6 каналов Расположение каналов : Front: L C R, Side: L R, LFE Частота : 48,0 КГц Частота кадров : 31,250 кадров/сек (1536 spf) Метод сжатия : С потерями Размер потока : 407 Мбайт (13%) Заголовок : Дублированный (Централ Партнершип) Язык : Russian Default : Да Forced : НетАудио #2: Идентификатор : 3 Формат : AC-3 Формат/Информация : Audio Coding 3 Расширение режима : CM (complete main) Параметр Endianness формата : Big Идентификатор кодека : A_AC3 Продолжительность : 2 ч. 7 м. Вид битрейта : Постоянный Битрейт : 448 Кбит/сек Каналы : 6 каналов Расположение каналов : Front: L C R, Side: L R, LFE Частота : 48,0 КГц Частота кадров : 31,250 кадров/сек (1536 spf) Метод сжатия : С потерями Размер потока : 407 Мбайт (13%) Язык : English Default : Нет Forced : Нет 3,03 Gb 10 1

gig-torrent.net

Скачать торрент Боги Египта / Gods of Egypt (2016) DVD9 от New-Team

Информация о фильмеНазвание: Боги ЕгиптаОригинальное название: Gods of EgyptГод выхода: 2016Жанр: фэнтези, боевик, приключенияРежиссер: Алекс Пройас / Alex ProyasВ ролях: Джерард Батлер, Николай Костер-Вальдау, Брентон Туэйтс, Чэдвик Боузман, Руфус Сьюэлл, Джон Самаха, Кортни Итон, Паула Арунделл, Алиа Серор-О’Нилл, Эмили Уитон, Элоди Юнг, Рэйчел Блэйк, Брайан Браун, Майкл-Энтони Тейлор, Эмма Бут, Феликс Уильямсон, Александр Инглэнд, Йен Робертс, Горан Д’Клюе, Йайа Ден

О фильме: Некогда мирное и процветающее египетское царство погружается в хаос: беспощадный бог тьмы Сет убивает своего брата Осириса и узурпирует трон. Вызов ему неожиданно бросает простой смертный, находчивый молодой вор. Чтобы вернуть к жизни свою прекрасную возлюбленную, ему приходится заручиться поддержкой могущественного и мстительного бога Гора. Лишь выдержав испытание на прочность и принеся в жертву все самое дорогое, им удастся противостоять Сету и его приспешникам в мире живых и мире мертвых.

Страна: США, АвстралияСтудия: Mystery Clock Cinema, Pyramania, Summit Entertainment, Thunder RoadПродолжительность: 02:01:46Перевод: Дублированный [Лицензия]

ФайлКодек: MPEG2Качество: DVD9 R5Видео: PAL 16:9 (720x576(0.692)) MPEG Video, 25,000 кадр/сек, 7171 Кбит/секЗвук: Russian (Dolby AC3, 6 ch) 448 Кбит/сек, 48,0 КГцСубтитры: украинские

DVDInfo

Title: Bogi.Egipta.2016.D.DVD9 Size: 6.74 Gb ( 7 063 644,00 KBytes ) - DVD-9 Enabled regions: 1, 2, 3, 4, 5, 6, 7, 8

VTS_01 : Play Length: 00:00:15 Video: PAL 4:3 (720x576) VBR Audio: Not specified (Dolby AC3, 6 ch)

VTS_02 : Play Length: 02:01:46 Video: PAL 16:9 (720x576) VBR, Auto Letterboxed Audio: Russian, AC3, 3/2 (L,C,R,SL,SR)+LFE ch, 448 kbps, Delay 0 mSec

Subtitles: Ukrainian

VTS_03 : Play Length: 00:01:06 Video: PAL 16:9 (720x576) VBR, Auto Letterboxed Audio: Not specified (Dolby AC3, 2 ch)

VTS_04 : Play Length: 00:02:20 Video: PAL 16:9 (720x576) VBR, Auto Letterboxed Audio: Not specified (Dolby AC3, 2 ch)

VTS_05 : Play Length: 00:02:05 Video: PAL 16:9 (720x576) VBR, Auto Letterboxed Audio: Not specified (Dolby AC3, 2 ch)

VTS_06 : Play Length: 00:02:34 Video: PAL 16:9 (720x576) VBR, Auto Letterboxed Audio: Not specified (Dolby AC3, 2 ch)

VTS_07 : Play Length: 00:01:41 Video: PAL 16:9 (720x576) VBR, Auto Letterboxed Audio: Not specified (Dolby AC3, 2 ch) Subtitles: Not specified

* Menus Information *

VIDEO_TS Menu Video: PAL 16:9 (720x576) VBR Auto Pan&Scan Audio: Not specified (LinearPCM, 2 ch) English Language Unit : Title Menu

VTS_01 Menu Video: PAL 16:9 (720x576) VBR Auto Letterboxed Audio: Not specified (Dolby AC3, 6 ch) English Language Unit : Root Menu Chapter (PTT) Menu

VTS_02 Menu Video: NTSC 4:3 (720x480) VBR Auto Pan&Scan, Auto Letterboxed English Language Unit : Root Menu Chapter (PTT) Menu

VTS_03 Menu Video: NTSC 4:3 (720x480) VBR Auto Pan&Scan, Auto Letterboxed English Language Unit : Root Menu Chapter (PTT) Menu

VTS_04 Menu Video: NTSC 4:3 (720x480) VBR Auto Pan&Scan, Auto Letterboxed English Language Unit : Root Menu Chapter (PTT) Menu

VTS_05 Menu Video: NTSC 4:3 (720x480) VBR Auto Pan&Scan, Auto Letterboxed English Language Unit : Root Menu Chapter (PTT) Menu

VTS_06 Menu Video: NTSC 4:3 (720x480) VBR Auto Pan&Scan, Auto Letterboxed English Language Unit : Root Menu Chapter (PTT) Menu

VTS_07 Menu Video: NTSC 4:3 (720x480) VBR Auto Pan&Scan, Auto Letterboxed English Language Unit : Root Menu Chapter (PTT) Menu

MediaInfo

Общее Полное имя : D:Новинки 2016Bogi.Egipta.2016.D.DVD9VIDEO_TSVTS_02_3.VOB Формат : MPEG-PS Размер файла : 1024 Мбайт Продолжительность : 18 м. Режим общего битрейта : Переменный Общий поток : 7774 Кбит/сек

Видео Идентификатор : 224 (0xE0) Формат : MPEG Video Версия формата : Version 2 Профиль формата : [email protected] Параметр BVOP формата : Да Параметр матрицы формата : По умолчанию Параметр GOP формата : M=3, N=12 Продолжительность : 18 м. Вид битрейта : Переменный Битрейт : 7171 Кбит/сек Максимальный битрейт : 8500 Кбит/сек Ширина : 720 пикселей Высота : 576 пикселей Соотношение сторон : 16:9 Частота кадров : 25,000 кадров/сек Стандарт вещания : PAL Цветовое пространство : YUV Субдискретизация насыщенности : 4:2:0 Битовая глубина : 8 бит Тип развёртки : Прогрессивная Метод сжатия : С потерями Бит/(Пиксели*Кадры) : 0.692 Временной код первого кадра : 00:38:08:21 Оригинал временного кода : Group of pictures header Размер потока : 944 Мбайт (92%)

Аудио Идентификатор : 189 (0xBD)-128 (0x80) Формат : AC-3 Формат/Информация : Audio Coding 3 Расширение режима : CM (complete main) Параметр Endianness формата : Big Режим смешивания : DVD-Video Продолжительность : 18 м. Вид битрейта : Постоянный Битрейт : 448 Кбит/сек Каналы : 6 каналов Расположение каналов : Front: L C R, Side: L R, LFE Частота : 48,0 КГц Частота кадров : 31,250 кадров/сек (1536 spf) Метод сжатия : С потерями Задержка видео : -664 мс. Размер потока : 59,0 Мбайт (6%)

Текст #1 Идентификатор : 189 (0xBD)-32 (0x20) Формат : RLE Формат/Информация : Run-length encoding Режим смешивания : DVD-Video Задержка видео : 120 мс.

Текст #2 Идентификатор : 189 (0xBD)-33 (0x21) Формат : RLE Формат/Информация : Run-length encoding Режим смешивания : DVD-Video Задержка видео : 120 мс.

Скриншоты меню

Релиз от:

mrutor.org

Скачать торрент Боги Египта / Gods of Egypt (2016) BDRip от GeneraLFilm

Информация о фильмеНазвание: Боги ЕгиптаОригинальное название: Gods of EgyptГод выхода: 2016Жанр: фэнтези, боевик, приключенияРежиссер: Алекс ПройасВ ролях: Брентон Туэйтс, Джерард Батлер, Николай Костер-Валдау, Чэдвик Боузмэн, Элоди Юнг, Кортни Итон, Руфус Сьюэлл, Джеффри Раш, Брайан Браун, Рэйчел Блэйк, Эмма Бут, Александр Инглэнд, Горан Д’Клюе, Йайа Ден, Эбби Ли, Кеннет Рэнсом, Джон Самаха

О фильме: Некогда мирное и процветающее египетское царство погружается в хаос: беспощадный бог тьмы Сет убивает своего брата Осириса и узурпирует трон. Вызов ему неожиданно бросает простой смертный, находчивый молодой вор. Чтобы вернуть к жизни свою прекрасную возлюбленную, ему приходится заручиться поддержкой могущественного и мстительного бога Гора. Лишь выдержав испытание на прочность и принеся в жертву все самое дорогое, им удастся противостоять Сету и его приспешникам в мире живых и мире мертвых.

Страна: СШАСтудия: Mystery Clock Cinema, Pyramania, Summit Entertainment, Thunder RoadПродолжительность: 02:07:02Перевод: Дублированный

ФайлКодек: XviDКачество: BDRipВидео: 720x304, 1247 kбит/сек, 23.976fpsАудио: АС3, 6 ch, 384 Кбит/с

МедиаИнфо

Полное имя : Bogi.Egipta.2016.XviD.BDRip.by.GeneralFilm.avi Формат : AVI Формат/Информация : Audio Video Interleave Размер файла : 1,46 Гбайт Продолжительность : 2 ч. 7 м. Общий поток : 1640 Кбит/сек Программа кодирования : VirtualDubMod 1.5.10.3 | www.virtualdub-fr.org || (build 2550/release) Библиотека кодирования : VirtualDubMod build 2550/release

Видео Идентификатор : 0 Формат : MPEG-4 Visual Профиль формата : Advanced [email protected] Параметр BVOP формата : 1 Параметр QPel формата : Нет Параметр GMC формата : Без точки перехода Параметр матрицы формата : Выборочная Идентификатор кодека : XVID Идентификатор кодека/Подсказка : XviD Продолжительность : 2 ч. 7 м. Битрейт : 1247 Кбит/сек Ширина : 720 пикселей Высота : 304 пикселя Соотношение сторон : 2,35:1 Частота кадров : 23,976 (23976/1000) кадра/сек Цветовое пространство : YUV Субдискретизация насыщенности : 4:2:0 Битовая глубина : 8 бит Тип развёртки : Прогрессивная Метод сжатия : С потерями Бит/(Пиксели*Кадры) : 0.238 Размер потока : 1,11 Гбайт (76%) Библиотека кодирования : XviD 73

Аудио Идентификатор : 1 Формат : AC-3 Формат/Информация : Audio Coding 3 Расширение режима : CM (complete main) Параметр Endianness формата : Big Идентификатор кодека : 2000 Продолжительность : 2 ч. 7 м. Вид битрейта : Постоянный Битрейт : 384 Кбит/сек Каналы : 6 каналов Расположение каналов : Front: L C R, Side: L R, LFE Частота : 48,0 КГц Частота кадров : 31,250 кадров/сек (1536 spf) Метод сжатия : С потерями Размер потока : 349 Мбайт (23%) Выравнивание : Разделение по промежуткам Продолжительность промежутка : 42 мс. (1,00 видеокадр) Время предзагрузки промежутка : 500 мс.

Релиз от: Исходник: BDRemux 1080p

mrutor.org

Скачать Боги Египта (2016) через торрент

Категория: Фильмы 34167 0 Торрент добавлен: 7-02-2016 Рейтинг:

2016 / фэнтези, приключения / 100 мин.Название: Боги Египта / Gods of EgyptСтрана: США, Австралия Режиссер: Алекс Пройас Роли сыграли: Джерард Батлер, Николай Костер-Вальдау, Эбби Ли, Кортни Итон, Брентон Туэйтс, Руфус Сьюэлл, Джеффри Раш, Элоди Юнг, Чедвик Боузман, Брюс Спенс

В Древнем Египте было множество богов, но одним из самых могущественных являлся Сет — бог пустыни и штормов. Он решает возглавить божественный пантеон и для этого уничтожает своего брата Осириса. Убийство становиться началом развития закрученной сюжетной линии. У убитого правителя остался сын Гор, который являлся властителем небес. Теперь он поставил перед собой сложную задачу - отомстить за гибель своего отца и клянется сместить нового обладателя трона.

Не он один мечтает убрать Сета, ведь по приходу нового правителя некогда процветающий Египет стал все больше погружаться в военные конфликты и хаос. Возле долины Нила стали все чаще появляться, и наводить панику и ужас на местных жителей, различные уродливые монстры, божества, которые вытворяют настоящий беспредел. Люди, пытавшиеся каким-то образом остановить проделки нового бога, попадали под его кару и, как правило, превращались в обезображенных существ, которые больше ничего не могли и не хотели совершать против него.

Множество людей попало под гнет бога, и одним из них оказался вор по имени Бек. В качестве наказания темный властелин превратил Бека в человека с множеством ног, но это не остановило его, а как раз наоборот, сделало его желание свергнуть Сета более сильным. Совместно с Гором он начинает беспощадную схватку с покорителем Египта, а победа для каждого участника этой битвы принесет свою награду — с кого-то снимется проклятие и он вновь будет выглядеть как обычный человек, кто-то отомстить за отца, а остальные станут свободными от тирана.

Трейлер к фильму Боги Египта (2016)

 

Боги Египта (2016) скачать торрент

Качество: Blu-RayВидео: 1920x1080, 28.7 Mbit/s, 23.976 fpsЗвук: 48 kHz, DTS-HD MA, 5.1, 2227 Kbps | Дублированный, Лицензия (Централ Партнершип)

31,63 Gb

торрент удален

Качество: BDRipВидео: 1920x800, 11603 Кбит/сек, 23,976 кадр/сек,Звук: русский / AC3 / 5.1 / 48 kHz / 640 kbps / 16 bit |Дублированный - [Лицензия]| /td>

11,66 Gb

торрент удален

Качество видео: HDRipФормат видео: AVI (XviD)Видео: 720x304 (2.37:1), 23.976 fps, XviD build 73 ~2065 kbps avg, 0.39 bit/pixelАудио: 48 kHz, AC3 Dolby Digital, 3/2 (L,C,R,l,r) + LFE ch, ~384 kbps

2,18 Gb

торрент удален

Вы находитесь на странице, где можете совершенно бесплатно скачать фильм Боги Египта (2016) в хорошем качестве через торрент, в любом формате, который больше всего вам на данный момент подходит. Скачивание осуществляется через торрент, что означает максимально высокую скорость загрузки. Желаем Вам приятного просмотра!. Не забудь поделиться своими впечатлениями после того как посмотришь фильм Боги Египта (2016).

Информация Посетители, находящиеся в группе Гости, не могут оставлять комментарии к данной публикации.

psp-gu.ru


Смотрите также