Скачать безбрачная неделя через торрент в хорошем качестве


Скачать фильм Безбрачная неделя (2011) через торрент

gig-torrent.net

13 января 2016 13:47 Безбрачная неделя / Hall Pass (2011) HDRip-AVC | D | Театральная версия .torrent   [Информация о файле (нажмите для просмотра)] Перевод: Профессиональный (дублированный) + Оригинальная аудиодорожкаКодек: x264Качество: HDRip-AVC | исх. BDRip 720pВидео: 752x312 (2.40:1), 23.976 fps, x264 ~862 kbps avg, 0.153 bit/pixelАудио 1: 48 kHz, AAC-HE, 2 ch, ~63 kbps avg VBR [rus]Аудио 2: 48 kHz, AAC-HE, 2 ch, ~62 kbps avg VBR [eng]Субтитры: Русские (полные, форсированные), Английские (*.srt) 745,47 Mb 15 5
13 января 2016 13:47 Безбрачная неделя / Hall Pass (2011) BDRip 720p от Leonardo and Scarabey | Театральная версия .torrent   [Информация о файле (нажмите для просмотра)] Перевод: Профессиональный (полное дублирование) ЛицензияФормат: MKVВидео кодек: MPEG-4 AVC Аудио кодек: AC3Видео: AVC, 1280x532 (2.40:1) at 23.976 fps, AVC at 3455 kbps avg, 0.212 bit/pixelАудио: Russian: 48 kHz; AC3 5.1; 384.00 kbps avg; профессиональный, полное дублированиеСубтитры: Русские, английские 2,88 Gb 79 7
13 января 2016 13:47 Безбрачная неделя / Hall Pass (2011) BDRip 1080p от NoLimits-Team .torrent   [Информация о файле (нажмите для просмотра)] Перевод: Дублированный, Украинский, АнглийскийКачество: BDRip 1080p (исходник Blu-ray Disc)Видео: 1920х800, 8 757 Кбит/сек, 23.976 кадр/сек, 2.40:1, AVC, x264, 0.238 Бит/(Пиксели*Кадры), 2-passАудио1: AC-3, 384 Кбит/сек, 6 канала(ов), 48,0 КГц - ДублированныйАудио2: AC-3, 384 Кбит/сек, 6 канала(ов), 48,0 КГц - УкраинскийАудио3: AC-3, 640 Кбит/сек, 6 канала(ов), 48,0 КГц - АнглийскийСубтитры: Русские, Английские 7,95 Gb 12 2
13 января 2016 13:47 Безбрачная неделя / Hall Pass (2011) BDRip 1080p .torrent   [Информация о файле (нажмите для просмотра)] Перевод: ДублированныйКодек: x264Качество: BDRip (источник: Blu-ray Disc)Видео: 1920x792 (2,40:1), 23.976 fps, 5172 kbpsАудио #1: AC-3, 6 ch, 384 kbps (Rus)Аудио #2: AC-3, 6 ch, 384 kbps (Eng)Субтитры: Русские, АнглийскиеВидео: Идентификатор : 1 Формат : AVC Формат/Информация : Advanced Video Codec Профиль формата : [email protected] Параметр CABAC формата : Да Параметр ReFrames формата : 5 кадров Идентификатор кодека : V_MPEG4/ISO/AVC Продолжительность : 1 ч. 45 м. Битрейт : 5172 Кбит/сек Ширина : 1920 пикселей Высота : 792 пикселя Соотношение сторон : 2,40:1 Частота кадров : 23,976 кадра/сек Цветовое пространство : YUV Субдискретизация насыщенности : 4:2:0 Битовая глубина : 8 бит Тип развёртки : Прогрессивная Бит/(Пиксели*Кадры) : 0.142 Размер потока : 3,72 Гбайт (85%) Заголовок : Release by AlexKa Библиотека кодирования : x264 core 120 r2164 da19765 Настройки программы : cabac=1 / ref=5 / deblock=1:0:0 / analyse=0x3:0x133 / me=umh / subme=10 / psy=1 / psy_rd=1.00:0.10 / mixed_ref=1 / me_range=32 / chroma_me=1 / trellis=2 / 8x8dct=1 / cqm=0 / deadzone=21,11 / fast_pskip=0 / chroma_qp_offset=-3 / threads=12 / sliced_threads=0 / nr=0 / decimate=0 / interlaced=0 / bluray_compat=0 / constrained_intra=0 / bframes=5 / b_pyramid=2 / b_adapt=2 / b_bias=0 / direct=3 / weightb=1 / open_gop=0 / weightp=2 / keyint=240 / keyint_min=24 / scenecut=40 / intra_refresh=0 / rc_lookahead=60 / rc=2pass / mbtree=1 / bitrate=5172 / ratetol=1.0 / qcomp=0.60 / qpmin=0 / qpmax=69 / qpstep=4 / cplxblur=20.0 / qblur=0.5 / ip_ratio=1.40 / aq=1:1.00 Язык : EnglishАудио #1: Идентификатор : 2 Формат : AC-3 Формат/Информация : Audio Coding 3 Расширение режима : CM (complete main) Идентификатор кодека : A_AC3 Продолжительность : 1 ч. 45 м. Вид битрейта : Постоянный Битрейт : 384 Кбит/сек Каналы : 6 каналов Расположение каналов : Front: L C R, Side: L R, LFE Частота : 48,0 КГц Битовая глубина : 16 бит Метод сжатия : С потерями Размер потока : 289 Мбайт (6%) Заголовок : Rus Язык : RussianАудио #2: Идентификатор : 3 Формат : AC-3 Формат/Информация : Audio Coding 3 Расширение режима : CM (complete main) Идентификатор кодека : A_AC3 Продолжительность : 1 ч. 45 м. Вид битрейта : Постоянный Битрейт : 384 Кбит/сек Каналы : 6 каналов Расположение каналов : Front: L C R, Side: L R, LFE Частота : 48,0 КГц Битовая глубина : 16 бит Метод сжатия : С потерями Размер потока : 289 Мбайт (6%) Заголовок : Eng Язык : English 4,37 Gb 109 4
13 января 2016 13:47 Безбрачная Неделя / Hall Pass (2011) BDRip 720p от DHT-Movies | Театральная версия .torrent   [Информация о файле (нажмите для просмотра)] Перевод: ДубляжКодек: h.264Качество: BDRip 720p (Source: Talian70, BDRemux 1080p)Видео: 1280x528, 5127 Кбит/сек, 23,976 кадр/секЗвук: (Рус)AC-3, 384 Кбит/сек, 6 канала(ов), 48,0 КГцСубтитры: (РУС)UTF-8Видео: Идентификатор : 1 Формат : AVC Формат/Информация : Advanced Video Codec Профиль формата : [email protected] Параметр CABAC формата : Да Параметр ReFrames формата : 9 кадры Идентификатор кодека : V_MPEG4/ISO/AVC Продолжительность : 1 ч. 45 м. Битрейт : 5127 Кбит/сек Ширина : 1280 пикс. Высота : 528 пикс. Соотношение сторон : 2,40:1 Частота кадров : 23,976 кадр/сек Цветовое пространство : YUV Подвыборка цветности : 4:2:0 Битовая глубина : 8 бит Тип развёртки : Прогрессивная Бит/(Пиксели*Кадры) : 0.316 Размер потока : 3,69 Гбайт (85%) Библиотека кодирования : x264 core 115 r1937 aa21558 Настройки программы : cabac=1 / ref=9 / deblock=1:-2:-3 / analyse=0x3:0x133 / me=umh / subme=10 / psy=1 / psy_rd=1.00:0.10 / mixed_ref=1 / me_range=32 / chroma_me=1 / trellis=2 / 8x8dct=1 / cqm=0 / deadzone=21,11 / fast_pskip=0 / chroma_qp_offset=-5 / threads=3 / sliced_threads=0 / nr=0 / decimate=1 / interlaced=0 / bluray_compat=0 / constrained_intra=0 / bframes=9 / b_pyramid=2 / b_adapt=2 / b_bias=0 / direct=3 / weightb=1 / open_gop=0 / weightp=2 / keyint=240 / keyint_min=24 / scenecut=40 / intra_refresh=0 / rc_lookahead=60 / rc=2pass / mbtree=1 / bitrate=5127 / ratetol=1.0 / qcomp=0.60 / qpmin=0 / qpmax=69 / qpstep=4 / cplxblur=20.0 / qblur=0.5 / ip_ratio=1.40 / aq=1:1.00 Язык : EnglishАудио #1: Идентификатор : 2 Формат : AC-3 Формат/Информация : Audio Coding 3 Расширение режима : CM (complete main) Идентификатор кодека : A_AC3 Продолжительность : 1 ч. 45 м. Вид битрейта : Постоянный Битрейт : 384 Кбит/сек Канал(ы) : 6 канала(ов) Расположение каналов : Front: L C R, Side: L R, LFE Частота : 48,0 КГц Битовая глубина : 16 бит Метод сжатия : С потерями Размер потока : 289 Мбайт (7%)Аудио #2: Идентификатор : 3 Формат : AC-3 Формат/Информация : Audio Coding 3 Расширение режима : CM (complete main) Идентификатор кодека : A_AC3 Продолжительность : 1 ч. 45 м. Вид битрейта : Постоянный Битрейт : 384 Кбит/сек Канал(ы) : 6 канала(ов) Расположение каналов : Front: L C R, Side: L R, LFE Частота : 48,0 КГц Битовая глубина : 16 бит Метод сжатия : С потерями Размер потока : 289 Мбайт (7%) 4,34 Gb 2 2
13 января 2016 13:47 Безбрачная неделя / Hall Pass (2011) BDRip от HELLYWOOD | Расширенная версия .torrent   [Информация о файле (нажмите для просмотра)] Перевод: Профессиональный (Полное дублирование) (со вставками одноголосого закадрового на непереведенные места) + Авторский (одноголосый)(Ddok63) + Украинская дублированная дорожка (со вставками одноголосого закадрового на непереведенные места) + ОригиналСубтитры: Русские, английскиеФормат: AVIКачество: BDRip (источник: /Blu-Ray Disc/ 1080p) Видео: 720x304 (2.37:1), 23.976 fps, XviD build 64, 1962 kbps avg, 0.37 bit/pixelАудио #1: 48 kHz, AC3 Dolby Digital, 3/2 (L,C,R,l,r) + LFE ch, 384 kbps|DUB|Аудио #2: 48 kHz, AC3 Dolby Digital, 3/2 (L,C,R,l,r) + LFE ch, 448 kbps|ENG|Аудио #3: 48 kHz, AC3 Dolby Digital, 3/2 (L,C,R,l,r) + LFE ch, 448 kbps|AVO-Ddok63|Аудио #4: 48 kHz, AC3 Dolby Digital, 3/2 (L,C,R,l,r) + LFE ch, 384 kbps|UKR| 2,83 Gb 12 4
13 января 2016 13:47 Безбрачная неделя / Hall Pass (2011) BDRip-AVC от HQ-ViDEO | Театральная версия .torrent   [Информация о файле (нажмите для просмотра)] Перевод: Русский дублированный перевод + Оригинальная дорожкаКодек: MKV, H.264 codecКачество: BDRip (Исходник: BD Remux)Видео: 1024 x 428 (2.40:1), 23.976 fps, MKV, H.264 ~ 2 194 kbps avg, ~ 0.20 bit/pixelЗвук #1: 48 kHz, AC3 Dolby Digital, 3/2 (L,C,R,l,r) + LFE ch, ~384.00 kbps avgЗвук #2: 48 kHz, AC3 Dolby Digital, 3/2 (L,C,R,l,r) + LFE ch, ~384.00 kbps avgСубтитры: Русские, Английские (SDH).Субтитры: Русские, Английские (SDH). 2,18 Gb 83 4
13 января 2016 13:47 Безбрачная неделя / Hall Pass (2011) BDRip от HQ-ViDEO | Театральная версия .torrent   [Информация о файле (нажмите для просмотра)] Перевод: Русский дублированный перевод + ОтдельноКодек: XviD, build 64 codecКачество: BDRip (Исходник: BD Remux)Видео: 720 x 304 (2.37:1), 23.976 fps, XviD, build 64 ~ 1581 kbps avg, ~ 0.30 bit/pixelЗвук #1: 48 kHz, AC3 Dolby Digital, 3/2 (L,C,R,l,r) + LFE ch, ~384.00 kbps avgЗвук #2: 48 kHz, AC3 Dolby Digital, 3/2 (L,C,R,l,r) + LFE ch, ~384.00 kbps avg(Отдельно)Звук #3: 48 kHz, AC3 Dolby Digital, 3/2 (L,C,R,l,r) + LFE ch, ~384.00 kbps avg(Отдельно)Субтитры: Русские, Английские (SDH). 1,45 Gb 738 27
13 января 2016 13:47 Безбрачная неделя / Hall Pass (2011) BDRip от HELLYWOOD .torrent   [Информация о файле (нажмите для просмотра)] Перевод: Профессиональный (Полное дублирование)[Лицензия] + Украинская дублированная дорожка [Лицензия] + ОригиналСубтитры: Русские, английские(отдельным файлом)Формат: AVIКачество: BDRip (источник: /Blu-Ray Disc/ 1080p) Видео: 720x304 (2.37:1), 23.976 fps, XviD build 64, 2127 kbps avg, 0.41 bit/pixelАудио #1: 48 kHz, AC3 Dolby Digital, 3/2 (L,C,R,l,r) + LFE ch, 384 kbps|DUB|Аудио #2: 48 kHz, AC3 Dolby Digital, 3/2 (L,C,R,l,r) + LFE ch, 448 kbps|ENG|Аудио #3: 48 kHz, AC3 Dolby Digital, 3/2 (L,C,R,l,r) + LFE ch, 384 kbps|UKR| 2,47 Gb 2 5
13 января 2016 13:47 Безбрачная неделя / Hall Pass (2011) BDRemux .torrent   [Информация о файле (нажмите для просмотра)] Перевод: Дублированное [лицензия]Кодек: MKVКачество: BDRemuxВидео: AVC,1920x1080,18.1 Mbps, 23.976 fpsАудио 1: Russian:48 kHz, AC3, 3/2 (L,C,R,l,r) + LFE ch, ~384.00 kbps avgАудио 2: Ukrainian:48 kHz, AC3, 3/2 (L,C,R,l,r) + LFE ch, ~384.00 kbps avgАудио 3: English / DTS-HD Master Audio / 5.1 / 48 kHz / 3348 kbps / 24-bit (DTS Core: 5.1 / 48 kHz / 1509 kbps / 24-bit) 16,21 Gb 4 4
13 января 2016 13:47 Безбрачная неделя / Hall Pass (2011) BDRip от HQCLUB | Театральная версия / Theatrical Cut .torrent   [Информация о файле (нажмите для просмотра)] Перевод: Профессиональный (полное дублирование) + Оригинальная звуковая дорожка +Профессиональный (украинский дублированный)Субтитры: Русские, английские SDH (внешние *.srt)Формат: AVIКачество: BDRip (источник:Видео: 720x304 (2.37:1), 23.976 fps, XviD build 63 ~2190 kbps avg, 0.42 bit/pixelАудио #1: 48 kHz, AC3 Dolby Digital, 3/2 (L,C,R,l,r) + LFE ch, ~384.00 kbps avgАудио #2: 48 kHz, AC3 Dolby Digital, 3/2 (L,C,R,l,r) + LFE ch, ~384.00 kbps avgАудио #3: 48 kHz, AC3 Dolby Digital, 3/2 (L,C,R,l,r) + LFE ch, ~384.00 kbps avg |UKR|(отдельно на Narod.Ru) 2,18 Gb 6 5
13 января 2016 13:47 Безбрачная неделя / Hall Pass (2011) BDRip 1080p | Extended Cut .torrent   [Информация о файле (нажмите для просмотра)] Перевод: Дублированный (R5) / Любительский одноголосый (Ddok63)Кодек: H.264Качество: BDRip 1080pВидео: 1920X792, 23.976 fps, 8730 KbpsЗвук: • Russian: AC3, 384 Kbps (6 ch) • Russian: DTS-HD MA, 1510 Kbps (6 ch) • English: DTS-HD MA, 1510 Kbps (6 ch)Субтитры: • Russian (forced) 9,45 Gb 10 3
13 января 2016 13:47 Безбрачная неделя / Hall Pass (2011) HDRip от cinemastreet | КПК .torrent   [Информация о файле (нажмите для просмотра)] Видео: mp4/x264, 640x272, 300 кб/сАудио: AAC, 96 кб/сПеревод: Дублированный [лицензия] 301,14 Mb 8 3
13 января 2016 13:47 Безбрачная неделя / Hall Pass (2011) HDRip | Лицензия .torrent   [Информация о файле (нажмите для просмотра)] Перевод: Дублированный [лицензия]Кодек: XviDКачество: HDRip [Рип с Bluray 1080p]Видео: 809 kb/s, 640x272Звук: MP3, 112 kb/s (2 ch) 701,41 Mb 39 2

Скачать фильм Безбрачная неделя через торрент в хорошем качестве бесплатно HDRip

piratbit.ru

Размер: 745 MB | Добавлен: 5 лет 11 мес. назад | Торрент скачан:302 раза
Реклама Дарим 3000 рублей за регистрацию, не упусти свой шанс получить шикарный бонус!!!

12-11-2011 08:43 Безбрачная неделя Скачать торрент  

Безбрачная неделя / Hall PassРасширенная версия / EXTENDED CUTГод выпуска: 2011Страна: СШАЖанр: КомедияПродолжительность: 01:51:34Перевод: Профессиональный (многоголосый, закадровый) [Лицензия] + Любительский (одноголосый, закадровый) Ddok63 на расширенные моментыCубтитры: 0:30:23 по 0:31:03 - русские, форс.http://multi-up.com/510881

Тип релиза: Лицензия

Режиссер: Бобби Фаррелли, Питер Фаррелли

В ролях: Оуэн Уилсон, Джейсон Судейкис, Дженна Фишер, Кристина Эпплгейт, Никки Вилан, Ричард Дженкинс, Стефен Мерчант, Ларри Джо Кэмпбелл, Брюс Томас, Тайлер Хёхлин

Описание: Главный герой получает от своей супруги разрешение на свободные отношения с другими женщинами. Похожая ситуация возникает и в семье его лучшего друга. Когда жены героев также решают воспользоваться подобным «пропуском», история принимает новый оборот.

Качество: HDRipФормат: AVIВидео кодек: XviDАудио кодек: MP3 Видео: 688x288 (2.39:1), 23.976 fps, XviD build 50 ~795 kbps avg, 0.17 bit/pixelАудио: 48 kHz, MPEG Layer 3, 2 ch, ~128.00 kbps avg

Скачать Безбрачная неделя через торрент http://i19.fastpic.ru/big/2011/0413/fe/b8a99a43bdd7e9779dbf3c7595d83ffe.jpg Скачать фильм Безбрачная неделя через торрент бесплантно в хорошем качестве Описание: Главный герой получает от своей супруги разрешение на свободные отношения с другими женщинами. Похожая ситуация возникает и в ... 2011-11-12 08:43 8.5 10 2

Loading...

Loading...

Рекламный пират

12-11-2011 09:00 Безбрачная неделя Скачать торрент  

DEVI писал(а):

Фильм просто бомба, если кто не смотрел обязательно посмотрите

И все-таки меня не зацепило. Смешные моменты, конечно, присутствуют, но сюжет предсказуем.

Последний раз редактировалось: Monarch (2011-11-28 16:55), всего редактировалось 1 раз

12-11-2011 10:27 Безбрачная неделя Скачать торрент  

Фильм просто бомба, если кто не смотрел обязательно посмотрите

Дорогой пользователь! Огромная просьба, поблагодарите релизера, оцените раздачу и оставьте свои комментарий, если Вы скачали Безбрачная неделя через торрент бесплатно! Внесите свою лепту в развитие PiratBit!

Комментировать посты могут только пользователи прошедшие не сложную регистрацию

Безбрачная неделя через торрент Скачать бесплатно Безбрачная неделя Безбрачная неделя скачать торрент Безбрачная неделя смотреть онлайн Cкачать фильм Безбрачная неделя бесплатно Безбрачная неделя скачать торрент в хорошем качестве Безбрачная неделя смотреть онлайн бесплатно в хорошем качестве

Вы не можете начинать темыВы не можете отвечать на сообщенияВы не можете редактировать свои сообщенияВы не можете удалять свои сообщенияВы не можете голосовать в опросахВы не можете прикреплять файлы к сообщениямВы можете скачивать файлы

Скачать фильм Безбрачная неделя через торрент в хорошем качестве бесплатно HDRip

piratbit.ru

Размер: 701 MB | Добавлен: 6 лет 4 мес. назад | Торрент скачан:741 раз
Реклама Дарим 3000 рублей за регистрацию, не упусти свой шанс получить шикарный бонус!!!

15-06-2011 16:34 Безбрачная неделя Скачать торрент  

Безбрачная неделя / Hall PassГод выпуска: 2011Страна: США Жанр: комедияПродолжительность: 01:45:22Перевод: Профессиональный (полное дублирование)Тип релиза: Лицензия

Режиссер: Бобби Фаррелли, Питер Фаррелли

В ролях: Оуэн Уилсон, Джейсон Судейкис, Дженна Фишер, Кристина Эпплгейт, Никки Вилан, Ричард Дженкинс, Стефен Мерчант, Ларри Джо Кэмпбелл, Брюс Томас, Тайлер Хёхлин

Описание: Главный герой получает от своей супруги разрешение на свободные отношения с другими женщинами. Похожая ситуация возникает и в семье его лучшего друга. Когда жены героев также решают воспользоваться подобным «пропуском», история принимает новый оборот.

Качество: HDRip [Рип с Blu ray 1080p]Формат: AVIВидео кодек: XviDАудио кодек: MP3 Видео: 809 kb/s, 640x272Аудио: MP3 , 112 kb/s (2 ch)

Скачать Безбрачная неделя через торрент http://img23.binimage.org/51/cd/4e/bn.png Скачать фильм Безбрачная неделя через торрент бесплантно в хорошем качестве Описание: Главный герой получает от своей супруги разрешение на свободные отношения с другими женщинами. Похожая ситуация возникает и в ... 2011-06-15 16:34 10 10 2

Loading...

Loading...

Рекламный пират

15-06-2011 17:07 Безбрачная неделя Скачать торрент  

3й скрин рулит)))

15-06-2011 19:31 Безбрачная неделя Скачать торрент  

15-06-2011 22:08 Безбрачная неделя Скачать торрент  

Спасибо фильм супер смотрите все!

16-06-2011 08:39 Безбрачная неделя Скачать торрент  

20-06-2011 18:30 Безбрачная неделя Скачать торрент  

Думаю скачаю можете сказать как качество и как фильм!

27-07-2011 19:44 Безбрачная неделя Скачать торрент  

Ghuk,смотри скрины! фильм классный

Дорогой пользователь! Огромная просьба, поблагодарите релизера, оцените раздачу и оставьте свои комментарий, если Вы скачали Безбрачная неделя через торрент бесплатно! Внесите свою лепту в развитие PiratBit!

Комментировать посты могут только пользователи прошедшие не сложную регистрацию

Безбрачная неделя через торрент Скачать бесплатно Безбрачная неделя Безбрачная неделя скачать торрент Безбрачная неделя смотреть онлайн Cкачать фильм Безбрачная неделя бесплатно Безбрачная неделя скачать торрент в хорошем качестве Безбрачная неделя смотреть онлайн бесплатно в хорошем качестве

Вы не можете начинать темыВы не можете отвечать на сообщенияВы не можете редактировать свои сообщенияВы не можете удалять свои сообщенияВы не можете голосовать в опросахВы не можете прикреплять файлы к сообщениямВы можете скачивать файлы

Скачать фильм Безбрачная неделя через торрент в хорошем качестве бесплатно DVD9

piratbit.ru

Размер: 5.14 GB | Добавлен: 6 лет 3 мес. назад | Торрент скачан:55 раз
Реклама Дарим 3000 рублей за регистрацию, не упусти свой шанс получить шикарный бонус!!!

28-06-2011 18:10 Безбрачная неделя Скачать торрент  

Безбрачная неделя / Hall Pass«Каждый имеет право налево» Страна: СШАСтудия: Conundrum Entertainment, New Line CinemaЖанр: мелодрама, комедияГод выпуска: 2011Мировая премьера: 23 февраля 2011Российская премьера: 21 апреля 2011, «Каро-Премьер»Дата выхода DVD: 30 июня 2011, «CP-Digital»Продолжительность: 01:45:20Перевод: Профессиональный (дублированный) [Лицензия]Cубтитры: русские, английскиеОригинальная аудиодорожка: английскийРежиссер: Бобби Фаррелли, Питер Фаррелли / Bobby Farrelly, Peter FarrellyВ ролях: Оуэн Уилсон, Джейсон Судейкис, Дженна Фишер, Кристина Эпплгейт, Никки Уилан, Ричард Дженкинс, Стивен Мерчант, Ларри Джо Кэмпбелл, Брюс Томас, Тайлер ХёхлинОписание: Главный герой этой комедии Рик женат уже давно и ему уже успели поднадоесть семейные отношения. То же самое происходит и у его лучшего друга, вот они вместе и стали поглядывать на стройные ножки запретных красавиц. А тут еще и их жены заключили с ними уговор – всем предстоит безбрачная неделя, в течении которой допускаются отношения с другими девушками. Радости героев не было предела, но вдруг через некоторое время мужчины понимают, что такая свобода им не по вкусу, потому что жены тоже решили воспользоваться безбрачной неделей, а это их мужьям что-то не очень нравится. Да и все воспоминания о прелестях холостяцкой жизни кажутся теперь какими-то преувеличенными…Бонусы: Возмутительный дополнительный эпизод: Кокли (Ричард Дженкинс) одурачивает полицейского Качество: DVD9 R5Формат: DVD-VideoВидео кодек: MPEG2Аудио кодек: AC3Видео: PAL 16:9 (720x576(0.567)) MPEG Video,25,000 кадр/сек, 5880 Кбит/секАудио #1: English (Dolby AC3, 6 ch) 384 Кбит/сек, 48,0 КГцАудио #2: Russian (Dolby AC3, 6 ch) 384 Кбит/сек, 48,0 КГцАудио #3: Ukrainian (Dolby AC3, 6 ch) 384 Кбит/сек, 48,0 КГцTitle: Мой дискSize: 5.14 Gb ( 5 394 392 KBytes ) - DVD-9Enabled regions: 1, 2, 3, 4, 5, 6, 7, 8

VTS_01 :Play Length: 01:41:04+00:04:16Video: PAL 16:9 (720x576) VBR, Auto Pan&ScanAudio:English (Dolby AC3, 6 ch)Russian (Dolby AC3, 6 ch)Ukrainian (Dolby AC3, 6 ch)English (Dolby AC3, 2 ch)Subtitles:EnglishRussianRussian

VTS_02 :Play Length: 00:00:10+00:00:12Video: PAL 16:9 (720x576) VBR, Auto Pan&ScanAudio:Not specified (Dolby AC3, 6 ch)Subtitles:Not specified

ОбщееПолное имя : E:\Новинки 2011\Bezbrachnaya.nedelya.2011.DVD9\VIDEO_TS\VTS_01_1.VOBФормат : MPEG-PSРазмер файла : 1024 МбайтПродолжительность : 19 м.Общий поток : 7175 Кбит/сек

ВидеоИдентификатор : 224 (0xE0)Формат : MPEG VideoВерсия формата : Version 2Профиль формата : [email protected]Параметр BVOP формата : ДаПараметр матрицы формата : ВыборочнаяПродолжительность : 19 м.Вид битрейта : ПеременныйБитрейт : 5880 Кбит/секНоминальный битрейт : 9800 Кбит/секШирина : 720 пикс.Высота : 576 пикс.Соотношение сторон : 16:9Частота кадров : 25,000 кадр/секСтандарт вещания : PALЦветовое пространство : YUVПодвыборка цветности : 4:2:0Битовая глубина : 8 битМетод сжатия : С потерямиБит/(Пиксели*Кадры) : 0.567Размер потока : 839 Мбайт (82%)

Аудио #1Идентификатор : 189 (0xBD)-128 (0x80)Формат : AC-3Формат/Информация : Audio Coding 3Расширение режима : CM (complete main)Режим смешивания : DVD-VideoПродолжительность : 19 м.Вид битрейта : ПостоянныйБитрейт : 384 Кбит/секКаналы : 6 каналовРасположение каналов : Front: L C R, Side: L R, LFEЧастота : 48,0 КГцБитовая глубина : 16 битМетод сжатия : С потерямиРазмер потока : 54,8 Мбайт (5%)

Аудио #2Идентификатор : 189 (0xBD)-129 (0x81)Формат : AC-3Формат/Информация : Audio Coding 3Расширение режима : CM (complete main)Режим смешивания : DVD-VideoПродолжительность : 19 м.Вид битрейта : ПостоянныйБитрейт : 384 Кбит/секКаналы : 6 каналовРасположение каналов : Front: L C R, Side: L R, LFEЧастота : 48,0 КГцБитовая глубина : 16 битМетод сжатия : С потерямиЗадержка видео : -74 мс.Размер потока : 54,8 Мбайт (5%)

Аудио #3Идентификатор : 189 (0xBD)-130 (0x82)Формат : AC-3Формат/Информация : Audio Coding 3Расширение режима : CM (complete main)Режим смешивания : DVD-VideoПродолжительность : 19 м.Вид битрейта : ПостоянныйБитрейт : 384 Кбит/секКаналы : 6 каналовРасположение каналов : Front: L C R, Side: L R, LFEЧастота : 48,0 КГцБитовая глубина : 16 битМетод сжатия : С потерямиЗадержка видео : -74 мс.Размер потока : 54,8 Мбайт (5%)

Скачать Безбрачная неделя через торрент http://i4.imageban.ru/out/2011/06/28/16699d96ee8ce54f8e5c870098a57d2f.jpg Скачать фильм Безбрачная неделя через торрент бесплантно в хорошем качестве Описание: Главный герой этой комедии Рик женат уже давно и ему уже успели поднадоесть семейные отношения. То же самое происходит и у его ... 2011-06-28 18:10 7 10 1

Loading...

Loading...

Рекламный пират

Дорогой пользователь! Огромная просьба, поблагодарите релизера, оцените раздачу и оставьте свои комментарий, если Вы скачали Безбрачная неделя через торрент бесплатно! Внесите свою лепту в развитие PiratBit!

Комментировать посты могут только пользователи прошедшие не сложную регистрацию

Безбрачная неделя через торрент Скачать бесплатно Безбрачная неделя Безбрачная неделя скачать торрент Безбрачная неделя смотреть онлайн Cкачать фильм Безбрачная неделя бесплатно Безбрачная неделя скачать торрент в хорошем качестве Безбрачная неделя смотреть онлайн бесплатно в хорошем качестве

Вы не можете начинать темыВы не можете отвечать на сообщенияВы не можете редактировать свои сообщенияВы не можете удалять свои сообщенияВы не можете голосовать в опросахВы не можете прикреплять файлы к сообщениямВы можете скачивать файлы


Смотрите также