Скачать бесплатно курьер из рая через торрент в хорошем качестве


Скачать фильм Курьер из «Рая» (2013) через торрент

10 февраля 2016 15:59 Курьер из «Рая» (2013) HDTVRip 720p от ivandubskoj .torrent   [Информация о файле (нажмите для просмотра)] Перевод: Не требуетсяКачество: HDTVRip (720p)Формат: MKVВидео: MPEG-4 AVC, 3520 Кбит/с, 1280x720, 25 кадр/сАудио: Русский, Dolby AC3, 48000 Гц, 384 Кбит/с, 6 каналов (5.1) 2,42 Gb 84 9 10 февраля 2016 15:59 Курьер из «Рая» (2013) DVDRip от Scarabey | Лицензия .torrent   [Информация о файле (нажмите для просмотра)] Перевод: не требуетсяКачество: DVDRipФормат: AVIВидео: 688x384 (1.79:1), 25 fps, XviD build 73 ~2064 kbps avg, 0.31 bit/pixelАудио: 48 kHz, AC3 Dolby Digital, 3/2 (L,C,R,l,r) + LFE ch, ~256.00 kbps avg 1,45 Gb 647 11 10 февраля 2016 15:59 Курьер из «Рая» (2013) DVDRip от Scarabey | Лицензия .torrent   [Информация о файле (нажмите для просмотра)] Перевод: не требуетсяКачество: DVDRipФормат: AVIВидео: 624x352 (1.77:1), 25 fps, XviD build 73 ~1036 kbps avg, 0.19 bit/pixelАудио: 48 kHz, MPEG Layer 3, 2 ch, ~128.00 kbps avg 746,35 Mb 18 3 10 февраля 2016 15:59 Курьер из «Рая» (2013) DVD5 R5 от New-team | лицензия .torrent   [Информация о файле (нажмите для просмотра)] Перевод: Не требуетсяКачество: DVD5 R5Формат: DVD VideoВидео: PAL 16x9 (720х576) VBR, 5600 kbps, Auto Pan&Scan, Auto LetterboxedАудио: 48 kHz, Dolby AC3, 6 ch, 3,73 Gb 49 3 10 февраля 2016 15:59 Курьер из «Рая» (2013) WED-DLRip от -=HD-NET=- | КПК .torrent   [Информация о файле (нажмите для просмотра)] Кодек: x264Качество: WEB-Rip | КПКВидео: MPEG-4, 480 х 200, 23,976 fps, 398 Кбит/сАудио: ААС LC, 2 ch, 128 Кбит/с 349,33 Mb 49 2 10 февраля 2016 15:59 Курьер из «Рая» (2013) WEB-DLRip от New-Team .torrent   [Информация о файле (нажмите для просмотра)] Перевод: не требуетсяВидео: 688x288 (2.39:1), 24.000 fps, XviD build 73 ~987 kbps avg, 0.21 bit/pixelАудио: 48 kHz, MPEG Layer 3, 2 ch, ~128.00 kbps avg 743,8 Mb 10 2 10 февраля 2016 15:59 Курьер из «Рая» (2013) WEB-DLRip от New-Team .torrent   [Информация о файле (нажмите для просмотра)] Перевод: не требуетсяВидео: 720x304 (2.37:1), 24.000 fps, XviD build 73 ~1863 kbps avg, 0.35 bit/pixelАудио: 48 kHz, AC3 Dolby Digital, 3/2 (L,C,R,l,r) + LFE ch, ~384 kbps 1,46 Gb 43 4 10 февраля 2016 15:59 Курьер из «Рая» (2013) WEB-DLRip-AVC от New-Team .torrent   [Информация о файле (нажмите для просмотра)] Перевод: Не требуется (русский)Видео: 1058 Кбит/сек, 858*362 (2,35:1), в 24,000 кадр/сек, AVCАудио: Russian, 64,0 Кбит/сек, 48,0 КГц / 24,0 КГц, 2 канала(ов), AAC (HE-AAC / LC)Видео: Идентификатор : 1 Формат : AVC Формат/Информация : Advanced Video Codec Профиль формата : [email protected] Параметр CABAC формата : Да Параметр ReFrames формата : 12 кадры Идентификатор кодека : V_MPEG4/ISO/AVC Продолжительность : 1 ч. 32 м. Номинальный битрейт : 1058 Кбит/сек Ширина : 858 пикс. Высота : 362 пикс. Соотношение сторон : 2,35:1 Частота кадров : 24,000 кадр/сек Цветовое пространство : YUV Подвыборка цветности : 4:2:0 Битовая глубина : 8 бит Тип развёртки : Прогрессивная Бит/(Пиксели*Кадры) : 0.142 Библиотека кодирования : x264 core 133 r2334 a3ac64b Настройки программы : cabac=1 / ref=12 / deblock=1:-1:-1 / analyse=0x3:0x133 / me=umh / subme=10 / psy=1 / psy_rd=1.05:0.15 / mixed_ref=1 / me_range=48 / chroma_me=1 / trellis=2 / 8x8dct=1 / cqm=0 / deadzone=21,11 / fast_pskip=0 / chroma_qp_offset=-3 / threads=6 / lookahead_threads=1 / sliced_threads=0 / nr=0 / decimate=0 / interlaced=0 / bluray_compat=0 / constrained_intra=0 / bframes=11 / b_pyramid=2 / b_adapt=2 / b_bias=0 / direct=3 / weightb=1 / open_gop=0 / weightp=2 / keyint=240 / keyint_min=24 / scenecut=40 / intra_refresh=0 / rc_lookahead=80 / rc=2pass / mbtree=0 / bitrate=1058 / ratetol=2.0 / qcomp=0.70 / qpmin=0 / qpmax=69 / qpstep=4 / cplxblur=20.0 / qblur=0.5 / vbv_maxrate=17000 / vbv_bufsize=20000 / nal_hrd=none / ip_ratio=1.40 / pb_ratio=1.30 / aq=2:1.00Аудио: Идентификатор : 2 Формат : AAC Формат/Информация : Advanced Audio Codec Профиль формата : HE-AAC / LC Идентификатор кодека : A_AAC Продолжительность : 1 ч. 32 м. Канал(ы) : 2 канала(ов) Расположение каналов : Front: L R Частота : 48,0 КГц / 24,0 КГц Метод сжатия : С потерями Задержка видео : 31 мс. Язык : Russian 742,89 Mb 9 4 10 февраля 2016 15:59 Курьер из «Рая» (2013) WEB-DLRip-AVC от New-Team .torrent   [Информация о файле (нажмите для просмотра)] Перевод: Не требуется (русский)Видео: 1865 Кбит/сек, 1024*432 (2,35:1), в 24,000 кадр/сек, AVCАудио: Russian, 384 Кбит/сек, 48,0 КГц, 16 бит, 6 канала(ов), AC-3Видео: Идентификатор : 1 Формат : AVC Формат/Информация : Advanced Video Codec Профиль формата : [email protected] Параметр CABAC формата : Да Параметр ReFrames формата : 12 кадры Идентификатор кодека : V_MPEG4/ISO/AVC Продолжительность : 1 ч. 32 м. Битрейт : 1865 Кбит/сек Ширина : 1024 пикс. Высота : 432 пикс. Соотношение сторон : 2,35:1 Частота кадров : 24,000 кадр/сек Цветовое пространство : YUV Подвыборка цветности : 4:2:0 Битовая глубина : 8 бит Тип развёртки : Прогрессивная Бит/(Пиксели*Кадры) : 0.176 Размер потока : 1,18 Гбайт (81%) Библиотека кодирования : x264 core 133 r2334 a3ac64b Настройки программы : cabac=1 / ref=12 / deblock=1:-2:-1 / analyse=0x3:0x133 / me=umh / subme=11 / psy=1 / psy_rd=1.05:0.15 / mixed_ref=1 / me_range=48 / chroma_me=1 / trellis=2 / 8x8dct=1 / cqm=0 / deadzone=21,11 / fast_pskip=0 / chroma_qp_offset=-3 / threads=6 / lookahead_threads=1 / sliced_threads=0 / nr=0 / decimate=0 / interlaced=0 / bluray_compat=0 / constrained_intra=0 / bframes=11 / b_pyramid=2 / b_adapt=2 / b_bias=0 / direct=3 / weightb=1 / open_gop=0 / weightp=2 / keyint=240 / keyint_min=24 / scenecut=40 / intra_refresh=0 / rc_lookahead=80 / rc=2pass / mbtree=0 / bitrate=1865 / ratetol=2.0 / qcomp=0.70 / qpmin=0 / qpmax=69 / qpstep=4 / cplxblur=20.0 / qblur=0.5 / vbv_maxrate=20000 / vbv_bufsize=25000 / nal_hrd=none / ip_ratio=1.40 / pb_ratio=1.30 / aq=2:0.90Аудио: Идентификатор : 2 Формат : AC-3 Формат/Информация : Audio Coding 3 Расширение режима : CM (complete main) Идентификатор кодека : A_AC3 Продолжительность : 1 ч. 32 м. Вид битрейта : Постоянный Битрейт : 384 Кбит/сек Канал(ы) : 6 канала(ов) Расположение каналов : Front: L C R, Side: L R, LFE Частота : 48,0 КГц Битовая глубина : 16 бит Метод сжатия : С потерями Размер потока : 254 Мбайт (17%) Язык : Russian 1,45 Gb 52 1 10 февраля 2016 15:59 Курьер из «Рая» (2013) WEB-DL 720p .torrent   [Информация о файле (нажмите для просмотра)] Формат: MKVКачество: WEB-DL 720pВидео: 3795 Kb/s, 1280x540Аудио: AC3, 384 kb/s (6 ch) 2,75 Gb 174 6

gig-torrent.net

Скачать торрент Курьер из «Рая» (2013) HDTVRip 720p от ivandubskoj

Год выпуска: 2013Выпущено: Россия, Дирекция Кино, Про-Синема продакшнЖанр: Комедия, приключения, экранизацияПродолжительность: 01:28:44Перевод: Не требуетсяCубтитры: Нет

Режиссёр: Михаил Хлебородов

В ролях: Евгений Ткачук, Елизавета Боярская, Гоша Куценко, Дмитрий Дюжев, Игорь Скляр, Дмитрий Нагиев, Артем Ткаченко, Екатерина Климова, Екатерина Федулова, Олег Тактаров

Описание: Егор Глазунов работает в криминальной полиции столицы и обладает удивительным даром — «врать с листа». Это умение очень выручает его в далёком маленьком городе, которых на карте России великое множество. Сюда Глазунов отправляется помочь другу детства Артёму — обычному курьеру с необычными принципами, у которого угнали доставшийся ему по странному стечению обстоятельств «Мерседес». Все следы ведут к местному авторитету, подобраться к которому невозможно. Последний шанс — прийти с «проверкой» из «следственного комитета». Сюжет гоголевского «Ревизора» превращается в историю новой России.

Качество: HDTVRip (720p)Формат: MKV

Видео: MPEG-4 AVC, 3520 Кбит/с, 1280x720, 25 кадр/сАудио: Русский, Dolby AC3, 48000 Гц, 384 Кбит/с, 6 каналов (5.1)

MediaInfo

General Unique ID : 253635781723100493830044068882577089841 (0xBED07985DD4849A3B745A20A17FFE531) Complete name : Kur'er.iz.Raya.2013.HDTVRip.720p.mkv Format : Matroska File size : 2.42 GiB Duration : 1h 28mn Overall bit rate : 3 902 Kbps Encoded date : UTC 2015-10-16 06:47:26 Writing application : mkvmerge v6.1.0 ('Old Devil') built on Mar 4 2013 09:10:42 Writing library : libebml v1.3.0 + libmatroska v1.4.0

Video ID : 1 Format : AVC Format/Info : Advanced Video Codec Format profile : [email protected] Format settings, CABAC : Yes Format settings, ReFrames : 5 frames Codec ID : V_MPEG4/ISO/AVC Duration : 1h 28mn Bit rate : 3 520 Kbps Width : 1 280 pixels Height : 720 pixels Display aspect ratio : 16:9 Frame rate : 25.000 fps Color space : YUV Chroma subsampling : 4:2:0 Bit depth : 8 bits Scan type : Progressive Bits/(Pixel*Frame) : 0.153 Stream size : 2.13 GiB (88%) Writing library : x264 core 130 r2273 b3065e6 Encoding settings : cabac=1 / ref=5 / deblock=1:-1:-1 / analyse=0x3:0x133 / me=umh / subme=9 / psy=1 / psy_rd=1.00:0.20 / mixed_ref=1 / me_range=32 / chroma_me=1 / trellis=2 / 8x8dct=1 / cqm=0 / deadzone=21,11 / fast_pskip=0 / chroma_qp_offset=-3 / threads=6 / lookahead_threads=1 / sliced_threads=0 / nr=0 / decimate=0 / interlaced=0 / bluray_compat=0 / constrained_intra=0 / bframes=3 / b_pyramid=2 / b_adapt=2 / b_bias=0 / direct=3 / weightb=1 / open_gop=0 / weightp=2 / keyint=250 / keyint_min=25 / scenecut=40 / intra_refresh=0 / rc_lookahead=50 / rc=2pass / mbtree=1 / bitrate=3520 / ratetol=1.0 / qcomp=0.60 / qpmin=0 / qpmax=69 / qpstep=4 / cplxblur=20.0 / qblur=0.5 / ip_ratio=1.40 / aq=1:1.00

Audio ID : 2 Format : AC-3 Format/Info : Audio Coding 3 Mode extension : CM (complete main) Codec ID : A_AC3 Duration : 1h 28mn Bit rate mode : Constant Bit rate : 384 Kbps Channel(s) : 6 channels Channel positions : Front: L C R, Side: L R, LFE Sampling rate : 48.0 KHz Bit depth : 16 bits Compression mode : Lossy Stream size : 244 MiB (10%)

Автор рипа - ivandubskoj

krutor.org

Курьер из рая скачать фильм торрент 2013 -

Коротко о фильме "Курьер из рая" - Егор Глазунов работает в криминальной полиции столицы и обладает удивительным даром - «врать с листа». Это умение очень выручает его в далёком маленьком городе, которых на карте России великое множество. Сюда Глазунов отправляется помочь другу детства Артёму - обычному курьеру с необычными принципами, у которого угнали доставшийся ему по странному стечению обстоятельств «Мерседес». Все следы ведут к местному авторитету, подобраться к которому невозможно. Последний шанс - прийти с «проверкой» из «следственного комитета». Сюжет гоголевского «Ревизора» превращается в историю новой России.

Курьер из рая

Фильм выпущен: 2013
Страна (кинокомпания):
Режиссер: Михаил Хлебородов
Сценарий фильма: Андрей Кивинов
Продюсер фильма: Анатолий Максимов, Николай Попов, Иннокентий Малинкин, Александр Сыров
Оператор:
Композитор:
Художники:
Монтаж:
Жанр фильма: лирическая комедия
Премьера (мир):
премьера (Pоссия): 28 ноября 2013
продолжительность
В главных ролях:
Евгений Ткачук
Гоша Куценко
Елизавета Боярская
Дмитрий Дюжев
Игорь Скляр
Дмитрий Нагиев
Артём Ткаченко
Екатерина Климова
и другие ...

Трейлер фильма:

 

Фильм Курьер из рая скачать торрент - новинка кино 2013

Скачать файлы .torrent Курьер из рая (фильм)

на сайте Вы можете получить ссылку на торрент файлы или скачать сами торрент файлы, в которых находится информация о местонахождении фильмов, сериалов у пользователей.

В фильме "Курьер из рая" - обычный курьер попадает в неприятную ситуацию и Егор отправляется спасать его, используя сюжет «Ревизора»



Параметры: 05.02.2014 DVDRip, 1,45 Гб -

Формат: DVDRip, AVI, XviD, AC3, размер файла: 1,45 ГбВидео: 720x400, XviD - build 73 ~1966 Кбит/сАудио: AC3, 6 каналов, 384 Кбит/сПеревод (озвучивание): Оригинальное [Лицензия]

Параметры: 01.01.2014 WEB-DLRip-AVC, 1,45 Гб -

Формат: WEB-DLRip-AVC, MKV, AVC, AC3, размер файла: 1,45 ГбВидео: 1024x432, AVC - 1865 Кбит/сАудио: AC3, 6 каналов, 384 Кбит/сПеревод (озвучивание): Оригинальное [цифровая лицензия iTunes]

Параметры: 31.12.2013 WEB-DLRip 720p, 2,75 Гб -

Формат: WEB-DLRip, MKV, h364, AC3, размер файла: 2,75 ГбВидео: 1280x540, AVC - [email protected] ~3795 Кбит/сАудио: Русский: AC3, 6 каналов, 384 Кбит/сПеревод (озвучивание):

Параметры: 31.12.2013 WEB-DLRip, 1 -

Формат: WEB-DLRip, AVI, XviD, AC3, размер файла: Видео: 720x304, XviD - build 73 ~1724 Кбит/сАудио: AC3, 6 каналов, 384 Кбит/сПеревод (озвучивание):

Параметры: 31.12.2013 2,75 Гб -

Формат: WEB-DL (720p), MKV, AVC, AC3, размер файла: 2,75 ГбВидео: 1280x540, AVC - ~ 3795 Кбит/сАудио: AC3, 6 каналов, 384 Кбит/сПеревод (озвучивание): Оригинальное [цифровая лицензия iTunes]

Скачать Курьер из рая, фильм бесплатно скачать торрент, лирическая комедия, новинка кино

 

hokit.ru

Курьер из рая (фильм, 2013) скачать торрент - Фильм Курьер из рая

Коротко о фильме "Курьер из рая" - Егор Глазунов работает в криминальной полиции столицы и обладает удивительным даром - «врать с листа». Это умение очень выручает его в далёком маленьком городе, которых на карте России великое множество. Сюда Глазунов отправляется помочь другу детства Артёму - обычному курьеру с необычными принципами, у которого угнали доставшийся ему по странному стечению обстоятельств «Мерседес». Все следы ведут к местному авторитету, подобраться к которому невозможно. Последний шанс - прийти с «проверкой» из «следственного комитета». Сюжет гоголевского «Ревизора» превращается в историю новой России.

Курьер из рая

Фильм выпущен: 2013
Страна (кинокомпания):
Pежиссер: Михаил Хлебородов
Сценарий фильма: Андрей Кивинов
Продюсер фильма: Анатолий Максимов, Николай Попов, Иннокентий Малинкин, Александр Сыров
Оператор:
Композитор:
Художники:
Монтаж:
Жанр фильма: лирическая комедия
Премьера (мир):
премьера (Pоссия): 28 ноября 2013
продолжительность
В главных ролях:
Евгений Ткачук
Гоша Куценко
Елизавета Боярская
Дмитрий Дюжев
Игорь Скляр
Дмитрий Нагиев
Артём Ткаченко
Екатерина Климова
и другие ...

Трейлер фильма:

 

Скачать фильм Курьер из рая - новинка кино 2013

В фильме "Курьер из рая" - обычный курьер попадает в неприятную ситуацию и Егор отправляется спасать его, используя сюжет «Ревизора»

Скачать файлы .torrent Курьер из рая (фильм)

на сайте Вы можете получить ссылку на торрент файлы или скачать сами торрент файлы, в которых находится информация о местонахождении фильмов, сериалов у пользователей.

--> Всего 5

Параметры: 05.02.2014 DVDRip, 1,45 Гб -

Формат: DVDRip, AVI, XviD, AC3, размер файла: 1,45 ГбВидео: 720x400, XviD - build 73 ~1966 Кбит/сАудио: AC3, 6 каналов, 384 Кбит/сПеревод (озвучивание): Оригинальное [Лицензия]

Параметры: 01.01.2014 WEB-DLRip-AVC, 1,45 Гб -

Формат: WEB-DLRip-AVC, MKV, AVC, AC3, размер файла: 1,45 ГбВидео: 1024x432, AVC - 1865 Кбит/сАудио: AC3, 6 каналов, 384 Кбит/сПеревод (озвучивание): Оригинальное [цифровая лицензия iTunes]

Параметры: 31.12.2013 WEB-DLRip 720p, 2,75 Гб -

Формат: WEB-DLRip, MKV, h364, AC3, размер файла: 2,75 ГбВидео: 1280x540, AVC - [email protected] ~3795 Кбит/сАудио: Русский: AC3, 6 каналов, 384 Кбит/сПеревод (озвучивание):

Параметры: 31.12.2013 WEB-DLRip, 1 -

Формат: WEB-DLRip, AVI, XviD, AC3, размер файла: Видео: 720x304, XviD - build 73 ~1724 Кбит/сАудио: AC3, 6 каналов, 384 Кбит/сПеревод (озвучивание):

Параметры: 31.12.2013 2,75 Гб -

Формат: WEB-DL (720p), MKV, AVC, AC3, размер файла: 2,75 ГбВидео: 1280x540, AVC - ~ 3795 Кбит/сАудио: AC3, 6 каналов, 384 Кбит/сПеревод (озвучивание): Оригинальное [цифровая лицензия iTunes]

Смотрите фильм онлайн:

 

hotkit.ru

Скачать фильм Курьер из «Рая» через торрент в хорошем качестве бесплатно WEB-DLRip

Размер: 1.37 GB | Добавлен: 3 года 9 мес. назад | Торрент скачан:13473 раза
Реклама Дарим 3000 рублей за регистрацию, не упусти свой шанс получить шикарный бонус!!!

30-12-2013 23:11 Курьер из «Рая» Скачать торрент  

Курьер из «Рая»

Год выпуска: 2013 Страна: РоссияЖанр: Комедия, приключения,Продолжительность: 01:32:26Режиссер: Михаил ХлебородовПродюссер: Анатолий Максимов, Николай Попов, Александр СыровСценарий: Андрей КивиновВ ролях: Евгений Ткачук, Елизавета Боярская, Гоша Куценко, Дмитрий Дюжев, Игорь Скляр, Дмитрий Нагиев, Артём Ткаченко, Екатерина Климова, Екатерина Федулова, Олег ТактаровОписание: Егор Глазунов работает в криминальной полиции столицы и обладает удивительным даром — «врать с листа». Это умение очень выручает его в далёком маленьком городе, которых на карте России великое множество. Сюда Глазунов отправляется помочь другу детства Артёму — обычному курьеру с необычными принципами, у которого угнали доставшийся ему по странному стечению обстоятельств «Мерседес». Все следы ведут к местному авторитету, подобраться к которому невозможно. Последний шанс — прийти с «проверкой» из «следственного комитета». Сюжет гоголевского «Ревизора» превращается в историю новой России. Качество: WEB-DLRipФормат: AVIВидео кодек: XviDАудио кодек: AC3Видео: 720x304 (2.37:1), 24.000 fps, XviD build 73 ~1724 kbps avg, 0.33 bit/pixelАудио#1: 48 kHz, AC3 Dolby Digital, 3/2 (L,C,R,l,r) + LFE ch, ~384 kbps Скачать Курьер из «Рая» через торрент http://pic.pb.wtf/images/6/dgczy.jpg Скачать фильм Курьер из «Рая» через торрент бесплантно в хорошем качестве Описание: Егор Глазунов работает в криминальной полиции столицы и обладает удивительным даром — «врать с листа». Это умение очень выручает ... 2013-12-30 23:11 9.3 10 264

Loading...

Loading...

Рекламный пират

31-12-2013 09:05 Курьер из «Рая» Скачать торрент  

как фильм ?

31-12-2013 16:56 Курьер из «Рая» Скачать торрент  

хороший фильм оказывается не совсем еще русское кино перевелось на ...

02-01-2014 08:13 Курьер из «Рая» Скачать торрент  

посмотрим, спасибо за раздачу

02-01-2014 09:51 Курьер из «Рая» Скачать торрент  

02-01-2014 10:33 Курьер из «Рая» Скачать торрент  

гадость редкостная

02-01-2014 10:56 Курьер из «Рая» Скачать торрент  

хан писал(а):

http://pb.wtf/post/666487/#post_666487 Ёлки 3 в Очень хорошей записи с кинотеатра))))

качество не фонтан,на TS не тянет :shoot2:

02-01-2014 11:18 Курьер из «Рая» Скачать торрент  

стоит качать?

02-01-2014 11:22 Курьер из «Рая» Скачать торрент  

Кранты,менты,пахан с наворотами...

Pекламный агент PB

02-01-2014 20:59 Курьер из «Рая» Скачать торрент  

Детское наивное кино

02-01-2014 21:08 Курьер из «Рая» Скачать торрент  

svift83 писал(а):

Детское наивное кино вот это "кино" http://pb.wtf/topic/129761/ не детское и не наивное а просто ... :rofle: уг как говорят

03-01-2014 03:35 Курьер из «Рая» Скачать торрент  

Очередной Российский кал с Куценкой.

03-01-2014 06:13 Курьер из «Рая» Скачать торрент  

Гомно как и все русские фильмы

03-01-2014 13:44 Курьер из «Рая» Скачать торрент  

сколько уже такого шлака выпущено? я ни как не могу понять, для кого они снимают такое кино?? и когда сами актеры его смотрят, неужели они .не пи. пи. пи. им кажется что это типо хит.???? в россии ща в последнее время научились деньги воровать у людей с помощью кино-шлака

03-01-2014 15:19 Курьер из «Рая» Скачать торрент  

нормальный фильм! вчера посмотрел-был приятно удивлён!!!

03-01-2014 18:16 Курьер из «Рая» Скачать торрент  

какие они все правильные яяяяеее....аж тошнит. комедии в фильме почти ноль..

04-01-2014 00:03 Курьер из «Рая» Скачать торрент  

Со сценарием решили не заморачиваться. Авось, прокатит... Не прокатило

Pекламный агент PB

04-01-2014 08:50 Курьер из «Рая» Скачать торрент  

"Вы все тупые придурки" (c)

04-01-2014 12:46 Курьер из «Рая» Скачать торрент  

Действуем по проверенному сценарию:1. Открываем тему2. Смотрим состав актеров и режиссера3. Находим Боярскую, закрываем вкладку браузера4. Продолжаем искать стоящее кино.

04-01-2014 12:55 Курьер из «Рая» Скачать торрент  

Мужики качество как ?

04-01-2014 18:38 Курьер из «Рая» Скачать торрент  

Хороший фильм)Спасибо за раздачу

04-01-2014 23:58 Курьер из «Рая» Скачать торрент  

Эта Боярская меня уже бесить начинает. Скоро как Безруков во всех фильмах будет.

05-01-2014 09:39 Курьер из «Рая» Скачать торрент  

да что вы такое несёте, каналья??!?! вы просто необразованные псы. Это лучший фильм последних лет пяти, черт меня подери! Это шедевральный фильм с шедевральными актерами, тысяча чертей!!! Пора-пора-порадуемся такому замечательному отблеску таланта в российском синематографе! Ланфрен-ланфра!

06-01-2014 06:13 Курьер из «Рая» Скачать торрент  

06-01-2014 06:50 Курьер из «Рая» Скачать торрент  

Столько известных актеров, атакое получилось... жаль

Pекламный агент PB

Дорогой пользователь! Огромная просьба, поблагодарите релизера, оцените раздачу и оставьте свои комментарий, если Вы скачали Курьер из «Рая» через торрент бесплатно! Внесите свою лепту в развитие PiratBit!

Комментировать посты могут только пользователи прошедшие не сложную регистрацию

Курьер из «Рая» через торрент Скачать бесплатно Курьер из «Рая» Курьер из «Рая» скачать торрент Курьер из «Рая» смотреть онлайн Cкачать фильм Курьер из «Рая» бесплатно Курьер из «Рая» скачать торрент в хорошем качестве Курьер из «Рая» смотреть онлайн бесплатно в хорошем качестве

Вы не можете начинать темыВы не можете отвечать на сообщенияВы не можете редактировать свои сообщенияВы не можете удалять свои сообщенияВы не можете голосовать в опросахВы не можете прикреплять файлы к сообщениямВы можете скачивать файлы

piratbit.ru

Скачать фильм Курьер из «Рая» через торрент в хорошем качестве бесплатно WEB-DLRip-AVC

ОбщееУникальный идентификатор : 253515274140973720341639213619046629571 (0xBEB9440A56D760FDAB4F0C58C211C0C3)Полное имя : H:Курьер из раяKur'er_iz_Raja_2013_WEB_DLRip_AVC__stalkerok_new-team.mkvФормат : MatroskaРазмер файла : 1,45 ГбайтПродолжительность : 1 ч. 32 м.Общий поток : 2251 Кбит/секНазвание фильма : Курьер из «Рая» 2013 (New-Team) (Rip by Stalker oK)Дата кодирования : UTC 2014-01-01 08:54:49Программа кодирования : mkvmerge v6.2.0 ('Promised Land') built on Apr 28 2013 12:22:01Библиотека кодирования : libebml v1.3.0 + libmatroska v1.4.0

ВидеоИдентификатор : 1Формат : AVCФормат/Информация : Advanced Video CodecПрофиль формата : [email protected]Параметр CABAC формата : ДаПараметр ReFrames формата : 12 кадрыИдентификатор кодека : V_MPEG4/ISO/AVCПродолжительность : 1 ч. 32 м.Битрейт : 1865 Кбит/секШирина : 1024 пикс.Высота : 432 пикс.Соотношение сторон : 2,35:1Частота кадров : 24,000 кадр/секЦветовое пространство : YUVПодвыборка цветности : 4:2:0Битовая глубина : 8 битТип развёртки : ПрогрессивнаяБит/(Пиксели*Кадры) : 0.176Размер потока : 1,18 Гбайт (81%)Библиотека кодирования : x264 core 133 r2334 a3ac64bНастройки программы : cabac=1 / ref=12 / deblock=1:-2:-1 / analyse=0x3:0x133 / me=umh / subme=11 / psy=1 / psy_rd=1.05:0.15 / mixed_ref=1 / me_range=48 / chroma_me=1 / trellis=2 / 8x8dct=1 / cqm=0 / deadzone=21,11 / fast_pskip=0 / chroma_qp_offset=-3 / threads=6 / lookahead_threads=1 / sliced_threads=0 / nr=0 / decimate=0 / interlaced=0 / bluray_compat=0 / constrained_intra=0 / bframes=11 / b_pyramid=2 / b_adapt=2 / b_bias=0 / direct=3 / weightb=1 / open_gop=0 / weightp=2 / keyint=240 / keyint_min=24 / scenecut=40 / intra_refresh=0 / rc_lookahead=80 / rc=2pass / mbtree=0 / bitrate=1865 / ratetol=2.0 / qcomp=0.70 / qpmin=0 / qpmax=69 / qpstep=4 / cplxblur=20.0 / qblur=0.5 / vbv_maxrate=20000 / vbv_bufsize=25000 / nal_hrd=none / ip_ratio=1.40 / pb_ratio=1.30 / aq=2:0.90

АудиоИдентификатор : 2Формат : AC-3Формат/Информация : Audio Coding 3Расширение режима : CM (complete main)Идентификатор кодека : A_AC3Продолжительность : 1 ч. 32 м.Вид битрейта : ПостоянныйБитрейт : 384 Кбит/секКанал(ы) : 6 канала(ов)Расположение каналов : Front: L C R, Side: L R, LFEЧастота : 48,0 КГцБитовая глубина : 16 битМетод сжатия : С потерямиРазмер потока : 254 Мбайт (17%)Язык : Russian

Меню00:00:00.000 : en:Глава 100:06:53.000 : en:Глава 200:11:54.000 : en:Глава 300:17:00.000 : en:Глава 400:22:03.000 : en:Глава 500:27:16.000 : en:Глава 600:32:18.000 : en:Глава 700:37:20.000 : en:Глава 800:42:20.000 : en:Глава 900:47:23.000 : en:Глава 1000:52:26.000 : en:Глава 1100:57:30.000 : en:Глава 1201:02:35.000 : en:Глава 1301:07:35.000 : en:Глава 1401:12:38.000 : en:Глава 1501:17:42.000 : en:Глава 1601:22:43.000 : en:Глава 17

piratbit.ru

Скачать фильм Курьер из «Рая» через торрент в хорошем качестве бесплатно WEB-DLRip

Размер: 702 MB | Добавлен: 3 года 9 мес. назад | Торрент скачан:445 раз
Реклама Дарим 3000 рублей за регистрацию, не упусти свой шанс получить шикарный бонус!!!

Курьер из «Рая»

Год выпуска: 2013Страна: РоссияЖанр: комедия, приключения,Продолжительность: 01:32:26Режиссер: Михаил Хлебородов

В ролях: Евгений Ткачук, Елизавета Боярская, Гоша Куценко, Дмитрий Дюжев, Игорь Скляр, Дмитрий Нагиев, Артем Ткаченко, Екатерина Климова, Екатерина Федулова, Олег Тактаров,

Описание: Егор Глазунов работает в криминальной полиции столицы и обладает удивительным даром — «врать с листа». Это умение очень выручает его в далёком маленьком городе, которых на карте России великое множество. Сюда Глазунов отправляется помочь другу детства Артёму — обычному курьеру с необычными принципами, у которого угнали доставшийся ему по странному стечению обстоятельств «Мерседес». Все следы ведут к местному авторитету, подобраться к которому невозможно. Последний шанс — прийти с «проверкой» из «следственного комитета». Сюжет гоголевского «Ревизора» превращается в историю новой России.Качество: WEB-DLRipФормат: AVIВидео кодек: XviDАудио кодек: MP3 Видео: 640x272, 24.000 fps, ~ 923 Kbit/sАудио: 48000 Hz, 2 каналов, 128 kbit/s Скачать Курьер из «Рая» через торрент http://pic.pb.wtf/images/6/i4a54.jpg Скачать фильм Курьер из «Рая» через торрент бесплантно в хорошем качестве Описание: Егор Глазунов работает в криминальной полиции столицы и обладает удивительным даром — «врать с листа». Это умение очень выручает ... 2013-12-31 07:11 8.3 10 15

Loading...

Loading...

Рекламный пират

Дорогой пользователь! Огромная просьба, поблагодарите релизера, оцените раздачу и оставьте свои комментарий, если Вы скачали Курьер из «Рая» через торрент бесплатно! Внесите свою лепту в развитие PiratBit!

Комментировать посты могут только пользователи прошедшие не сложную регистрацию

Курьер из «Рая» через торрент Скачать бесплатно Курьер из «Рая» Курьер из «Рая» скачать торрент Курьер из «Рая» смотреть онлайн Cкачать фильм Курьер из «Рая» бесплатно Курьер из «Рая» скачать торрент в хорошем качестве Курьер из «Рая» смотреть онлайн бесплатно в хорошем качестве

Вы не можете начинать темыВы не можете отвечать на сообщенияВы не можете редактировать свои сообщенияВы не можете удалять свои сообщенияВы не можете голосовать в опросахВы не можете прикреплять файлы к сообщениямВы можете скачивать файлы

piratbit.ru


Смотрите также