Скачать бесплатно хостел через торрент бесплатно в хорошем качестве


Скачать фильм ХОСТЕЛ через торрент в хорошем качестве бесплатно HDTVRip

piratbit.ru

Раздают: 1 [ 0 KB/s ]
Размер: 1.46 GB | Добавлен: 7 лет 5 мес. назад | Торрент скачан:931 раз
Реклама Дарим 3000 рублей за регистрацию, не упусти свой шанс получить шикарный бонус!!!

ЕВГЕНИЙ ОЛЕГОВИЧ

22-05-2010 12:56 ХОСТЕЛ Скачать торрент  

ХОСТЕЛ / HOSTEL

Год выпуска: 2005Страна: РоссияЖанр: Ужасы, ТриллерПродолжительность: 01:33:51Перевод: Профессиональный (полное дублирование)Тип релиза: Пиратка

Режиссер: Элай Рот / Eli RothПродюссер: Квентин Тарантино, Марк Бакунас, Крис БриггсСценарий: Элай Рот

Бюджет: $10 200 000Премьера в мире: $25 619 434

В ролях: Джей Эрнандес, Дерек Ричардсон, Эйтор Гудйонссон, Барбара Недельякова, Яна Кадерабкова, Ян Власак, Дженнифер Лим, Любомир Силхавеки, Пола Уайлд, Марк Тэйлор, Рик Хоффман

Описание: Американские туристы путешествуют по Европе в поисках сексуальных приключений, но в одном из городков Словакии есть место, где любые даже самые страшные фантазии можно воплотить в жизнь. Именно там грех возведен в культ, а мучительная смерть лучшая оплата за предоставленные услуги... Какую цену готовы заплатить искатели приключений за неизвестность, и как далеко их может завести инстинкт самосохранения?..

Качество: HDTVRipФормат: AVIВидео кодек: XviDАудио кодек: MP3 Видео: 640x272 (2.35:1), 25 fps, XviD build 41 ~957 kbps avg, 0.22 bit/pixelАудио: 48 kHz, MPEG Layer 3, 2 ch, ~128.00 kbps avg (RUS)

Скачать ХОСТЕЛ через торрент http://i4.fastpic.ru/big/2010/0522/43/894e625c1a1983fb38a92982469bda43.jpg Скачать фильм ХОСТЕЛ через торрент бесплантно в хорошем качестве Описание: Американские туристы путешествуют по Европе в поисках сексуальных приключений, но в одном из городков Словакии есть место, где ... 2010-05-22 12:56 9.9 10 9

Loading...

Loading...

Рекламный пират

22-05-2010 20:02 ХОСТЕЛ Скачать торрент  

спасибо,смотрел как то по телеку-жуткий фильмец

ЕВГЕНИЙ ОЛЕГОВИЧ

22-05-2010 20:14 ХОСТЕЛ Скачать торрент  

ага !!!!!!!!! очень !!!!!!!!!!! ну я на ночь остаюсь так что качайте с удовольствием !!!!!!!!!!!!!

10-09-2011 03:03 ХОСТЕЛ Скачать торрент  

Почитал комменты под этой частью и под второй, все говорят жуткий фильм, да похлеще пилы, не знаю, меня вообще кушать тянет, когда я такие фильмы смотрю))))))) ахаха, н.. я о том, что они для меня обычные) И пила только четвёртая часть мне понравилась, если брать не сценарий, а именно убийства) Сейчас гляну, скачал файлы на обе части, поставил грузиться

Дорогой пользователь! Огромная просьба, поблагодарите релизера, оцените раздачу и оставьте свои комментарий, если Вы скачали ХОСТЕЛ через торрент бесплатно! Внесите свою лепту в развитие PiratBit!

Комментировать посты могут только пользователи прошедшие не сложную регистрацию

ХОСТЕЛ через торрент Скачать бесплатно ХОСТЕЛ ХОСТЕЛ скачать торрент ХОСТЕЛ смотреть онлайн Cкачать фильм ХОСТЕЛ бесплатно ХОСТЕЛ скачать торрент в хорошем качестве ХОСТЕЛ смотреть онлайн бесплатно в хорошем качестве

Вы не можете начинать темыВы не можете отвечать на сообщенияВы не можете редактировать свои сообщенияВы не можете удалять свои сообщенияВы не можете голосовать в опросахВы не можете прикреплять файлы к сообщениямВы можете скачивать файлы

Скачать фильм Хостел 2 через торрент в хорошем качестве бесплатно HDTVRip

piratbit.ru

Размер: 1.46 GB | Добавлен: 7 лет 5 мес. назад | Торрент скачан:816 раз
Реклама Дарим 3000 рублей за регистрацию, не упусти свой шанс получить шикарный бонус!!!

ЕВГЕНИЙ ОЛЕГОВИЧ

21-05-2010 12:07 Хостел 2 Скачать торрент  

Хостел 2 / Hostel II

Год выпуска: 2007Страна: СШАЖанр: Ужасы, ТриллерПродолжительность: 01:34:58Перевод: Профессиональный (полное дублирование)Тип релиза: Пиратка

Режиссер: Элай Рот / Eli RothПродюссер: Квентин Тарантино, Марк Бакунас, Крис БриггсСценарий: Элай Рот

Бюджет: $10 200 000Премьера в мире: $35 619 521

В ролях: Лорен Джерман, Роджер Барт, Хизер Матараццо, Бижу Филлипс, Ричард Берджи, Вера Йорданова, Джей Эрнандез, Джордан Лэдд, Милан Князко, Эдвидж Фенек

Описание: Три девушки-студентки, путешествуя по Европе, решили по-дольше задержаться в Братиславе (Словакия). Сами того не ведая, они попадают в царство мяса и крови. Ведь одна из здешних гостиниц, в которую приезжают наши героини, таит мрачный секрет — таинственную организацию, которая занимается пытками и убийствами. Сумеют ли девушки выбраться из этого кровавого ада живыми?

Доп. информация: Примечание: слабонервным, лицам с неустойчивой психикой, беременным женщинам, а также детям данный фильм смотреть не рекомендуется!

Качество: HDTVRipФормат: AVIВидео кодек: XviDАудио кодек: MP3 Видео: 688x288, 965 kbps, 23,976 fps, 0.20 b/pАудио: 48000 Hz, 2-channel, 128 kbps

Скачать Хостел 2 через торрент http://i4.fastpic.ru/big/2010/0521/68/9fbb2e4978c790ee6398a77a17375868.jpg Скачать фильм Хостел 2 через торрент бесплантно в хорошем качестве Описание: Три девушки-студентки, путешествуя по Европе, решили по-дольше задержаться в Братиславе (Словакия). Сами того не ведая, они ... 2010-05-21 12:07 9.8 10 4

Loading...

Loading...

Рекламный пират

21-05-2010 12:34 Хостел 2 Скачать торрент  

Фильм просто мега! Всем советую ;)

21-05-2010 15:28 Хостел 2 Скачать торрент  

Было б 6 каналов звука скачал бы =(

ЕВГЕНИЙ ОЛЕГОВИЧ

21-05-2010 15:32 Хостел 2 Скачать торрент  

я рад что вам понравился фильм у меня ещё есть часть 1 могу выложить ????????????????

21-05-2010 16:25 Хостел 2 Скачать торрент  

Доп. информация: Примечание: слабонервным, лицам с неустойчивой психикой, беременным женщинам, а также детям данный фильм смотреть не рекомендуется! да ну нафиг

ЕВГЕНИЙ ОЛЕГОВИЧ

21-05-2010 16:26 Хостел 2 Скачать торрент  

отвечаю этот фильм очень страшный раз в 100 круче чем пила !!!!!!!!!!!!!!!!!!!!!

21-05-2010 18:21 Хостел 2 Скачать торрент  

Выкладывай первую часть)

ЕВГЕНИЙ ОЛЕГОВИЧ

21-05-2010 18:36 Хостел 2 Скачать торрент  

пуля писал(а):

Выкладывай первую часть)

ты не против я зав выложу я щас очень просто занят !!!!!!!!!!!!!!!!

21-05-2010 19:51 Хостел 2 Скачать торрент  

Примечание: слабонервным, лицам с неустойчивой психикой, беременным женщинам, а также детям данный фильм смотреть не рекомендуется!

Интересно,это кто-то видит?

А по теме:по НТВ видел только концовку фильма,кровищи было много - мне понравилось,на ночь поставлю,пусть качается,завтра посмотрю

З.Ы.:автор давай первую часть))

Pекламный агент PB

Рычков Николай

21-05-2010 20:50 Хостел 2 Скачать торрент  

Фильм отличный!!! Пила радует своей изощренностью и новыми идеями методов убийства.А хостел... Кто любит море крови и беспорядочные убийства рекомендую. Качайте, смотрите и не забывайте говорить СПАСЫБА!!!

21-05-2010 21:34 Хостел 2 Скачать торрент  

1-ый Хостел интереснее был

ЕВГЕНИЙ ОЛЕГОВИЧ

22-05-2010 05:39 Хостел 2 Скачать торрент  

рад что все оценили !!!!!!!!!!!! сегодня будет 1 часть !!!!!!!!!!!!!!!!!

ЕВГЕНИЙ ОЛЕГОВИЧ

22-05-2010 14:15 Хостел 2 Скачать торрент  

кому там было нужно 1 часть ВЫЛОЖЕНА !!!!!!!!!!!!!!!!!!!!!!!!!!!!!!!

08-06-2010 22:04 Хостел 2 Скачать торрент  

Я нашёл только два отличия от первой части. 1. Вместо мальчиков - девочки.2. Последние 5-10мин фильма.Звук, качество, в норме.Автор, конечно же спасибо.P.S. Пункт второй, ооочень огорчил (больно, наверно.........)

14-08-2011 17:56 Хостел 2 Скачать торрент  

Спасибо, забираю))

10-09-2011 16:02 Хостел 2 Скачать торрент  

что-то никак, посмотрел первую часть, кино слабовато для меня.. сейчас буду смотреть вторую...

Дорогой пользователь! Огромная просьба, поблагодарите релизера, оцените раздачу и оставьте свои комментарий, если Вы скачали Хостел 2 через торрент бесплатно! Внесите свою лепту в развитие PiratBit!

Комментировать посты могут только пользователи прошедшие не сложную регистрацию

Хостел 2 через торрент Скачать бесплатно Хостел 2 Хостел 2 скачать торрент Хостел 2 смотреть онлайн Cкачать фильм Хостел 2 бесплатно Хостел 2 скачать торрент в хорошем качестве Хостел 2 смотреть онлайн бесплатно в хорошем качестве

Вы не можете начинать темыВы не можете отвечать на сообщенияВы не можете редактировать свои сообщенияВы не можете удалять свои сообщенияВы не можете голосовать в опросахВы не можете прикреплять файлы к сообщениямВы можете скачивать файлы

Скачать фильм Хостел 3 через торрент в хорошем качестве бесплатно 720p

piratbit.ru

Размер: 4.61 GB | Добавлен: 5 лет 9 мес. назад | Торрент скачан:217 раз
Реклама Дарим 3000 рублей за регистрацию, не упусти свой шанс получить шикарный бонус!!!

14-01-2012 15:36 Хостел 3 Скачать торрент  

Хостел 3 / Hostel: Part III / UNRATED Страна: СШАЖанр: Хоррор, ужасы, триллерГод выпуска: 2011Продолжительность: 01:27:45Перевод: Профессиональный (многоголосый) |Лицензия|Cубтитры: английскиеОригинальная аудиодорожка: английскийРежиссер: Скотт Спигел / Scott SpiegelВ ролях: Томас Кречманн, Кип Парду, Джон Хенсли, Сара Хабель, Бэрри Ливингстон, Брайан Хэллисей, Келли Тибо, Скайлер Стоун, Дэнни ДжейкобсОписание: На этот раз события развернутся не в кровожадных притонах Словакии, а в Лас-Вегасе, где одна холостяцкая вечеринка пошла не совсем по плану — нас ожидает очередная кровавая бойня.СЭМПЛТип релиза: BDRip 720pКонтейнер: MKVВидео кодек: AVCАудио кодек: AC3, DTSВидео: 1280x720p (16:9), 23.976 fps, 5624 kbpsАудио: Russian: 48 kHz, AC3 5.1, 384.00 kbps |Лицензия|Аудио 2: English: 48 kHz, DTS 5.1, 1536 kbpsФормат субтитров: softsub (SRT)

GeneralUnique ID : 201826135676361184916045625805578344354 (0x97D64CC163FEEADB98BF6DC10BE697A2)Complete name : D:\Movies\Hostel.Part.III.2011.UNRATED.720p.BluRay.x264-UNTOUCHABLES.Midnight)sky.mkvFormat : MatroskaFormat version : Version 2File size : 4.61 GiBDuration : 1h 27mnOverall bit rate : 7 516 KbpsMovie name : Хостел 3 / Hostel: Part III (Midnight)sky)Encoded date : UTC 2012-01-14 11:23:05Writing application : mkvmerge v5.2.1 ('A Far Off Place') built on Jan 2 2012 23:21:10Writing library : libebml v1.2.3 + libmatroska v1.3.0VideoID : 1Format : AVCFormat/Info : Advanced Video CodecFormat profile : [email protected] settings, CABAC : YesFormat settings, ReFrames : 5 framesCodec ID : V_MPEG4/ISO/AVCDuration : 1h 27mnBit rate : 5 624 KbpsWidth : 1 280 pixelsHeight : 720 pixelsDisplay aspect ratio : 16:9Frame rate : 23.976 fpsColor space : YUVChroma subsampling : 4:2:0Bit depth : 8 bitsScan type : ProgressiveBits/(Pixel*Frame) : 0.255Stream size : 3.35 GiB (73%)Writing library : x264 core 120 r2120 0c7dab9Encoding settings : cabac=1 / ref=5 / deblock=1:0:0 / analyse=0x3:0x133 / me=umh / subme=7 / psy=1 / psy_rd=1.00:0.00 / mixed_ref=1 / me_range=16 / chroma_me=1 / trellis=1 / 8x8dct=1 / cqm=0 / deadzone=21,11 / fast_pskip=0 / chroma_qp_offset=-2 / threads=12 / sliced_threads=0 / nr=0 / decimate=1 / interlaced=0 / bluray_compat=0 / constrained_intra=0 / bframes=3 / b_pyramid=2 / b_adapt=2 / b_bias=0 / direct=1 / weightb=1 / open_gop=0 / weightp=2 / keyint=250 / keyint_min=23 / scenecut=40 / intra_refresh=0 / rc_lookahead=40 / rc=2pass / mbtree=1 / bitrate=5624 / ratetol=1.0 / qcomp=0.60 / qpmin=0 / qpmax=69 / qpstep=4 / cplxblur=20.0 / qblur=0.5 / ip_ratio=1.40 / aq=1:1.00Language : EnglishAudio #1ID : 2Format : AC-3Format/Info : Audio Coding 3Mode extension : CM (complete main)Codec ID : A_AC3Duration : 1h 27mnBit rate mode : ConstantBit rate : 384 KbpsChannel(s) : 6 channelsChannel positions : Front: L C R, Side: L R, LFESampling rate : 48.0 KHzBit depth : 16 bitsCompression mode : LossyStream size : 241 MiB (5%)Language : RussianAudio #2ID : 3Format : DTSFormat/Info : Digital Theater SystemsCodec ID : A_DTSDuration : 1h 27mnBit rate mode : ConstantBit rate : 1 510 KbpsChannel(s) : 6 channelsChannel positions : Front: L C R, Side: L R, LFESampling rate : 48.0 KHzBit depth : 16 bitsCompression mode : LossyStream size : 948 MiB (20%)Language : EnglishTextID : 4Format : UTF-8Codec ID : S_TEXT/UTF8Codec ID/Info : UTF-8 Plain TextLanguage : English

Скачать Хостел 3 через торрент http://i27.fastpic.ru/big/2012/0112/3d/f7dd42fd13ddb44e79ca20962a5e953d.jpg Скачать фильм Хостел 3 через торрент бесплантно в хорошем качестве Описание: На этот раз события развернутся не в кровожадных притонах Словакии, а в Лас-Вегасе, где одна холостяцкая вечеринка пошла не ... 2012-01-14 15:36 10 10 2

Loading...

Loading...

Рекламный пират

14-01-2012 15:38 Хостел 3 Скачать торрент  

Офигеть! Автор 5+ ! Это реально третья часть?

14-01-2012 16:08 Хостел 3 Скачать торрент  

Rare_baSTARd, конешно третья часть, что за глупые вопросы )

14-01-2012 18:13 Хостел 3 Скачать торрент  

Спасибо за труды, но фильм отстой!

14-01-2012 19:52 Хостел 3 Скачать торрент  

фильм зачет)))+5

Дорогой пользователь! Огромная просьба, поблагодарите релизера, оцените раздачу и оставьте свои комментарий, если Вы скачали Хостел 3 через торрент бесплатно! Внесите свою лепту в развитие PiratBit!

Комментировать посты могут только пользователи прошедшие не сложную регистрацию

Хостел 3 через торрент Скачать бесплатно Хостел 3 Хостел 3 скачать торрент Хостел 3 смотреть онлайн Cкачать фильм Хостел 3 бесплатно Хостел 3 скачать торрент в хорошем качестве Хостел 3 смотреть онлайн бесплатно в хорошем качестве

Вы не можете начинать темыВы не можете отвечать на сообщенияВы не можете редактировать свои сообщенияВы не можете удалять свои сообщенияВы не можете голосовать в опросахВы не можете прикреплять файлы к сообщениямВы можете скачивать файлы

Скачать фильм Хостел через торрент в хорошем качестве бесплатно 1080p

ОбщееУникальный идентификатор : 181784203500814858910924474377193673651 (0x88C25D3541AC45DBA9AF4091404C53B3)Полное имя : D:\Торенты\Hostel.BDRip.1080p.x264.HDT.mkvФормат : MatroskaВерсия формата : Version 1Размер файла : 7,89 ГбайтПродолжительность : 1 ч. 33 м.Общий поток : 12,1 Мбит/секНазвание фильма : Hostel.BDRip.1080p.x264.HDTracker.ruДата кодирования : UTC 2007-10-21 11:25:22Программа кодирования : mkvmerge v2.0.2 ('You're My Flame') built on Aug 15 2007 20:05:20Библиотека кодирования : libebml v0.7.7 + libmatroska v0.8.1

ВидеоИдентификатор : 1Формат : AVCФормат/Информация : Advanced Video CodecПрофиль формата : [email protected]Параметр CABAC формата : ДаПараметр ReFrames формата : 9 кадровИдентификатор кодека : V_MPEG4/ISO/AVCПродолжительность : 1 ч. 33 м.Битрейт : 9800 Кбит/секШирина : 1920 пикселейВысота : 816 пикселейСоотношение сторон : 2,35:1Частота кадров : 23,976 кадра/секЦветовое пространство : YUVСубдискретизация насыщенности : 4:2:0Битовая глубина : 8 битТип развёртки : ПрогрессивнаяБит/(Пиксели*Кадры) : 0.261Размер потока : 6,25 Гбайт (79%)Заголовок : 1920x816, x264, ~9800kbpsБиблиотека кодирования : x264 core 56 svn-680Настройки программы : cabac=1 / ref=6 / deblock=1:-2:-2 / analyse=0x3:0x133 / me=umh / subme=7 / brdo=0 / mixed_ref=1 / me_range=16 / chroma_me=1 / trellis=1 / 8x8dct=1 / cqm=2 / deadzone=21,11 / chroma_qp_offset=0 / threads=3 / nr=0 / decimate=0 / mbaff=0 / bframes=3 / b_pyramid=1 / b_adapt=1 / b_bias=0 / direct=3 / wpredb=1 / bime=1 / keyint=250 / keyint_min=25 / scenecut=40(pre) / rc=2pass / bitrate=9800 / ratetol=1.0 / rceq='blurCplx^(1-qComp)' / qcomp=0.60 / qpmin=10 / qpmax=51 / qpstep=4 / cplxblur=20.0 / qblur=0.5 / ip_ratio=1.40 / pb_ratio=1.30Язык : EnglishDefault : ДаForced : Нет

Аудио #1Идентификатор : 2Формат : DTSФормат/Информация : Digital Theater SystemsИдентификатор кодека : A_DTSПродолжительность : 1 ч. 33 м.Вид битрейта : ПостоянныйБитрейт : 755 Кбит/секКаналы : 6 каналовРасположение каналов : Front: L C R, Side: L R, LFEЧастота : 48,0 КГцБитовая глубина : 24 битМетод сжатия : С потерямиРазмер потока : 505 Мбайт (6%)Заголовок : DTS 5.1, 768kbpsЯзык : RussianDefault : НетForced : Нет

Аудио #2Идентификатор : 3Формат : DTSФормат/Информация : Digital Theater SystemsИдентификатор кодека : A_DTSПродолжительность : 1 ч. 33 м.Вид битрейта : ПостоянныйБитрейт : 1510 Кбит/секКаналы : 6 каналовРасположение каналов : Front: L C R, Side: L R, LFEЧастота : 48,0 КГцБитовая глубина : 24 битМетод сжатия : С потерямиРазмер потока : 1011 Мбайт (13%)Заголовок : DTS 5.1, 1536kbpsЯзык : EnglishDefault : ДаForced : Нет

ТекстИдентификатор : 4Формат : UTF-8Идентификатор кодека : S_TEXT/UTF8Идентификатор кодека/Информация : UTF-8 Plain TextЯзык : EnglishDefault : ДаForced : Нет

piratbit.ru


Смотрите также