Скачать бесплатно фантом 2011 через торрент в хорошем качестве бесплатно


Скачать фильм Фантом (2011) через торрент

20 января 2016 08:16 Фантом / The Darkest Hour (2011) Bu-ray CEE | D .torrent   [Информация о файле (нажмите для просмотра)] Перевод: ДубляжКачество: Bu-ray CEEВидео: 25448 kbps, 23,976 fps, 2.40:1Звук: Английский DTS-HD MA 5.1 Японский DTS 5.1 Русский DTS 5.1 (768 kbps) (Дубляж) Чешский Dolby Digital 5.1 Хинди Dolby Digital 5.1 Венгерский Dolby Digital 5.1 Польский Dolby Digital 5.1 Тайский Dolby Digital 5.1 Турецкий Dolby Digital 5.1 Украинский Dolby Digital 5.1 (448 kbps) (Дубляж) Урду Dolby Digital 5.1Субтитры: Английский, Арабский, Болгарский, Китайский, Хорватский, Чешский, Эстонский, Греческий, Иврит, Венгерский, Исландский, Индонезийский, Японский, Корейский, Латышский, Литовский, Малайский, Польский, Португальский, Румынский, Русский, Сербский, Словенский, Тайский, Турецкий, Украинский, Вьетнамский 28,76 Gb 7 5 20 января 2016 08:16 Фантом / The Darkest Hour (2011) DVD5 .torrent   [Информация о файле (нажмите для просмотра)] Видео: Идентификатор : 224 (0xE0) Формат : MPEG Video Версия формата : Version 2 Профиль формата : [email protected] Параметр BVOP формата : Да Параметр матрицы формата : Выборочная Параметр GOP формата : Variable Продолжительность : 19 м. Вид битрейта : Переменный Битрейт : 6191 Кбит/сек Ширина : 720 пикселей Высота : 576 пикселей Соотношение сторон : 16:9 Частота кадров : 25,000 кадров/сек Стандарт вещания : PAL Цветовое пространство : YUV Субдискретизация насыщенности : 4:2:0 Битовая глубина : 8 бит Тип развёртки : Прогрессивная Метод сжатия : С потерями Бит/(Пиксели*Кадры) : 0.597 Размер потока : 885 Мбайт (86%) Выравнивание : encoded by TMPGEnc (ver. 2.524.63.181) Заголовок : TMPGEnc Программа кодирования : 2.524.63.181 Библиотека кодирования : TMPGEnc 2.524.63.181 Основные цвета : BT.601 PAL Характеристики трансфера : BT.470 System B, BT.470 System G Коэффициенты матрицы : BT.601Аудио #1: Идентификатор : 189 (0xBD)-128 (0x80) Формат : AC-3 Формат/Информация : Audio Coding 3 Расширение режима : CM (complete main) Параметр Endianness формата : Big Режим смешивания : DVD-Video Продолжительность : 19 м. Вид битрейта : Постоянный Битрейт : 448 Кбит/сек Каналы : 6 каналов Расположение каналов : Front: L C R, Side: L R, LFE Частота : 48,0 КГц Битовая глубина : 16 бит Метод сжатия : С потерями Задержка видео : 6 мс. Размер потока : 64,0 Мбайт (6%)Аудио #2: Идентификатор : 189 (0xBD)-130 (0x82) Формат : AC-3 Формат/Информация : Audio Coding 3 Расширение режима : CM (complete main) Параметр Endianness формата : Big Режим смешивания : DVD-Video Продолжительность : 19 м. Вид битрейта : Постоянный Битрейт : 384 Кбит/сек Каналы : 6 каналов Расположение каналов : Front: L C R, Side: L R, LFE Частота : 48,0 КГц Битовая глубина : 16 бит Метод сжатия : С потерями Задержка видео : 6 мс. Размер потока : 54,9 Мбайт (5%)Перевод: Профессиональный (дублированный)Кодек: MPEG2Качество: DVD5Видео: PAL 16:9 (720x576) VBR 6191 Кбит/сек, 25.000 кадров/секЗвук: English (Dolby AC3, 6 ch) 448 Кбит/сек Russian (Dolby AC3, 6 ch) 384 Кбит/секСубтитры: English, Francais, Nederlands, Estonian, Latvian, Lithuanian, Russian, Ukrainian 4,32 Gb 4 2 20 января 2016 08:16 Фантом / The Darkest Hour (2011) HDRip от Scarabey | Лицензия .torrent   [Информация о файле (нажмите для просмотра)] Перевод: Профессиональный (дублированный)Видео: 720x304 (2.37:1), 23.976 fps, XviD build 50 ~1874 kbps avg, 0.36 bit/pixelАудио: 48 kHz, AC3 Dolby Digital, 3/2 (L,C,R,l,r) + LFE ch, ~384.00 kbps avg 1,41 Gb 26 5 20 января 2016 08:16 Фантом / The Darkest Hour (2011) HDRip от Scarabey | Лицензия .torrent   [Информация о файле (нажмите для просмотра)] Перевод: Профессиональный (дублированный)Видео: 688x288 (2.39:1), 23.976 fps, XviD build 50 ~1030 kbps avg, 0.22 bit/pixelАудио: 48 kHz, MPEG Layer 3, 2 ch, ~128.00 kbps avg 743,24 Mb 8 1 20 января 2016 08:16 Фантом 3D / The Darkest Hour 3D (2011) BDRip | 3D-video (Анаглиф) .torrent   [Информация о файле (нажмите для просмотра)] Перевод: Дублированный [Лицензия]Кодек: h364Качество: BDRipВидео: 1280x536, 6918 Кбит/с, 23.98 fpsЗвук: AC3, 384 Кбит/с, 48 kHz 4,31 Gb 6 2 20 января 2016 08:16 Фантом / The Darkest Hour (2011) BDRip | КПК от Generalfilm .torrent   [Информация о файле (нажмите для просмотра)] Качество: ВDRip | КПКВидео: кодеккодек: x264,формат: mp4,размер кадра: 480х208, битрейт: 350 кб/сАудио: языкрусский, перевод: Дублированный (дубляж), 306,46 Mb 3 2 20 января 2016 08:16 Фантом / The Darkest Hour (2011) BDRip от HQ-ViDEO .torrent   [Информация о файле (нажмите для просмотра)] Перевод: Русский дублированныйСубтитры: Русские (3 вида), Украинские, Английские (полные (2 вида), SDH (2 вида), форсированные).Качество: BDRipКодек: XviD, build Видео: 720 x 304, 2.37:1; 23.976 fps; ~ Аудио #1: 48 kHz, AC3 Dolby Digital, 3/2 (L,C,R,l,r) + LFE ch, ~Аудио #2: 48 kHz, AC3 Dolby Digital, 3/2 (L,C,R,l,r) + LFE ch, ~Аудио #3: 48 kHz, AC3Dolby Digital, 3/2 (L,C,R,l,r) + LFE ch, ~ 1,45 Gb 21 5 20 января 2016 08:16 Фантом / The Darkest Hour (2011) BDRip 1080p .torrent   [Информация о файле (нажмите для просмотра)] Перевод: ДублированныйКодек: x264Качество: BDRip 1080pВидео: 1920x800, 6373 Kbps, 23.976 fpsЗвук: 48 kHz, AC3, 6c, 640 kbpsСубтитры: русские, английские 4,37 Gb 15 2 20 января 2016 08:15 Фантом / The Darkest Hour (2011) BDRemux .torrent   [Информация о файле (нажмите для просмотра)] Качество: BD RemuxФормат: MKVВидео: MPEG-4 AVC, 25.3. Мбит/с, 1920x1080, 23.976 кадр/сАудио 1: AC3, 6 ch, 384 Кбит/с русскийАудио 2: DTS-HD, 6 ch, 3814 Кбит/с английская 17,25 Gb 11 5 20 января 2016 08:15 Фантом / The Darkest Hour (2011) BD3D 1080p | 3D-Video | D .torrent   [Информация о файле (нажмите для просмотра)] Перевод: ДубляжКонтейнер: ISOВидео: MPEG-4 AVC Video / 23547 kbps / 1080p / 23,976 fps / 16:9 / High Profile 4.1 MPEG-4 MVC Video / 13917 kbpsАудио 1: English / DTS-HD Master Audio / 5.1 / 48 kHz / 3775 kbps / 24-bit (DTS Core: 5.1 / 48 kHz / 1509 kbps / 24-bit)Аудио 2: Russian / DTS Audio / 5.1 / 48 kHz / 768 kbps / 24-bitАудио 3: Hindi / Dolby Digital Audio / 5.1 / 48 kHz / 448 kbpsАудио 4: Hungarian / Dolby Digital Audio / 5.1 / 48 kHz / 448 kbpsАудио 5: Thai / Dolby Digital Audio / 5.1 / 48 kHz / 448 kbpsАудио 6: Ukrainian / Dolby Digital Audio / 5.1 / 48 kHz / 448 kbpsАудио 7: Urdu / Dolby Digital Audio / 5.1 / 48 kHz / 448 kbps 32,92 Gb 6 2 20 января 2016 08:15 Фантом / The Darkest Hour (2011) BDRip 720p от FREEISLAND .torrent   [Информация о файле (нажмите для просмотра)] Перевод: Профессиональный (дублированный)Кодек: H.264Качество: BDRip 720pВидео: 1280x534 (2.35:1), 23.976 fps, AVC, 6 628 KbpsЗвук: AC3, 384 Kbps, 48.0 KHz, 6 ch RUS DubСубтитры: русские, английские (srt) 4,36 Gb 10 2 20 января 2016 08:15 Фантом / The Darkest Hour (2011) BDRip от HQCLUB .torrent   [Информация о файле (нажмите для просмотра)] Перевод: профессиональный (полное дублирование)Субтитры: русские, английские, украинскиеФормат: AVIКачество: BDRip (источник:Видео: 720x304 (1.76:1), 23.976 fps, XviD build 64 ~1873 kbps avg, 0.36 bit/pixelАудио #1: 48 kHz, AC3, 3/2 (L,C,R,l,r) + LFE ch, ~448 kbps avg (RUS)Аудио #2: 48 kHz, AC3, 3/2 (L,C,R,l,r) + LFE ch, ~448 kbps avg (UKR)(отдельно)Аудио #3: 48 kHz, AC3, 3/2 (L,C,R,l,r) + LFE ch, ~448 kbps avg (ENG)(отдельно) 1,45 Gb 64 11 20 января 2016 08:15 Фантом / The Darkest Hour (2011) BDrip 1080p | 3D-Video .torrent   [Информация о файле (нажмите для просмотра)] Перевод: Профессиональный (полное дублирование)Качество: BDripКонтейнер: MKVВидео: AVC, 1920x1080, 23.976 кадр/сек, 9,2 Мбит/секАудио 1: русский; AC3, 5.1, 384 Кбит/сек, 48,0 КГцАудио 2: украинский; AC3, 5.1, 384 Кбит/сек, 48,0 КГцАудио 3: английский; AC3, 5.1, 640 Кбит/сек, 48,0 КГц 6,73 Gb 18 2 20 января 2016 08:15 Фантом / The Darkest Hour (2011) BDRip-AVC от ПаZиtиFFк@ | Лицензия .torrent   [Информация о файле (нажмите для просмотра)] Перевод: Дублированный [Лицензия]Кодек: MPEG-4 AVC/H.264Качество: BDRipВидео: 2957 Кбит/сек, 1280x528Звук: AC3, 384 kb/s (6 ch) 2,12 Gb 8 1 20 января 2016 08:15 Фантом / The Darkest Hour (2011) BDRip-AVC от R.G. AVI | AVC | Лицензия .torrent   [Информация о файле (нажмите для просмотра)] Перевод: Профессиональный (полное дублирование) [лицензия]Качество: BDRip-AVC [The Darkest Hour 2011 BluRay Remux 1080p AVC DTS-HD MA5.1-aZA]Формат: MKVВидео: H.264, 1040x432 (2,40:1), 23,976 кадр/сек, 1900 Кбит/сек, 0.176 bit/pixelАудио#1: 48 kHz, AC3 Dolby Digital, 3/2 (L,C,R,l,r) + LFE ch, ~384.00 kbps avg |RUSАудио#2: 48 kHz, AC3 Dolby Digital, 3/2 (L,C,R,l,r) + LFE ch, ~448.00 kbps avg |ENG (narod.ru) 1,42 Gb 9 3 20 января 2016 08:15 Фантом / The Darkest Hour (2011) BDRip 1080p | Лицензия .torrent   [Информация о файле (нажмите для просмотра)] Формат: MKVКачество: BDRip 1080pВидео: 12.6 mb/s, 1920x800Аудио: Russian: AC3, 384 kb/s (6 ch) / Ukrainian: AC3, 384 kb/s (6 ch) / English: DTS, 1510 kb/s (6 ch) Субтитры: Russian, EnglishВидео: Идентификатор : 1 Формат : AVC Формат/Информация : Advanced Video Codec Профиль формата : [email protected] Параметр CABAC формата : Да Параметр ReFrames формата : 5 кадров Идентификатор кодека : V_MPEG4/ISO/AVC Продолжительность : 1 ч. 29 м. Битрейт : 12,6 Мбит/сек Ширина : 1920 пикс. Высота : 800 пикс. Соотношение сторон : 2,40:1 Частота кадров : 23,976 кадр/сек Цветовое пространство : YUV Подвыборка цветности : 4:2:0 Битовая глубина : 8 бит Тип развёртки : Прогрессивная Бит/(Пиксели*Кадры) : 0.341 Размер потока : 7,61 Гбайт (83%) Заголовок : Fantom.2011.D.BDRip.1080p.ELEKTRI4KA Библиотека кодирования : x264 core 122 r2184 5c85e0a Настройки программы : cabac=1 / ref=5 / deblock=1:-3:-3 / analyse=0x3:0x113 / me=umh / subme=10 / psy=1 / psy_rd=1.10:0.00 / mixed_ref=1 / me_range=32 / chroma_me=1 / trellis=2 / 8x8dct=1 / cqm=0 / deadzone=21,11 / fast_pskip=0 / chroma_qp_offset=-4 / threads=18 / sliced_threads=0 / nr=0 / decimate=0 / interlaced=0 / bluray_compat=0 / constrained_intra=0 / bframes=8 / b_pyramid=2 / b_adapt=2 / b_bias=0 / direct=3 / weightb=1 / open_gop=0 / weightp=2 / keyint=250 / keyint_min=23 / scenecut=40 / intra_refresh=0 / rc_lookahead=48 / rc=2pass / mbtree=1 / bitrate=12566 / ratetol=1.0 / qcomp=0.60 / qpmin=0 / qpmax=69 / qpstep=4 / cplxblur=20.0 / qblur=0.5 / ip_ratio=1.40 / aq=1:0.80 Язык : EnglishАудио #1: Идентификатор : 2 Формат : AC-3 Формат/Информация : Audio Coding 3 Расширение режима : CM (complete main) Идентификатор кодека : A_AC3 Продолжительность : 1 ч. 29 м. Вид битрейта : Постоянный Битрейт : 384 Кбит/сек Каналы : 6 каналов Расположение каналов : Front: L C R, Side: L R, LFE Частота : 48,0 КГц Битовая глубина : 16 бит Метод сжатия : С потерями Размер потока : 245 Мбайт (3%) Язык : RussianАудио #2: Идентификатор : 3 Формат : AC-3 Формат/Информация : Audio Coding 3 Расширение режима : CM (complete main) Идентификатор кодека : A_AC3 Продолжительность : 1 ч. 29 м. Вид битрейта : Постоянный Битрейт : 384 Кбит/сек Каналы : 6 каналов Расположение каналов : Front: L C R, Side: L R, LFE Частота : 48,0 КГц Битовая глубина : 16 бит Метод сжатия : С потерями Размер потока : 245 Мбайт (3%) Язык : UkrainianАудио #3: Идентификатор : 4 Формат : DTS Формат/Информация : Digital Theater Systems Идентификатор кодека : A_DTS Продолжительность : 1 ч. 29 м. Вид битрейта : Постоянный Битрейт : 1510 Кбит/сек Каналы : 6 каналов Расположение каналов : Front: L C R, Side: L R, LFE Частота : 48,0 КГц Битовая глубина : 24 бит Метод сжатия : С потерями Размер потока : 964 Мбайт (10%) Язык : English 9,22 Gb 7 2

gig-torrent.net

Скачать фильм Фантом через торрент в хорошем качестве бесплатно HDRip

Размер: 1.36 GB | Добавлен: 5 лет 6 мес. назад | Торрент скачан:9025 раз
Реклама Дарим 3000 рублей за регистрацию, не упусти свой шанс получить шикарный бонус!!!

16-04-2012 20:04 Фантом Скачать торрент  

Фантом _ The Darkest HourГод выпуска: 2011Страна: Россия, США / 20th Century FoxЖанр: фантастика, триллерПродолжительность: 01:28:58Перевод: Дубляж (Лицензия)Тип релиза: ЛицензияРежиссер: Крис ГоракМировой рейтинг IMDB 4.9/10 (11,955)В ролях: Эмиль Хирш, Оливия Тирлби, Макс Мингелла, Рэйчел Тейлор, Йоэль Чиннаман, Вероника Вернадская, Дато Бахтадзе, Гоша Куценко, Николай Ефремов, Артур СмольяниновОписание: Фильм расскажет про американскую туристку, оказавшуюся вместе со своими согражданами в Москве в момент нападения инопланетян на столицу России.Качество: HDRipФормат: AVIВидео кодек: XviDАудио кодек: AC3Видео: 720x304 (2.37:1), 23.976 fps, XviD build 47 ~1802 kbpsАудио: 48 kHz, AC3 Dolby Digital, 3/2 (L,C,R,l,r) + LFE ch, ~384.00 kbps Скачать Фантом через торрент http://s47.radikal.ru/i116/1204/7c/2430b9215f53.png Скачать фильм Фантом через торрент бесплантно в хорошем качестве Описание: Фильм расскажет про американскую туристку, оказавшуюся вместе со своими согражданами в Москве в момент нападения инопланетян на ... 2012-04-16 20:04 10 10 7

Loading...

Loading...

Рекламный пират

17-04-2012 10:34 Фантом Скачать торрент  

17-04-2012 11:10 Фантом Скачать торрент  

как фильм? че то рейтинг не вдохновляет на просмотр

17-04-2012 11:19 Фантом Скачать торрент  

smokan писал(а):

volc40 писал(а):

ПЕРВЫЙЙЙЙЙ))))

дауня твою трубу шатал и калитку дергал (тому кто даун написал )

17-04-2012 11:21 Фантом Скачать торрент  

Отзыв моей девушки.Недостатки: глупости, наличие штампов, ноль актерской игры, очень затянутый, сюжет намешан

Охохонюшки... Вот только вернулась из кинотеатра, на часах полночь, а я ручки вымыла и давай катать отзыв, потому что не могу держать это в себе!В общем, сюжет таков (ежели это можно назвать сюжетом): парочка молодых и одаренных америкосов направляется в Москоу-сити с целью заключить офигенную сделку по поводу какой-то навороченной соц.сети. Нерезиновая встречает их неласково - пареньков кидают, причем с фразой "Это Москва" (ничего,что крендель, произнесший её, швед???))). Огорченные ребятишки направляются в запредельно пафосный клуб с целью погрустить, "напиться и потрах***ся". Встречают девочек-американок (О, случайность!) и кренделя, кинувшего их (ещё одна!))). Но вот начинается вторжение!Смысла описывать дальше это безобразие нету. Главное - они придумали какую-то муть-микроволновку и всех победили. Т.е. оставшиеся в живых американцы отправляются на АТОМНОЙ ПОДВОДНОЙ ЛОДКЕ ПО МОСКВА-РЕКЕ! А русские остаются бороться на местах.В общем1. Бекмабетов как-то патологически любит разносить в пух и прах столицу нашей Родины.2. Русские снова то плохие, то трусливые, то умирают. Только в конце...но об этом позже.3. Сюжетная линия слаба, притянута за уши, отсутствует логика абсолютно. Слабееенький актерский состав (радует только Смолянинов в конце в эпизодах).4. Нет никакой драмы - каждый из забугорных друзей теряет по другу, но никакой трагедии в этом не чувствуется, есть только музыка, но она одна не тянет.5. Каким-то образов сантехник-электрик Сергеич может изъясняться на английском языке, да ещё и терминологию употреблять техническую. Можно без конца приводить минусы этого фильма.6. Куценко...О Б-же! Такой игры я давно не видела! Как школьник из драмкружка. А патетичекие речи из его уст звучали просто смешно.Порадовало меня в фильме 2 момента - это большой и красивый рыжий кот (мне его можно было весь фильм показывать - была б довольна ) и эпизодик со Смоляниновым. Вот у него я увидела действительно путную игру. Верю, как говорится.Ах да, ещё и всю Москву выпилили в прах в самом начале, а это уже плохо для сюжета (хотя его там и нет))...Порадовали меня 2 вещиСначала я смеялась, потом даже этого делать не могла - только руками разводила.

17-04-2012 11:24 Фантом Скачать торрент  

бредовый фильм

17-04-2012 11:32 Фантом Скачать торрент  

Качать не буду....

17-04-2012 11:37 Фантом Скачать торрент  

Фильм ПОЛНОЕ Г!!!!!!!!!!!!!!

Зря потраченное время....

17-04-2012 12:01 Фантом Скачать торрент  

Crem писал(а):

Отзыв моей девушки.Недостатки: глупости, наличие штампов, ноль актерской игры, очень затянутый, сюжет намешан

Охохонюшки... Вот только вернулась из кинотеатра, на часах полночь, а я ручки вымыла и давай катать отзыв, потому что не могу держать это в себе!В общем, сюжет таков (ежели это можно назвать сюжетом): парочка молодых и одаренных америкосов направляется в Москоу-сити с целью заключить офигенную сделку по поводу какой-то навороченной соц.сети. Нерезиновая встречает их неласково - пареньков кидают, причем с фразой "Это Москва" (ничего,что крендель, произнесший её, швед???))). Огорченные ребятишки направляются в запредельно пафосный клуб с целью погрустить, "напиться и потрах***ся". Встречают девочек-американок (О, случайность!) и кренделя, кинувшего их (ещё одна!))). Но вот начинается вторжение!Смысла описывать дальше это безобразие нету. Главное - они придумали какую-то муть-микроволновку и всех победили. Т.е. оставшиеся в живых американцы отправляются на АТОМНОЙ ПОДВОДНОЙ ЛОДКЕ ПО МОСКВА-РЕКЕ! А русские остаются бороться на местах.В общем1. Бекмабетов как-то патологически любит разносить в пух и прах столицу нашей Родины.2. Русские снова то плохие, то трусливые, то умирают. Только в конце...но об этом позже.3. Сюжетная линия слаба, притянута за уши, отсутствует логика абсолютно. Слабееенький актерский состав (радует только Смолянинов в конце в эпизодах).4. Нет никакой драмы - каждый из забугорных друзей теряет по другу, но никакой трагедии в этом не чувствуется, есть только музыка, но она одна не тянет.5. Каким-то образов сантехник-электрик Сергеич может изъясняться на английском языке, да ещё и терминологию употреблять техническую. Можно без конца приводить минусы этого фильма.6. Куценко...О Б-же! Такой игры я давно не видела! Как школьник из драмкружка. А патетичекие речи из его уст звучали просто смешно.Порадовало меня в фильме 2 момента - это большой и красивый рыжий кот (мне его можно было весь фильм показывать - была б довольна ) и эпизодик со Смоляниновым. Вот у него я увидела действительно путную игру. Верю, как говорится.Ах да, ещё и всю Москву выпилили в прах в самом начале, а это уже плохо для сюжета (хотя его там и нет))...Порадовали меня 2 вещиСначала я смеялась, потом даже этого делать не могла - только руками разводила.

А причем здесь Бекмамбетов? так и не понял+ Считаю что "ещё и всю Москву выпилили в прах в самом начале" это наоборот интересный сюжет, всегда интресно смотреть разрушения, особенно когда разрушают твой город. Фильм связанный с инопланетянами без разрушений это бред. Признаюсь фильм пока не смотрел, и не посмотрел бы, но после прочтения этого комментария обязательно посмотрю, а потом отпишусь, думаю что все таки не все так плохо))

Pекламный агент PB

17-04-2012 12:17 Фантом Скачать торрент  

Описание порвало)

17-04-2012 12:20 Фантом Скачать торрент  

))) что это за бред

17-04-2012 12:24 Фантом Скачать торрент  

Ну как все у Бекмамбетова, СПЭЦ ЭФФФЕКТЫ, а сам филь для подростков 14-16 (т.е. не отягощенных м..... жизненными проблеммами, так сказать )посмотрел не напрягаясь ,(как в прочем и "особо опасен", и "дозоры")? а насчет потраченного времени, ну уважайте труд, всетки из такого рождаются шедевры, иногда. например дочери 6 , так ей понравилось местами (сказала что похоже на бакуган помойму, придется пересмотреть и их))))

17-04-2012 13:56 Фантом Скачать торрент  

мне даже это неописать столько эмоций :DDD

17-04-2012 14:46 Фантом Скачать торрент  

За её рулём я как рыцарь на своём боевом коне.

17-04-2012 15:17 Фантом Скачать торрент  

Качесто картинки конечно не HDRip, а скорее всего на DVDRip похоже. Хотя при таком разрешении (720x304) это не столь важно.Спасибо за фильм!

17-04-2012 15:30 Фантом Скачать торрент  

фильм конечно неочень. разок можно посмотреть. Но ошибок куча, например: через стекло они не могут смотреть , а через стеклянные окна могут!!

17-04-2012 16:10 Фантом Скачать торрент  

Нормальный фильм))

Pекламный агент PB

17-04-2012 16:32 Фантом Скачать торрент  

Победа над алиенами началась с чудо-разработки просто русского электрика Сергеича :DDD

17-04-2012 17:02 Фантом Скачать торрент  

да ну его нафиг...большинство засрали этот фильм,следовательно время на него убивать не буду

17-04-2012 17:51 Фантом Скачать торрент  

мда...поначалу интересный и задумка классная но под конец (с момента гоши куценко) в какой то цирк дотошный превратился=)))))

17-04-2012 18:04 Фантом Скачать торрент  

Посмотрел. Не послушал добрых людей. Фильм *хорош*..... для просмотра на следующий день после какой нибудь пьянки. в сочетании с *двумя пальцами в рот* вызывает незамедлительную рвотную реакцию. Кто же решит все таки заценить советую паралельно включить как саундтрек песенку *Васи Обломова -Унылое га*но* .ИМХО

17-04-2012 18:17 Фантом Скачать торрент  

Но автору WISE все равно спасибо за труд. :good2:

17-04-2012 20:05 Фантом Скачать торрент  

Хреновый фильм ,некому из друзей непосоветую ,а ожидал больщего ,но разочаровалься!

17-04-2012 22:20 Фантом Скачать торрент  

фу фекалл(( ну просто шляпа....

18-04-2012 01:27 Фантом Скачать торрент  

приятно видеть американский фильм с русскими актерами =) вроде это 2 такой фильм, 1 был миссия невыполнима=)

Pекламный агент PB

Дорогой пользователь! Огромная просьба, поблагодарите релизера, оцените раздачу и оставьте свои комментарий, если Вы скачали Фантом через торрент бесплатно! Внесите свою лепту в развитие PiratBit!

Комментировать посты могут только пользователи прошедшие не сложную регистрацию

Фантом через торрент Скачать бесплатно Фантом Фантом скачать торрент Фантом смотреть онлайн Cкачать фильм Фантом бесплатно Фантом скачать торрент в хорошем качестве Фантом смотреть онлайн бесплатно в хорошем качестве

Вы не можете начинать темыВы не можете отвечать на сообщенияВы не можете редактировать свои сообщенияВы не можете удалять свои сообщенияВы не можете голосовать в опросахВы не можете прикреплять файлы к сообщениямВы можете скачивать файлы

piratbit.ru

Скачать фильм Фантом через торрент в хорошем качестве бесплатно 1080p)

Фантом / The Darkest Hour

Год выпуска: 2011Страна: США, РоссияЖанр: фантастика, триллерПродолжительность: 01:28:58Перевод: Дубляж (Лицензия)Субтитры: Russian, EnglishТип релиза: Лицензия

Режиссер: Крис ГоракПродюссер: Тимур Бекмамбетов, Том Джейкобсон, Стивен А. Маринаццио IIСценарий: Джон Спэйтс, Лесли Боэм, М.Т. Ахерн

Бюджет: $30 000 000

В ролях: Эмиль Хирш, Оливия Тирлби, Макс Мингелла, Рэйчел Тейлор, Йоэль Чиннаман, Вероника Вернадская, Дато Бахтадзе, Гоша Куценко, Николай Ефремов, Артур Смольянинов

Описание: Фильм расскажет про американскую туристку, оказавшуюся вместе со своими согражданами в Москве в момент нападения инопланетян на столицу России.

Доп. информация: Премьера (мир) 22 декабря 2011Премьера (РФ) 22 декабря 2011, «Двадцатый Век Фокс СНГ» Релиз на Blu-Ray 26 апреля 2012, «Двадцатый Век Фокс СНГ»Релиз на DVD 26 апреля 2012, «Двадцатый Век Фокс СНГ»

Качество: BDRip (1080p)Формат: MKVВидео кодек: H.264Аудио кодек: AC3,DTSВидео: AVC, 1920 x 800 (2.400) at 23.976 fps, AVC at 12,2 Мбит/сек (0.332 bit/pixel)Аудио#1: AC-3, 48.0 KHz, 6 ch, AC-3 at 384 Кбит/сек (Russian)Аудио#2: AC-3, 48.0 KHz, 6 ch, AC-3 at 384 Кбит/сек (UKR)Аудио#3: DTS, 48.0 KHz, 6 ch, 1 510 Kbps, CBR (English)

Общее

Полное имя : Fantom.2011.D.BDRip.1080p.ELEKTRI4KA.mkvФормат : MatroskaВерсия формата : Version 2Размер файла : 9,22 ГбайтПродолжительность : 1 ч. 29 м.Общий поток : 14,8 Мбит/секНазвание фильма : Fantom.2011.D.BDRip.1080p.ELEKTRI4KAДата кодирования : UTC 2012-04-16 18:36:19Программа кодирования : mkvmerge v5.3.0 ('I could have danced') built on Feb 9 2012 10:38:07Библиотека кодирования : libebml v1.2.3 + libmatroska v1.3.0

ВидеоИдентификатор : 1Формат : AVCФормат/Информация : Advanced Video CodecПрофиль формата : [email protected]Параметр CABAC формата : ДаПараметр ReFrames формата : 5 кадровИдентификатор кодека : V_MPEG4/ISO/AVCПродолжительность : 1 ч. 29 м.Битрейт : 12,6 Мбит/секШирина : 1920 пикс.Высота : 800 пикс.Соотношение сторон : 2,40:1Частота кадров : 23,976 кадр/секЦветовое пространство : YUVПодвыборка цветности : 4:2:0Битовая глубина : 8 битТип развёртки : ПрогрессивнаяБит/(Пиксели*Кадры) : 0.341Размер потока : 7,61 Гбайт (83%)Заголовок : Fantom.2011.D.BDRip.1080p.ELEKTRI4KAБиблиотека кодирования : x264 core 122 r2184 5c85e0aНастройки программы : cabac=1 / ref=5 / deblock=1:-3:-3 / analyse=0x3:0x113 / me=umh / subme=10 / psy=1 / psy_rd=1.10:0.00 / mixed_ref=1 / me_range=32 / chroma_me=1 / trellis=2 / 8x8dct=1 / cqm=0 / deadzone=21,11 / fast_pskip=0 / chroma_qp_offset=-4 / threads=18 / sliced_threads=0 / nr=0 / decimate=0 / interlaced=0 / bluray_compat=0 / constrained_intra=0 / bframes=8 / b_pyramid=2 / b_adapt=2 / b_bias=0 / direct=3 / weightb=1 / open_gop=0 / weightp=2 / keyint=250 / keyint_min=23 / scenecut=40 / intra_refresh=0 / rc_lookahead=48 / rc=2pass / mbtree=1 / bitrate=12566 / ratetol=1.0 / qcomp=0.60 / qpmin=0 / qpmax=69 / qpstep=4 / cplxblur=20.0 / qblur=0.5 / ip_ratio=1.40 / aq=1:0.80Язык : English

Аудио #1Идентификатор : 2Формат : AC-3Формат/Информация : Audio Coding 3Расширение режима : CM (complete main)Идентификатор кодека : A_AC3Продолжительность : 1 ч. 29 м.Вид битрейта : ПостоянныйБитрейт : 384 Кбит/секКаналы : 6 каналовРасположение каналов : Front: L C R, Side: L R, LFEЧастота : 48,0 КГцБитовая глубина : 16 битМетод сжатия : С потерямиРазмер потока : 245 Мбайт (3%)Язык : Russian

Аудио #2Идентификатор : 3Формат : AC-3Формат/Информация : Audio Coding 3Расширение режима : CM (complete main)Идентификатор кодека : A_AC3Продолжительность : 1 ч. 29 м.Вид битрейта : ПостоянныйБитрейт : 384 Кбит/секКаналы : 6 каналовРасположение каналов : Front: L C R, Side: L R, LFEЧастота : 48,0 КГцБитовая глубина : 16 битМетод сжатия : С потерямиРазмер потока : 245 Мбайт (3%)Язык : Ukrainian

Аудио #3Идентификатор : 4Формат : DTSФормат/Информация : Digital Theater SystemsИдентификатор кодека : A_DTSПродолжительность : 1 ч. 29 м.Вид битрейта : ПостоянныйБитрейт : 1510 Кбит/секКаналы : 6 каналовРасположение каналов : Front: L C R, Side: L R, LFEЧастота : 48,0 КГцБитовая глубина : 24 битМетод сжатия : С потерямиРазмер потока : 964 Мбайт (10%)Язык : English

Текст #1Идентификатор : 5Формат : UTF-8Идентификатор кодека : S_TEXT/UTF8Идентификатор кодека/Информация : UTF-8 Plain TextЯзык : Russian

Текст #2Идентификатор : 6Формат : UTF-8Идентификатор кодека : S_TEXT/UTF8Идентификатор кодека/Информация : UTF-8 Plain TextЯзык : English

piratbit.ru

Скачать фильм Фантом через торрент в хорошем качестве бесплатно 720p)

Complete name : E:\торрент\Fantom.2011.x264.BDRip.720p.ELEKTRI4KA.mkvFormat : MatroskaFile size : 4,85 ГибибайтDuration : 1 ч. 29 м.Overall bit rate : 7771 Кбит/секMovie name : Fantom.2011.D.BDRip.720p.ELEKTRI4KAEncoded date : UTC 2012-04-16 18:28:44Writing application : mkvmerge v5.3.0 ('I could have danced') built on Feb 9 2012 10:38:07Writing library : libebml v1.2.3 + libmatroska v1.3.0

ВидеоID : 1Format : AVCFormat/Info : Advanced Video CodecFormat profile : [email protected] settings, CABAC : ДаFormat settings, ReFrames : 12 кадрыMuxing mode : Container [email protected] ID : V_MPEG4/ISO/AVCDuration : 1 ч. 29 м.Bit rate : 5338 Кбит/секNominal bit rate : 5518 Кбит/секWidth : 1280 пикс.Height : 536 пикс.Display aspect ratio : 2,35:1Frame rate : 23,976 кадр/секResolution : 8 битColorimetry : 4:2:0Scan type : ПрогрессивнаяBits/(Pixel*Frame) : 0.325Stream size : 3,33 Гибибайт (69%)Title : Fantom.2011.D.BDRip.720p.ELEKTRI4KAWriting library : x264 core 122 r2184 5c85e0aEncoding settings : cabac=1 / ref=12 / deblock=1:-3:-3 / analyse=0x3:0x113 / me=umh / subme=10 / psy=1 / psy_rd=1.10:0.00 / mixed_ref=1 / me_range=32 / chroma_me=1 / trellis=2 / 8x8dct=1 / cqm=0 / deadzone=21,11 / fast_pskip=0 / chroma_qp_offset=-4 / threads=18 / sliced_threads=0 / nr=0 / decimate=0 / interlaced=0 / bluray_compat=0 / constrained_intra=0 / bframes=8 / b_pyramid=2 / b_adapt=2 / b_bias=0 / direct=3 / weightb=1 / open_gop=0 / weightp=2 / keyint=250 / keyint_min=23 / scenecut=40 / intra_refresh=0 / rc_lookahead=48 / rc=2pass / mbtree=1 / bitrate=5518 / ratetol=1.0 / qcomp=0.60 / qpmin=0 / qpmax=69 / qpstep=4 / cplxblur=20.0 / qblur=0.5 / ip_ratio=1.40 / aq=1:0.80

Аудио #1ID : 2Format : AC-3Format/Info : Audio Coding 3Codec ID : A_AC3Duration : 1 ч. 29 м.Bit rate mode : ПостоянныйBit rate : 384 Кбит/секChannel(s) : 6 канала(ов)Channel positions : Front: L C R, Surround: L R, LFESampling rate : 48,0 КГцStream size : 245 Мегабайт (5%)Language : Russian

Аудио #2ID : 3Format : AC-3Format/Info : Audio Coding 3Codec ID : A_AC3Duration : 1 ч. 29 м.Bit rate mode : ПостоянныйBit rate : 384 Кбит/секChannel(s) : 6 канала(ов)Channel positions : Front: L C R, Surround: L R, LFESampling rate : 48,0 КГцStream size : 245 Мегабайт (5%)Language : Ukrainian

Аудио #3ID : 4Format : DTSFormat/Info : Digital Theater SystemsCodec ID : A_DTSDuration : 1 ч. 29 м.Bit rate mode : ПостоянныйBit rate : 1510 Кбит/секChannel(s) : 6 канала(ов)Channel positions : Front: L C R, Surround: L R, LFESampling rate : 48,0 КГцResolution : 24 битStream size : 964 Мегабайт (19%)

Текст #1ID : 5Format : UTF-8Codec ID : S_TEXT/UTF8Codec ID/Info : UTF-8 Plain TextLanguage : Russian

Текст #2ID : 6Format : UTF-8Codec ID : S_TEXT/UTF8Codec ID/Info : UTF-8 Plain Text

piratbit.ru


Смотрите также