Скачать бесплатно 3 дня на убийство через торрент бесплатно в хорошем качестве


Скачать фильм 3 дня на убийство через торрент в хорошем качестве бесплатно BDRip-AVC

ОбщееУникальный идентификатор : 191798062687793785900189437042708488160 (0x904AF6959FDD43F180A933B68B209FE0)Полное имя : 3.Dnya.na.Ubiystvo.2014.Theatrical.DUAL.BDRip.x264.-HELLYWOOD.mkvФормат : MatroskaВерсия формата : Version 4 / Version 2Размер файла : 2,18 ГбайтПродолжительность : 1 ч. 57 м.Общий поток : 2668 Кбит/секНазвание фильма : HELLYWOOD - rip by potroksДата кодирования : UTC 2014-06-04 05:37:11Программа кодирования : mkvmerge v5.9.0 ('On The Loose') built on Dec 15 2012 16:39:58Библиотека кодирования : libebml v1.3.0 + libmatroska v1.4.0

ВидеоИдентификатор : 1Формат : AVCФормат/Информация : Advanced Video CodecПрофиль формата : [email protected]Параметр CABAC формата : ДаПараметр ReFrames формата : 10 кадровИдентификатор кодека : V_MPEG4/ISO/AVCПродолжительность : 1 ч. 57 м.Битрейт : 1771 Кбит/секШирина : 1036 пикселейВысота : 436 пикселейСоотношение сторон : 2,40:1Режим частоты кадров : ПостоянныйЧастота кадров : 23,976 кадра/секЦветовое пространство : YUVСубдискретизация насыщенности : 4:2:0Битовая глубина : 8 битТип развёртки : ПрогрессивнаяБит/(Пиксели*Кадры) : 0.164Размер потока : 1,41 Гбайт (64%)Заголовок : 3 Days to KillБиблиотека кодирования : x264 core 130 r2273 b3065e6Настройки программы : cabac=1 / ref=10 / deblock=1:-2:-2 / analyse=0x3:0x133 / me=umh / subme=11 / psy=1 / psy_rd=1.05:0.03 / mixed_ref=1 / me_range=48 / chroma_me=1 / trellis=2 / 8x8dct=1 / cqm=0 / deadzone=21,11 / fast_pskip=1 / chroma_qp_offset=-3 / threads=9 / lookahead_threads=6 / sliced_threads=0 / nr=0 / decimate=0 / interlaced=0 / bluray_compat=0 / constrained_intra=0 / bframes=11 / b_pyramid=2 / b_adapt=2 / b_bias=0 / direct=3 / weightb=1 / open_gop=0 / weightp=2 / keyint=250 / keyint_min=23 / scenecut=40 / intra_refresh=0 / rc_lookahead=60 / rc=2pass / mbtree=0 / bitrate=1771 / ratetol=1.0 / qcomp=0.70 / qpmin=0 / qpmax=69 / qpstep=4 / cplxblur=20.0 / qblur=0.5 / vbv_maxrate=20000 / vbv_bufsize=20000 / nal_hrd=none / ip_ratio=1.35 / pb_ratio=1.25 / aq=1:0.80Язык : EnglishDefault : ДаForced : Нет

Аудио #1Идентификатор : 2Формат : AC-3Формат/Информация : Audio Coding 3Расширение режима : CM (complete main)Параметр Endianness формата : BigИдентификатор кодека : A_AC3Продолжительность : 1 ч. 57 м.Вид битрейта : ПостоянныйБитрейт : 448 Кбит/секКаналы : 6 каналовРасположение каналов : Front: L C R, Side: L R, LFEЧастота : 48,0 КГцБитовая глубина : 16 битМетод сжатия : С потерямиЗадержка видео : 900 мс.Размер потока : 375 Мбайт (17%)Заголовок : Dub | DD 5.1 @ 448 kbps - BD RUSЯзык : RussianDefault : ДаForced : Да

Аудио #2Идентификатор : 3Формат : AC-3Формат/Информация : Audio Coding 3Расширение режима : CM (complete main)Параметр Endianness формата : BigИдентификатор кодека : A_AC3Продолжительность : 1 ч. 57 м.Вид битрейта : ПостоянныйБитрейт : 448 Кбит/секКаналы : 6 каналовРасположение каналов : Front: L C R, Side: L R, LFEЧастота : 48,0 КГцБитовая глубина : 16 битМетод сжатия : С потерямиРазмер потока : 375 Мбайт (17%)Заголовок : Original | DD 5.1 @ 448 kbpsЯзык : EnglishDefault : НетForced : Нет

Текст #1Идентификатор : 4Формат : UTF-8Идентификатор кодека : S_TEXT/UTF8Идентификатор кодека/Информация : UTF-8 Plain TextЯзык : RussianDefault : НетForced : Нет

Текст #2Идентификатор : 5Формат : UTF-8Идентификатор кодека : S_TEXT/UTF8Идентификатор кодека/Информация : UTF-8 Plain TextЗаголовок : SDHЯзык : EnglishDefault : НетForced : Нет

Меню00:03:35.131 : en:(01)00:03:35:13100:06:55.206 : en:(02)00:06:55:20600:10:49.482 : en:(03)00:10:49:48200:15:27.468 : en:(04)00:15:27:46800:20:18.467 : en:(05)00:20:18:46700:24:32.721 : en:(06)00:24:32:72100:28:36.214 : en:(07)00:28:36:21400:33:25.419 : en:(08)00:33:25:41900:36:53.044 : en:(09)00:36:53:04400:39:32.912 : en:(10)00:39:32:91200:43:14.925 : en:(11)00:43:14:92500:48:20.730 : en:(12)00:48:20:73000:52:12.379 : en:(13)00:52:12:37900:56:39.854 : en:(14)00:56:39:85401:07:27.376 : en:(15)01:07:27:37601:12:36.602 : en:(16)01:12:36:60201:18:50.809 : en:(17)01:18:50:80901:24:20.013 : en:(18)01:24:20:01301:29:43.044 : en:(19)01:29:43:04401:36:25.529 : en:(20)01:36:25:52901:39:32.674 : en:(21)01:39:32:67401:46:41.352 : en:(22)01:46:41:35201:49:38.821 : en:(23)01:49:38:82101:57:01.764 : en:(24)01:57:01:764

piratbit.ru

Скачать фильм 3 дня на убийство через торрент в хорошем качестве бесплатно BDRip-AVC

ОбщееУникальный идентификатор : 210825467949312407501806557346976086615 (0x9E9B8217D79AF0C88E044EDEC491BA57)Полное имя : 3.Dnya.na.Ubiystvo.2014.Theatrical.RUS.BDRip.x264.-HELLYWOOD.mkvФормат : MatroskaВерсия формата : Version 4 / Version 2Размер файла : 1,46 ГбайтПродолжительность : 1 ч. 57 м.Общий поток : 1786 Кбит/секНазвание фильма : HELLYWOOD - rip by potroksДата кодирования : UTC 2014-06-04 05:51:35Программа кодирования : mkvmerge v5.9.0 ('On The Loose') built on Dec 15 2012 16:39:58Библиотека кодирования : libebml v1.3.0 + libmatroska v1.4.0

ВидеоИдентификатор : 1Формат : AVCФормат/Информация : Advanced Video CodecПрофиль формата : [email protected]Параметр CABAC формата : ДаПараметр ReFrames формата : 12 кадровИдентификатор кодека : V_MPEG4/ISO/AVCПродолжительность : 1 ч. 57 м.Битрейт : 1595 Кбит/секШирина : 960 пикселейВысота : 404 пикселяСоотношение сторон : 2,40:1Режим частоты кадров : ПостоянныйЧастота кадров : 23,976 кадра/секЦветовое пространство : YUVСубдискретизация насыщенности : 4:2:0Битовая глубина : 8 битТип развёртки : ПрогрессивнаяБит/(Пиксели*Кадры) : 0.172Размер потока : 1,27 Гбайт (87%)Заголовок : 3 Days to KillБиблиотека кодирования : x264 core 130 r2273 b3065e6Настройки программы : cabac=1 / ref=12 / deblock=1:-2:-2 / analyse=0x3:0x133 / me=umh / subme=11 / psy=1 / psy_rd=1.04:0.00 / mixed_ref=1 / me_range=48 / chroma_me=1 / trellis=2 / 8x8dct=1 / cqm=0 / deadzone=21,11 / fast_pskip=1 / chroma_qp_offset=-2 / threads=9 / lookahead_threads=6 / sliced_threads=0 / nr=0 / decimate=0 / interlaced=0 / bluray_compat=0 / constrained_intra=0 / bframes=13 / b_pyramid=2 / b_adapt=2 / b_bias=0 / direct=3 / weightb=1 / open_gop=0 / weightp=2 / keyint=250 / keyint_min=23 / scenecut=40 / intra_refresh=0 / rc_lookahead=60 / rc=2pass / mbtree=0 / bitrate=1595 / ratetol=1.0 / qcomp=0.70 / qpmin=0 / qpmax=69 / qpstep=4 / cplxblur=20.0 / qblur=0.5 / vbv_maxrate=20000 / vbv_bufsize=25000 / nal_hrd=none / ip_ratio=1.35 / pb_ratio=1.25 / aq=1:0.80Язык : EnglishDefault : ДаForced : Нет

АудиоИдентификатор : 2Формат : AC-3Формат/Информация : Audio Coding 3Расширение режима : CM (complete main)Параметр Endianness формата : BigИдентификатор кодека : A_AC3Продолжительность : 1 ч. 57 м.Вид битрейта : ПостоянныйБитрейт : 192 Кбит/секКаналы : 2 каналаРасположение каналов : Front: L RЧастота : 48,0 КГцБитовая глубина : 16 битМетод сжатия : С потерямиЗадержка видео : 900 мс.Размер потока : 161 Мбайт (11%)Заголовок : Dub | DD 2.0 @ 192 kbps - BD CEEЯзык : RussianDefault : ДаForced : Да

Текст #1Идентификатор : 3Формат : UTF-8Идентификатор кодека : S_TEXT/UTF8Идентификатор кодека/Информация : UTF-8 Plain TextЯзык : RussianDefault : НетForced : Нет

Текст #2Идентификатор : 4Формат : UTF-8Идентификатор кодека : S_TEXT/UTF8Идентификатор кодека/Информация : UTF-8 Plain TextЗаголовок : SDHЯзык : EnglishDefault : НетForced : Нет

Меню00:03:35.131 : en:(01)00:03:35:13100:06:55.206 : en:(02)00:06:55:20600:10:49.482 : en:(03)00:10:49:48200:15:27.468 : en:(04)00:15:27:46800:20:18.467 : en:(05)00:20:18:46700:24:32.721 : en:(06)00:24:32:72100:28:36.214 : en:(07)00:28:36:21400:33:25.419 : en:(08)00:33:25:41900:36:53.044 : en:(09)00:36:53:04400:39:32.912 : en:(10)00:39:32:91200:43:14.925 : en:(11)00:43:14:92500:48:20.730 : en:(12)00:48:20:73000:52:12.379 : en:(13)00:52:12:37900:56:39.854 : en:(14)00:56:39:85401:07:27.376 : en:(15)01:07:27:37601:12:36.602 : en:(16)01:12:36:60201:18:50.809 : en:(17)01:18:50:80901:24:20.013 : en:(18)01:24:20:01301:29:43.044 : en:(19)01:29:43:04401:36:25.529 : en:(20)01:36:25:52901:39:32.674 : en:(21)01:39:32:67401:46:41.352 : en:(22)01:46:41:35201:49:38.821 : en:(23)01:49:38:82101:57:01.764 : en:(24)01:57:01:764

piratbit.ru

Скачать 3 дня на убийство через торрент

Категория: Фильмы 1304 0 Торрент добавлен: 23-04-2015 Рейтинг:

2014 / Боевик, триллер, драма, криминал / 122 мин.Название: 3 дня на убийствоОригинальное название: 3 Days to KillСтрана: CШАРежиссер: МакДжиВ ролях: Кевин Костнер, Эмбер Хёрд, Хейли Стайнфелд, Конни Нильсен, Томас Лемаркус, Рихард Заммель, Марк Андреони, Бруно Риччи, Йонас Блоке, Эрик Эбони

Итан Раннер – лучший специальный агент, имеющий безупречную репутацию. Однако ему осталось жить не долго, ведь врачи диагностировали у него рак, с которым он сможет прожить еще пару недель. На него выходит другой агент с просьбой помочь ей уничтожить одного человека, которого Итан видел в лицо, а взамен обещающая дать ему новейшую разработку лекарства, которое сможет его исцелить. Приняв дозу лекарства, у Итана начинают иногда происходить припадки, галлюцинации, что мешает выполнению задания. Помимо побочных эффектов от лекарства у Итана возникает еще одна проблемка: ему нужно присмотреть за своей дочкой, которую он очень долго не видел из-за своей работы.

Трейлер к фильму 3 дня на убийство

3 дня на убийство скачать торрент

Кодек: H.264Качество: Blu-Ray Remux 1080pВидео: MPEG-4 AVC, 26888 Кбит/с, 1920x1080, 23.976 кадр/сЗвук: Русский (DTS-HD MA, 6 ch, 3832 Кбит/с)Дублированный

30,21 Gb

Качество: BDRip 1080р / Blu-ray 1080pФормат: MKVВидео: 1920x808 (2.40:1), MPEG-4 AVC Video 10,4 Мбит/сек / 23.976 fps / Бит/(Пиксели*Кадры) : 0.221Аудио 1: Dolby Digital Audio Russian 640 kbps 5.1 / 48 kHz / 640 kbpsПрофессиональный (дублированный)

8,46 Gb

Качество: BDRip 720pФормат: MKVВидео: х.264, 1280x538 (2,40:1), 23,976 fps, 5259 Кbps, 0.319 bit/pixelАудио#1: 48 kHz, AC3 Dolby Digital, 3/2 (L,C,R,l,r) + LFE ch, 640.00 kbps | RUSПрофессиональный (дублированный)

5,35 Gb

Качество видео: HDRipФормат видео: AVIВидео: 720x304 (2.37:1), 23.976 fps, XviD build 73 ~1492 kbps avg, 0.28 bit/pixelАудио: 48 kHz, AC3 Dolby Digital, 2/0 (L,R) ch, ~192.00 kbps avg, Дубляж - Лицензия

Вы находитесь на странице, где можете совершенно бесплатно скачать фильм 3 дня на убийство в хорошем качестве через торрент, в любом формате, который больше всего вам на данный момент подходит. Скачивание осуществляется через торрент, что означает максимально высокую скорость загрузки. Желаем Вам приятного просмотра!. Не забудь поделиться своими впечатлениями после того как посмотришь фильм 3 дня на убийство.

Информация Посетители, находящиеся в группе Гости, не могут оставлять комментарии к данной публикации.

psp-gu.ru

Скачать фильм 3 дня на убийство через торрент в хорошем качестве бесплатно 2014

piratbit.ru

Размер: 1.23 GB | Добавлен: 3 года 6 мес. назад | Торрент скачан:220 раз
Реклама Дарим 3000 рублей за регистрацию, не упусти свой шанс получить шикарный бонус!!!

02-04-2014 00:03 3 дня на убийство Скачать торрент  

3 дня на убийство / 3 Days to Kill
  • Год выпуска: 2014
  • Производство: США, Франция
  • Жанр: боевик, триллер, драма, криминал
  • Длительность: 01:50:49
  • Субтитры: вшитые китайскиеПеревод: Любительский (многоголосый) [Точка Zрения]Режиссер: МакДжиПродюсер: Люк Бессон, Ади Хасак, Райан КэвэнаСценарий: Люк Бессон, Ади ХасакВ ролях: Кевин Костнер, Эмбер Хёрд, Хейли Стайнфелд, Конни Нильсен, Томас Лемаркус, Рихард Заммель, Марк Андреони, Бруно Риччи, Йонас Блоке, Эрик Эбони ОписаниеОписание: Умирающему агенту ЦРУ предлагают экспериментальное лекарство, которое может спасти его жизнь, в обмен на одно последнее задание…
  • Качество видео: CAMRip
  • Формат: AVI
  • Видео кодек: XviD
  • Аудио кодек: AC3
  • Видео: 688x288 (2.39:1), 25 fps, XviD MPEG-4 ~1396 kbps avg, 0.28 bit/pixel
  • Аудио: 48 kHz, AC3 Dolby Digital, 2 ch, ~192.00 kbps avg
  • Скачать 3 дня на убийство через торрент http://i57.fastpic.ru/big/2014/0402/b0/cabb0a42bb8f9e11c9f80322327179b0.png Скачать фильм 3 дня на убийство через торрент бесплантно в хорошем качестве ОписаниеОписание: Умирающему агенту ЦРУ предлагают экспериментальное лекарство, которое может спасти его жизнь, в обмен на одно последнее ... 2014-04-15 08:20 9.7 10 18

    Loading...

    Loading...

    % Раздел Тема Автор DL S | L
    Фильмы 2014 [DVDrip, WEB-DLRip, HDrip] [ 1.37 GB ] 3 дня на убийство / 3 Days to Kill [2014 HDRip] DUB lug30 Скачать
    Фильмы с авторской озвучкой [ 2.05 GB ] 3 дня на убийство / 3 Days to Kill [2014 HDRip] [EXTENDED] [AVO] killermax2013 Скачать
    Фильмы [HD 720p, 1080p] (Хороший звук DUB, MVO) [ 13.25 GB ] 3 дня на убийство / 3 Days to Kill [2014 BDRip 1080p ] от R.G. HD-Films Seedtank Скачать
    Фильмы 2014 [DVDrip, WEB-DLRip, HDrip] [ 2.18 GB ] 3 дня на убийство / 3 Days to Kill [2014 BDRip-AVC] [Театральная версия] DUB potroks Скачать
    Фильмы 2014 [DVDrip, WEB-DLRip, HDrip] [ 1.46 GB ] 3 дня на убийство / 3 Days to Kill [2014 BDRip-AVC] [Театральная версия] DUB potroks Скачать
    Фильмы (Blu-ray, BD-Remux, HDDVD) [ 25.66 GB ] 3 дня на убийство / 3 Days to Kill [2014 Греция Россия BD Remux 1080p] [Цифровая лицензия / ] Messa-fan Скачать
    Фильмы (Blu-ray, BD-Remux, HDDVD) [ 22.97 GB ] 3 дня на убийство / 3 Days to Kill [2014 BD-Remux USA Transfer ] от R.G. HD-Films Seedtank Скачать

    Рекламный пират

    02-04-2014 02:48 3 дня на убийство Скачать торрент  

    Ааааа Бессон!!! У него фильмы вседга суперские!!!

    02-04-2014 04:42 3 дня на убийство Скачать торрент  

    Фильм кайфовый походу.Но подожду в HD.А то весь кайф от качества испортится.

    17-04-2014 16:59 3 дня на убийство Скачать торрент  

    Кевин Костнер решил сыграть Бриса Уиллиса, посмотреть можно, но оригинал был лучше. За релиз спасибо.

    Дорогой пользователь! Огромная просьба, поблагодарите релизера, оцените раздачу и оставьте свои комментарий, если Вы скачали 3 дня на убийство через торрент бесплатно! Внесите свою лепту в развитие PiratBit!

    Комментировать посты могут только пользователи прошедшие не сложную регистрацию

    3 дня на убийство через торрент Скачать бесплатно 3 дня на убийство 3 дня на убийство скачать торрент 3 дня на убийство смотреть онлайн Cкачать фильм 3 дня на убийство бесплатно 3 дня на убийство скачать торрент в хорошем качестве 3 дня на убийство смотреть онлайн бесплатно в хорошем качестве

    Вы можете начинать темыВы можете отвечать на сообщенияВы не можете редактировать свои сообщенияВы не можете удалять свои сообщенияВы не можете голосовать в опросахВы не можете прикреплять файлы к сообщениямВы можете скачивать файлы

    Скачать фильм 3 дня на убийство через торрент в хорошем качестве бесплатно TS

    piratbit.ru

    Размер: 1.37 GB | Добавлен: 3 года 6 мес. назад | Торрент скачан:520 раз
    Реклама Дарим 3000 рублей за регистрацию, не упусти свой шанс получить шикарный бонус!!!

    17-04-2014 17:52 3 дня на убийство Скачать торрент  

    3 дня на убийство / 3 Days to Kill
  • Год выпуска: 2014
  • Производство: США, Франция
  • Жанр: боевик, триллер, драма, криминал
  • Длительность: 01:50:49
  • Субтитры: нет Перевод: Дублированный Режиссер: МакДжиПродюсер: Люк Бессон, Ади Хасак, Райан КэвэнаСценарий: Люк Бессон, Ади ХасакВ ролях: Кевин Костнер, Эмбер Хёрд, Хейли Стайнфелд, Конни Нильсен, Томас Лемаркус, Рихард Заммель, Марк Андреони, Бруно Риччи, Йонас Блоке, Эрик Эбони ОписаниеОписание: Умирающему агенту ЦРУ предлагают экспериментальное лекарство, которое может спасти его жизнь, в обмен на одно последнее задание…
  • Качество видео: TS
  • Формат: AVI
  • Видео кодек: XviD
  • Аудио кодек: AC3
  • Видео: 720x304 (2.37:1), 25 fps, XviD build 50 ~1627 kbps avg, 0.30 bit/pixel
  • Аудио: 48 kHz, AC3 Dolby Digital, 2/0 (L,R) ch, ~128 kbps
  • Скачать 3 дня на убийство через торрент http://i57.fastpic.ru/big/2014/0402/b0/cabb0a42bb8f9e11c9f80322327179b0.png Скачать фильм 3 дня на убийство через торрент бесплантно в хорошем качестве ОписаниеОписание: Умирающему агенту ЦРУ предлагают экспериментальное лекарство, которое может спасти его жизнь, в обмен на одно последнее ... 2014-04-17 17:52 9.9 10 18

    Loading...

    Loading...

    % Раздел Тема Автор DL S | L
    Фильмы 2014 [DVDrip, WEB-DLRip, HDrip] [ 1.37 GB ] 3 дня на убийство / 3 Days to Kill [2014 HDRip] DUB lug30 Скачать
    Фильмы с авторской озвучкой [ 2.05 GB ] 3 дня на убийство / 3 Days to Kill [2014 HDRip] [EXTENDED] [AVO] killermax2013 Скачать
    Фильмы [HD 720p, 1080p] (Хороший звук DUB, MVO) [ 13.25 GB ] 3 дня на убийство / 3 Days to Kill [2014 BDRip 1080p ] от R.G. HD-Films Seedtank Скачать
    Фильмы 2014 [DVDrip, WEB-DLRip, HDrip] [ 2.18 GB ] 3 дня на убийство / 3 Days to Kill [2014 BDRip-AVC] [Театральная версия] DUB potroks Скачать
    Фильмы 2014 [DVDrip, WEB-DLRip, HDrip] [ 1.46 GB ] 3 дня на убийство / 3 Days to Kill [2014 BDRip-AVC] [Театральная версия] DUB potroks Скачать
    Фильмы (Blu-ray, BD-Remux, HDDVD) [ 25.66 GB ] 3 дня на убийство / 3 Days to Kill [2014 Греция Россия BD Remux 1080p] [Цифровая лицензия / ] Messa-fan Скачать
    Фильмы (Blu-ray, BD-Remux, HDDVD) [ 22.97 GB ] 3 дня на убийство / 3 Days to Kill [2014 BD-Remux USA Transfer ] от R.G. HD-Films Seedtank Скачать

    Последний раз редактировалось: haizenberg (2014-04-17 20:12), всего редактировалось 1 раз

    Рекламный пират

    17-04-2014 18:57 3 дня на убийство Скачать торрент  

    Цитата:

    Субтитры: вшитые китайские

    ? давно есть нормальная экранка без тарабарщины китайской

    17-04-2014 20:12 3 дня на убийство Скачать торрент  

    killermax2013 писал(а):

    [qpost=undefined]? давно есть нормальная экранка без тарабарщины китайской

    конечно нет, семпл есть в раздаче, забыл убрать из шаблона, конечно сабов нет!

    18-04-2014 11:22 3 дня на убийство Скачать торрент  

    Хороший фильм! 5+

    27-04-2014 22:22 3 дня на убийство Скачать торрент  

    наконец то телохранитель отсасал.где ты раньше был коснер надо было таких фильмов наплодит ьморе

    05-05-2014 18:16 3 дня на убийство Скачать торрент  

    начало шикарное, остальное средненькое, но в целом посмотреть можно

    Дорогой пользователь! Огромная просьба, поблагодарите релизера, оцените раздачу и оставьте свои комментарий, если Вы скачали 3 дня на убийство через торрент бесплатно! Внесите свою лепту в развитие PiratBit!

    Комментировать посты могут только пользователи прошедшие не сложную регистрацию

    3 дня на убийство через торрент Скачать бесплатно 3 дня на убийство 3 дня на убийство скачать торрент 3 дня на убийство смотреть онлайн Cкачать фильм 3 дня на убийство бесплатно 3 дня на убийство скачать торрент в хорошем качестве 3 дня на убийство смотреть онлайн бесплатно в хорошем качестве

    Вы можете начинать темыВы можете отвечать на сообщенияВы не можете редактировать свои сообщенияВы не можете удалять свои сообщенияВы не можете голосовать в опросахВы не можете прикреплять файлы к сообщениямВы можете скачивать файлы

    Скачать фильм 3 дня на убийство через торрент в хорошем качестве бесплатно 720p

    ОбщееУникальный идентификатор : 173614183097224022746258254285393258379 (0x829CE01A324F45489E23A8AEF1BE678B)Полное имя : 3.Dnya.na.Ubiystvo.2014.Theatrical.DUAL.BDRip.720p.-HELLYWOOD.mkvФормат : MatroskaВерсия формата : Version 4 / Version 2Размер файла : 5,14 ГбайтПродолжительность : 1 ч. 57 м.Общий поток : 6284 Кбит/секНазвание фильма : HELLYWOOD - rip by potroksДата кодирования : UTC 2014-05-24 03:27:36Программа кодирования : mkvmerge v5.9.0 ('On The Loose') built on Dec 15 2012 16:39:58Библиотека кодирования : libebml v1.3.0 + libmatroska v1.4.0

    ВидеоИдентификатор : 1Формат : AVCФормат/Информация : Advanced Video CodecПрофиль формата : [email protected]Параметр CABAC формата : ДаПараметр ReFrames формата : 9 кадровИдентификатор кодека : V_MPEG4/ISO/AVCПродолжительность : 1 ч. 57 м.Битрейт : 5259 Кбит/секШирина : 1280 пикселейВысота : 538 пикселейСоотношение сторон : 2,40:1Режим частоты кадров : ПостоянныйЧастота кадров : 23,976 кадра/секЦветовое пространство : YUVСубдискретизация насыщенности : 4:2:0Битовая глубина : 8 битТип развёртки : ПрогрессивнаяБит/(Пиксели*Кадры) : 0.319Размер потока : 4,20 Гбайт (82%)Заголовок : 3 Days to KillБиблиотека кодирования : x264 core 130 r2273 b3065e6Настройки программы : cabac=1 / ref=9 / deblock=1:-3:-2 / analyse=0x3:0x133 / me=umh / subme=11 / psy=1 / psy_rd=0.99:0.01 / mixed_ref=1 / me_range=48 / chroma_me=1 / trellis=2 / 8x8dct=1 / cqm=0 / deadzone=21,11 / fast_pskip=1 / chroma_qp_offset=-3 / threads=9 / lookahead_threads=6 / sliced_threads=0 / nr=0 / decimate=0 / interlaced=0 / bluray_compat=0 / constrained_intra=0 / bframes=9 / b_pyramid=2 / b_adapt=2 / b_bias=0 / direct=3 / weightb=1 / open_gop=0 / weightp=2 / keyint=250 / keyint_min=23 / scenecut=40 / intra_refresh=0 / rc_lookahead=60 / rc=2pass / mbtree=0 / bitrate=5259 / ratetol=1.0 / qcomp=0.70 / qpmin=0 / qpmax=69 / qpstep=4 / cplxblur=20.0 / qblur=0.5 / vbv_maxrate=50000 / vbv_bufsize=62500 / nal_hrd=none / ip_ratio=1.35 / pb_ratio=1.25 / aq=1:0.80Язык : EnglishDefault : ДаForced : Нет

    Аудио #1Идентификатор : 2Формат : AC-3Формат/Информация : Audio Coding 3Расширение режима : CM (complete main)Параметр Endianness формата : BigИдентификатор кодека : A_AC3Продолжительность : 1 ч. 57 м.Вид битрейта : ПостоянныйБитрейт : 384 Кбит/секКаналы : 6 каналовРасположение каналов : Front: L C R, Side: L R, LFEЧастота : 48,0 КГцБитовая глубина : 16 битМетод сжатия : С потерямиРазмер потока : 321 Мбайт (6%)Заголовок : Dub | DD 5.1 @ 384 kbps - iTunesЯзык : RussianDefault : ДаForced : Да

    Аудио #2Идентификатор : 3Формат : AC-3Формат/Информация : Audio Coding 3Расширение режима : CM (complete main)Параметр Endianness формата : BigИдентификатор кодека : A_AC3Продолжительность : 1 ч. 57 м.Вид битрейта : ПостоянныйБитрейт : 640 Кбит/секКаналы : 6 каналовРасположение каналов : Front: L C R, Side: L R, LFEЧастота : 48,0 КГцБитовая глубина : 16 битМетод сжатия : С потерямиРазмер потока : 536 Мбайт (10%)Заголовок : riginal | DD 5.1 @ 640 kbpsЯзык : EnglishDefault : НетForced : Нет

    Текст #1Идентификатор : 4Формат : UTF-8Идентификатор кодека : S_TEXT/UTF8Идентификатор кодека/Информация : UTF-8 Plain TextЯзык : RussianDefault : НетForced : Нет

    Текст #2Идентификатор : 5Формат : UTF-8Идентификатор кодека : S_TEXT/UTF8Идентификатор кодека/Информация : UTF-8 Plain TextЗаголовок : SDHЯзык : EnglishDefault : НетForced : Нет

    Меню00:03:35.131 : en:(01)00:03:35:13100:06:55.206 : en:(02)00:06:55:20600:10:49.482 : en:(03)00:10:49:48200:15:27.468 : en:(04)00:15:27:46800:20:18.467 : en:(05)00:20:18:46700:24:32.721 : en:(06)00:24:32:72100:28:36.214 : en:(07)00:28:36:21400:33:25.419 : en:(08)00:33:25:41900:36:53.044 : en:(09)00:36:53:04400:39:32.912 : en:(10)00:39:32:91200:43:14.925 : en:(11)00:43:14:92500:48:20.730 : en:(12)00:48:20:73000:52:12.379 : en:(13)00:52:12:37900:56:39.854 : en:(14)00:56:39:85401:07:27.376 : en:(15)01:07:27:37601:12:36.602 : en:(16)01:12:36:60201:18:50.809 : en:(17)01:18:50:80901:24:20.013 : en:(18)01:24:20:01301:29:43.044 : en:(19)01:29:43:04401:36:25.529 : en:(20)01:36:25:52901:39:32.674 : en:(21)01:39:32:67401:46:41.352 : en:(22)01:46:41:35201:49:38.821 : en:(23)01:49:38:82101:57:01.764 : en:(24)01:57:01:764

    piratbit.ru


    Смотрите также