Синяя бездна скачать торрент в хорошем качестве


Скачать фильм Синяя бездна через торрент в хорошем качестве бесплатно BDRip от Twi7ter

Раздают: 179 [ 1 MB/s ] Качают: 3 [ 8 KB/s ]
Размер: 1.42 GB | Добавлен: 1 мес. 9 д. назад | Торрент скачан:1297 раз
Реклама Дарим 3000 рублей за регистрацию, не упусти свой шанс получить шикарный бонус!!!

17-09-2017 07:47 Синяя бездна Скачать торрент  

Синяя бездна / Страх глубины / 47 Meters Down

«В 47 метрах от спасения. Всего час кислорода. Среди хищников»

Год выпуска: 2017Страна: Великобритания, США, Доминикана / Altitude Film Sales, Dimension Films, Dragon Root SecuritiesЖанр: ужасы, триллер, драмаПродолжительность: 01:29:16Перевод: Профессиональный (полное дублирование) [iTunes]Субтитры: НетРежиссер: Йоханнес РобертсВ ролях: Мэнди Мур, Клер Холт, Крис Дж. Джонсон, Яни Гельман, Сантьяго Сегура, Мэттью Модайн, Майра Хуарес, Аксель МансиллаОписание: Отдыхая на солнечных пляжах Мексики, Лиза и ее сестра Кейт решаются на погружение в клетке к большим белым акулам. Но зрелищный аттракцион оборачивается кошмаром, когда клетка с двумя девушками срывается на океанское дно. Помощи ждать неоткуда, а кислорода остается лишь на час. Единственный выход из смертельной ловушки — плыть вверх через толщу воды, которая кишит самыми свирепыми хищниками океана.Рейтинг: Качество: BDRip | исх. 47.Meters.Down.2017.BDREMUX.1080p.ExKinoRay|Формат: AVIВидео кодек: XviDАудио кодек: AC3Видео: 720x304 (2.37:1), 23.976 fps, XviD build 73 ~1884 kbps avg, 0.36 bit/pixelАудио: 48 kHz, AC3 Dolby Digital, 3/2 (L,C,R,l,r) + LFE ch, ~384 kbps

           

Релиз: &

Скачать Синяя бездна через торрент http://s018.radikal.ru/i504/1709/ca/1c6adbf8ff47.png Скачать фильм Синяя бездна через торрент бесплантно в хорошем качестве Описание: Отдыхая на солнечных пляжах Мексики, Лиза и ее сестра Кейт решаются на погружение в клетке к большим белым акулам. Но зрелищный ... 2017-09-17 07:47 9.5 10 40

Loading...

Loading...

Рекламный пират

17-09-2017 09:30 Синяя бездна Скачать торрент  

фильм на раз и то для любителейхотя молодежи посмотреть и стОитчтобы не искать приключения на мягкие части тела

17-09-2017 09:53 Синяя бездна Скачать торрент  

если я не ошибаюсь я его в 2015 году смотрел! Если нет то ну оооочень похож один в один!

17-09-2017 09:58 Синяя бездна Скачать торрент  

Посмотрел на перемотке и не жалею. Второсортный кинчик.

17-09-2017 20:02 Синяя бездна Скачать торрент  

Посмотрел скрины-достаточно.

17-09-2017 20:30 Синяя бездна Скачать торрент  

второй скрин - итог понятен.

18-09-2017 11:44 Синяя бездна Скачать торрент  

они полтора часа всплывают???

18-09-2017 17:07 Синяя бездна Скачать торрент  

Не являясь фанатом данного поджанра, я все-таки с радостью признаю, что кино выдалось отличное и заставило меня вполне реально сопереживать персонажам. Советую всем к обязательному просмотру!!!!

Дорогой пользователь! Огромная просьба, поблагодарите релизера, оцените раздачу и оставьте свои комментарий, если Вы скачали Синяя бездна через торрент бесплатно! Внесите свою лепту в развитие PiratBit!

Комментировать посты могут только пользователи прошедшие не сложную регистрацию

Синяя бездна через торрент Скачать бесплатно Синяя бездна Синяя бездна скачать торрент Синяя бездна смотреть онлайн Cкачать фильм Синяя бездна бесплатно Синяя бездна скачать торрент в хорошем качестве Синяя бездна смотреть онлайн бесплатно в хорошем качестве

Вы не можете начинать темыВы не можете отвечать на сообщенияВы не можете редактировать свои сообщенияВы не можете удалять свои сообщенияВы не можете голосовать в опросахВы не можете прикреплять файлы к сообщениямВы можете скачивать файлы

piratbit.ru

Скачать фильм Синяя бездна через торрент в хорошем качестве бесплатно BDRip-AVC

x264 [info]: frame I:638 Avg QP:15.28 size: 51274x264 [info]: frame P:27856 Avg QP:19.01 size: 22900x264 [info]: frame B:99931 Avg QP:20.23 size: 10726

ОбщееУникальный идентификатор : 195181754698338070334468120252107297904 (0x92D6A37B1A721287840F7664813D9470)Полное имя : M:\!Rips2017\47 Meters Down\47.Meters.Down.2017.BDRip-AVC.RUS.ENG.stalkerok.new-team.mkvФормат : MatroskaВерсия формата : Version 4 / Version 2Размер файла : 2,14 ГбайтПродолжительность : 1 ч. 29 м.Общий поток : 3436 Кбит/секНазвание фильма : 47 Meters Down (2017) (Rip by stalkerok)Дата кодирования : UTC 2017-09-18 15:30:11Программа кодирования : mkvmerge v8.6.1 ('Flying') 64bitБиблиотека кодирования : libebml v1.3.3 + libmatroska v1.4.4

ВидеоИдентификатор : 1Формат : AVCФормат/Информация : Advanced Video CodecПрофиль формата : [email protected]Параметр CABAC формата : ДаПараметр ReFrames формата : 14 кадровИдентификатор кодека : V_MPEG4/ISO/AVCПродолжительность : 1 ч. 29 м.Битрейт : 2603 Кбит/секШирина : 1108 пикселейВысота : 464 пикселяСоотношение сторон : 2,40:1Режим частоты кадров : ПостоянныйЧастота кадров : 23,976 (24000/1001) кадра/секЦветовое пространство : YUVСубдискретизация насыщенности : 4:2:0Битовая глубина : 8 битТип развёртки : ПрогрессивнаяБит/(Пиксели*Кадры) : 0.211Размер потока : 1,62 Гбайт (76%)Заголовок : 47 Meters Down (2017) (Rip by stalkerok)Библиотека кодирования : x264 core 150 r2833kMod df79067Настройки программы : cabac=1 / ref=14 / deblock=1:-3:-2 / analyse=0x3:0x133 / me=umh / subme=11 / psy=1 / fade_compensate=0.00 / psy_rd=1.00:0.00 / mixed_ref=1 / me_range=32 / chroma_me=1 / trellis=2 / 8x8dct=1 / cqm=0 / deadzone=21,11 / fast_pskip=0 / chroma_qp_offset=-2 / threads=12 / lookahead_threads=3 / sliced_threads=0 / nr=0 / decimate=0 / interlaced=0 / bluray_compat=0 / constrained_intra=0 / bframes=14 / b_pyramid=2 / b_adapt=2 / b_bias=0 / direct=3 / weightb=1 / open_gop=0 / weightp=2 / keyint=240 / keyint_min=23 / scenecut=40 / intra_refresh=0 / rc_lookahead=60 / rc=2pass / mbtree=0 / bitrate=2603 / ratetol=1.0 / qcomp=0.65 / qpmin=0 / qpmax=69 / qpstep=4 / cplxblur=20.0 / qblur=0.5 / vbv_maxrate=50000 / vbv_bufsize=62500 / nal_hrd=none / filler=0 / ip_ratio=1.35 / pb_ratio=1.20 / aq=3:0.80Default : ДаForced : Нет

Аудио #1Идентификатор : 2Формат : AC-3Формат/Информация : Audio Coding 3Расширение режима : CM (complete main)Параметр Endianness формата : BigИдентификатор кодека : A_AC3Продолжительность : 1 ч. 29 м.Вид битрейта : ПостоянныйБитрейт : 384 Кбит/секКаналы : 6 каналовРасположение каналов : Front: L C R, Side: L R, LFEЧастота : 48,0 КГцЧастота кадров : 31,250 кадров/сек (1536 spf)Метод сжатия : С потерямиРазмер потока : 245 Мбайт (11%)Язык : RussianDefault : ДаForced : Нет

Аудио #2Идентификатор : 3Формат : AC-3Формат/Информация : Audio Coding 3Расширение режима : CM (complete main)Параметр Endianness формата : BigИдентификатор кодека : A_AC3Продолжительность : 1 ч. 29 м.Вид битрейта : ПостоянныйБитрейт : 448 Кбит/секКаналы : 6 каналовРасположение каналов : Front: L C R, Side: L R, LFEЧастота : 48,0 КГцЧастота кадров : 31,250 кадров/сек (1536 spf)Метод сжатия : С потерямиРазмер потока : 286 Мбайт (13%)Язык : EnglishDefault : НетForced : Нет

Текст #1Идентификатор : 4Формат : UTF-8Идентификатор кодека : S_TEXT/UTF8Идентификатор кодека/Информация : UTF-8 Plain TextПродолжительность : 1 ч. 21 м.Битрейт : 68 бит/секCount of elements : 1002Размер потока : 40,6 Кбайт (0%)Язык : RussianDefault : НетForced : Нет

Текст #2Идентификатор : 5Формат : UTF-8Идентификатор кодека : S_TEXT/UTF8Идентификатор кодека/Информация : UTF-8 Plain TextПродолжительность : 1 ч. 19 м.Битрейт : 46 бит/секCount of elements : 877Размер потока : 27,3 Кбайт (0%)Язык : EnglishDefault : НетForced : Нет

Текст #3Идентификатор : 6Формат : UTF-8Идентификатор кодека : S_TEXT/UTF8Идентификатор кодека/Информация : UTF-8 Plain TextПродолжительность : 1 ч. 28 м.Битрейт : 51 бит/секCount of elements : 1132Размер потока : 33,6 Кбайт (0%)Заголовок : SDHЯзык : EnglishDefault : НетForced : Нет

Меню00:00:00.000 : en:00:00:00.00000:06:36.229 : en:00:06:36.22900:10:12.946 : en:00:10:12.94600:16:08.467 : en:00:16:08.46700:20:51.333 : en:00:20:51.33300:27:36.530 : en:00:27:36.53000:31:37.771 : en:00:31:37.77100:36:18.968 : en:00:36:18.96800:42:00.685 : en:00:42:00.68500:46:39.005 : en:00:46:39.00500:52:06.415 : en:00:52:06.41500:57:23.940 : en:00:57:23.94001:02:45.553 : en:01:02:45.55301:07:36.719 : en:01:07:36.71901:13:12.847 : en:01:13:12.84701:18:09.935 : en:01:18:09.935

piratbit.ru

Скачать фильм Синяя бездна через торрент в хорошем качестве бесплатно DVDRip

Раздают: 4 [ 0 KB/s ]
Размер: 1.46 GB | Добавлен: 4 мес. 12 д. назад | Торрент скачан:465 раз
Реклама Дарим 3000 рублей за регистрацию, не упусти свой шанс получить шикарный бонус!!!

14-06-2017 02:01 Синяя бездна Скачать торрент  

Информация о фильмеНазвание: Синяя бездна (Страх глубины)Оригинальное название: 47 Meters Down (In the Deep)Год выхода: 2016Жанр: ТриллерСтрана: ВеликобританияСтудия: Dimension Films, Flexibon Films, Fyzz Facility, The, Tea Shop & Film CompanyПродолжительность: 01:29:08Перевод: Любительский двухголосый (RecentFilms)Режиссер: Йоханнес РобертсВ ролях: Мэттью Модайн, Мэнди Мур, Клер Холт, Сантьяго Сегура, Яни Гельман, Крис Дж. Джонсон

Описание: В центре сюжета — сестры Кейт и Лиза, приехавшие на отдых в Мексику. В поисках острых ощущений Кейт убеждает сестру опуститься под воду в клетке и посмотреть на белых акул. Клетка обрывается, и девушки оказываются на глубине 47 метров с запасом кислорода менее чем на час в двух часах пути от берега в окружении самых опасных морских хищников.

ФайлФормат: AVIКачество: DVDRipВидео: 720х304 (2.35:1), 23.976 fps, XviD, ~1685 Kbps, 0.321 bits/pixelЗвук 1: AC-3, 48.0 KHz, 2.0 ch, 192 Kbps, CBRЗвук 2: AC-3, 48.0 KHz, 5.1 ch, 448 Kbps, CBR

Семпл

Без какой-либо рекламы

Релиз от:

Автор релиза:

Скачать Синяя бездна через торрент http://s03.radikal.ru/i176/1706/2d/abdf29de9899.jpg Скачать фильм Синяя бездна через торрент бесплантно в хорошем качестве Описание: В центре сюжета — сестры Кейт и Лиза, приехавшие на отдых в Мексику. В поисках острых ощущений Кейт убеждает сестру опуститься ... 2017-06-14 02:01 10 10 9

Loading...

Loading...

Рекламный пират

19-06-2017 14:12 Синяя бездна Скачать торрент  

спасибо

27-06-2017 11:19 Синяя бездна Скачать торрент  

физикам не смотреть, опасно

15-09-2017 05:28 Синяя бездна Скачать торрент  

Дорогой пользователь! Огромная просьба, поблагодарите релизера, оцените раздачу и оставьте свои комментарий, если Вы скачали Синяя бездна через торрент бесплатно! Внесите свою лепту в развитие PiratBit!

Комментировать посты могут только пользователи прошедшие не сложную регистрацию

Синяя бездна через торрент Скачать бесплатно Синяя бездна Синяя бездна скачать торрент Синяя бездна смотреть онлайн Cкачать фильм Синяя бездна бесплатно Синяя бездна скачать торрент в хорошем качестве Синяя бездна смотреть онлайн бесплатно в хорошем качестве

Вы можете начинать темыВы можете отвечать на сообщенияВы не можете редактировать свои сообщенияВы не можете удалять свои сообщенияВы не можете голосовать в опросахВы не можете прикреплять файлы к сообщениямВы можете скачивать файлы

piratbit.ru

Скачать фильм Синяя бездна через торрент в хорошем качестве бесплатно 1080p

ОбщееУникальный идентификатор : 241498147251819898231837276592802495221 (0xB5AED9F0CDE5A90F8E56D3CB4839FAF5)Полное имя : D:\47.Meters.Down.2O17.D.WEB-DL.1O8Op.mkvФормат : MatroskaВерсия формата : Version 2Размер файла : 3,60 ГбайтПродолжительность : 1 ч. 25 м.Общий поток : 6025 Кбит/секДата кодирования : UTC 2017-09-11 18:08:13Программа кодирования : mkvmerge v8.3.0 ('Over the Horizon') 64bitБиблиотека кодирования : libebml v1.3.1 + libmatroska v1.4.2

ВидеоИдентификатор : 1Формат : AVCФормат/Информация : Advanced Video CodecПрофиль формата : [email protected]Параметр CABAC формата : ДаПараметр ReFrames формата : 4 кадраИдентификатор кодека : V_MPEG4/ISO/AVCПродолжительность : 1 ч. 25 м.Битрейт : 5255 Кбит/секШирина : 1920 пикселейВысота : 1080 пикселейСоотношение сторон : 16:9Режим частоты кадров : ПостоянныйЧастота кадров : 25,000 кадров/секЦветовое пространство : YUVСубдискретизация насыщенности : 4:2:0Битовая глубина : 8 битТип развёртки : ПрогрессивнаяБит/(Пиксели*Кадры) : 0.101Размер потока : 3,14 Гбайт (87%)Язык : EnglishDefault : ДаForced : НетЦветовой диапазон : LimitedОсновные цвета : BT.709Характеристики трансфера : BT.709Коэффициенты матрицы : BT.709

Аудио #1Идентификатор : 2Формат : AC-3Формат/Информация : Audio Coding 3Расширение режима : CM (complete main)Параметр Endianness формата : BigИдентификатор кодека : A_AC3Продолжительность : 1 ч. 25 м.Вид битрейта : ПостоянныйБитрейт : 384 Кбит/секКаналы : 6 каналовРасположение каналов : Front: L C R, Side: L R, LFEЧастота : 48,0 КГцЧастота кадров : 31,250 кадров/сек (1536 spf)Метод сжатия : С потерямиРазмер потока : 235 Мбайт (6%)Язык : RussianDefault : ДаForced : Нет

Аудио #2Идентификатор : 3Формат : AC-3Формат/Информация : Audio Coding 3Расширение режима : CM (complete main)Параметр Endianness формата : BigИдентификатор кодека : A_AC3Продолжительность : 1 ч. 25 м.Вид битрейта : ПостоянныйБитрейт : 384 Кбит/секКаналы : 6 каналовРасположение каналов : Front: L C R, Side: L R, LFEЧастота : 48,0 КГцЧастота кадров : 31,250 кадров/сек (1536 spf)Метод сжатия : С потерямиРазмер потока : 235 Мбайт (6%)Язык : UkrainianDefault : НетForced : Нет

Меню00:00:00.000 : en:Глава 100:07:12.360 : en:Глава 200:13:26.920 : en:Глава 300:19:54.360 : en:Глава 400:26:10.920 : en:Глава 500:32:42.920 : en:Глава 600:37:46.800 : en:Глава 700:45:21.480 : en:Глава 800:52:15.160 : en:Глава 900:57:55.440 : en:Глава 1001:02:35.920 : en:Глава 1101:09:35.520 : en:Глава 1201:14:56.360 : en:Глава 13

piratbit.ru

Скачать фильм Синяя бездна через торрент в хорошем качестве бесплатно TS

Раздают: 10 [ 0 KB/s ]
Размер: 1.37 GB | Добавлен: 3 мес. 23 д. назад | Торрент скачан:443 раза
Реклама Дарим 3000 рублей за регистрацию, не упусти свой шанс получить шикарный бонус!!!

03-07-2017 06:44 Синяя бездна Скачать торрент  

Синяя бездна / 47 Meters Down«В 47 метрах от спасения. Всего час кислорода. Среди хищников» Год выпуска: 2017Страна: Великобритания, США, ДоминиканаПроизводство: Altitude Film Sales, Dimension Films, Dragon Root Securities, Entertainment Studios Motion Pictures, Flexibon Films, Lantica Media, Tea Shop & Film Company, thefyzzЖанр: Ужасы, триллер, драма, приключения

Режиссёр: Йоханнес РобертсВ ролях: Мэнди Мур, Клер Холт, Крис Дж. Джонсон, Яни Гельман, Сантьяго Сегура, Мэттью Модайн, Майра Хуарес, Axel Mansilla

Перевод: Профессиональный (полное дублирование) [Звук с TS]Субтитры: ОтсутствуютПродолжительность: 01:29:38

Описание: Отдыхая на солнечных пляжах Мексики, Лиза и ее сестра Кейт решаются на погружение в клетке к большим белым акулам. Но зрелищный аттракцион оборачивается кошмаром, когда клетка с двумя девушками срывается на океанское дно. Помощи ждать неоткуда, а кислорода остается лишь на час. Единственный выход из смертельной ловушки — плыть вверх через толщу воды, которая кишит самыми свирепыми хищниками океана.

Доп. информация: Релиз с рекламой!

Формат: AVIКачество: DVDRip

Видео: 720x304 (2.35:1), 23.976 fps, XviD ~ 1790 kbps avg, 0.341 bit/pixelАудио: AC3, 48 kHz, 2 ch, ~ 384.00 kbps avg

Дата премьеры (мир): 25 мая 2017Дата премьеры (РФ): 29 июня 2017, «Вольга»

GeneralComplete name : In.The.Deep.2016.Dt.DVDRip.14OOMB_KOSHARA.aviFormat : AVIFormat/Info : Audio Video InterleaveFile size : 1.37 GiBDuration : 1 h 29 minOverall bit rate : 2 183 kb/sWriting application : VirtualDubMod 1.5.10.2 (build 2540/release)Writing library : VirtualDubMod build 2540/release

VideoID : 0Format : MPEG-4 VisualFormat profile : Advanced [email protected] settings, BVOP : 2Format settings, QPel : NoFormat settings, GMC : No warppointsFormat settings, Matrix : Default (MPEG)Codec ID : XVIDCodec ID/Hint : XviDDuration : 1 h 29 minBit rate : 1 790 kb/sWidth : 720 pixelsHeight : 304 pixelsDisplay aspect ratio : 2.35:1Frame rate : 23.976 (24000/1001) FPSColor space : YUVChroma subsampling : 4:2:0Bit depth : 8 bitsScan type : ProgressiveCompression mode : LossyBits/(Pixel*Frame) : 0.341Stream size : 1.12 GiB (82%)Writing library : XviD 1.2.1 (UTC 2008-12-04)

AudioID : 1Format : AC-3Format/Info : Audio Coding 3Format settings, Endianness : BigCodec ID : 2000Duration : 1 h 29 minBit rate mode : ConstantBit rate : 384 kb/sChannel(s) : 2 channelsChannel positions : Front: L RSampling rate : 48.0 kHzFrame rate : 31.250 FPS (1536 spf)Bit depth : 16 bitsCompression mode : LossyStream size : 246 MiB (18%)Alignment : Split accross interleavesInterleave, duration : 42 ms (1.00 video frame)Interleave, preload duration : 500 msService kind : Complete Main

Скачать Синяя бездна через торрент http://i92.fastpic.ru/big/2017/0702/ed/3bb3cd6eb64440231c3bfdf73f2962ed.jpg Скачать фильм Синяя бездна через торрент бесплантно в хорошем качестве Описание: Отдыхая на солнечных пляжах Мексики, Лиза и ее сестра Кейт решаются на погружение в клетке к большим белым акулам. Но зрелищный ... 2017-07-03 06:44 9.7 10 13

Loading...

Loading...

% Раздел Тема Автор DL S | L
Фильмы 2017 [DVDrip, WEB-DLRip, HDrip] (DUB, MVO) [ 2.14 GB ] Синяя бездна / Страх глубины / 47 Meters Down [2017 Доминикана BDRip-AVC] Dub sokol_ok Скачать
Фильмы (WEB-DL 720p, 1080p) [ 3.6 GB ] Синяя бездна / 47 Meters Down [2016 WEB-DL 1080p] DUB +MVO bober100 Скачать
Фильмы (Blu-ray, BD-Remux, HDDVD) [ 18.73 GB ] Синяя бездна / 47 Meters Down [2017 BD Remux 1080p] bober100 Скачать
Фильмы 2017 [DVDrip, WEB-DLRip, HDrip] (DUB, MVO) [ 1.42 GB ] Синяя бездна / Страх глубины / 47 Meters Down [2017 BDRip] - Twi7ter Скачать
Фильмы [HD 720p, 1080p] (Хороший звук DUB, MVO) [ 10.75 GB ] Синяя бездна / 47 Meters Down [2016 BDRip 1080p] DUB +MVO bober100 Скачать
Фильмы 2017 [DVDrip, WEB-DLRip, HDrip] (DUB, MVO) [ 1.39 GB ] Синяя бездна / Страх глубины / 47 Meters Down [2017 Доминикана HDRip-AVC] Dub sokol_ok Скачать
Фильмы 2016 [DVDrip, WEB-DLRip, HDrip] (DUB, MVO) [ 2.78 GB ] Синяя бездна / 47 Meters Down [2016 WEB-DLRip-AVC] DUB +MVO bober100 Скачать

Рекламный пират

03-07-2017 07:51 Синяя бездна Скачать торрент  

Loc387, немного поправил оформление: убрал теги [code] из спойлера с отчетом МИ, просьба не использовать их при оформлении раздач, так как идет большая нагрузка на сервер. Перезалил сэмпл на рекомендованный администрацией файлообменник (тот, на котором сэмпл был залит раньше, блокируется некоторыми провайдерами). Поправил скриншоты, ознакомьтесь пожалуйста с этой темой: https://pb.wtf/topic/246870/ , обратите внимание, скриншоты должны быть в виде превью и увеличиваться в натуральный размер по клику мышкой, без перехода на сайт фотохостинга.В остальном - всё правильно оформлено, благодарю за раздачу.

03-07-2017 16:09 Синяя бездна Скачать торрент  

на раз пойдет))

03-07-2017 19:38 Синяя бездна Скачать торрент  

а web dl будут когда нибудь вообще?

06-07-2017 22:20 Синяя бездна Скачать торрент  

Вот тупые переводчики надо было так фильм обозвать когда в реальности он называется "47 метров вниз" Русские переводчики наподобие Китайцев умеют испоганить любое название и потом говорят что они правы

12-09-2017 02:11 Синяя бездна Скачать торрент  

Дорогой пользователь! Огромная просьба, поблагодарите релизера, оцените раздачу и оставьте свои комментарий, если Вы скачали Синяя бездна через торрент бесплатно! Внесите свою лепту в развитие PiratBit!

Комментировать посты могут только пользователи прошедшие не сложную регистрацию

Синяя бездна через торрент Скачать бесплатно Синяя бездна Синяя бездна скачать торрент Синяя бездна смотреть онлайн Cкачать фильм Синяя бездна бесплатно Синяя бездна скачать торрент в хорошем качестве Синяя бездна смотреть онлайн бесплатно в хорошем качестве

Вы можете начинать темыВы можете отвечать на сообщенияВы не можете редактировать свои сообщенияВы не можете удалять свои сообщенияВы не можете голосовать в опросахВы не можете прикреплять файлы к сообщениямВы можете скачивать файлы

piratbit.ru


Смотрите также