Шоу трумана скачать через торрент в хорошем качестве


Скачать фильм Шоу Трумана через торрент в хорошем качестве бесплатно 1080p

GeneralUnique ID                                : 247505642458170377245250186039597468283 (0xBA33DA52828006EA8881D097284C0A7B)Complete name                            : E:\Шоу Трумана (1998) BDRip.mkvFormat                                   : MatroskaFormat version                           : Version 4 / Version 2File size                                : 9.87 GiBDuration                                 : 1h 42mnOverall bit rate                         : 13.7 MbpsEncoded date                             : UTC 2014-12-04 21:25:46Writing application                      : mkvmerge v6.9.1 ('Blue Panther') 64bit built on Apr 18 2014 18:23:38Writing library                          : libebml v1.3.0 + libmatroska v1.4.1Attachment                               : Yes

VideoID                                       : 1Format                                   : AVCFormat/Info                              : Advanced Video CodecFormat profile                           : [email protected] settings, CABAC                   : YesFormat settings, ReFrames                : 4 framesCodec ID                                 : V_MPEG4/ISO/AVCDuration                                 : 1h 42mnBit rate                                 : 11.5 MbpsWidth                                    : 1 920 pixelsHeight                                   : 1 080 pixelsDisplay aspect ratio                     : 16:9Frame rate                               : 23.976 fpsColor space                              : YUVChroma subsampling                       : 4:2:0Bit depth                                : 8 bitsScan type                                : ProgressiveBits/(Pixel*Frame)                       : 0.231Stream size                              : 8.26 GiB (84%)Writing library                          : x264 core 140 r2377kMod 1ca7bb9Encoding settings                        : cabac=1 / ref=4 / deblock=1:-3:-3 / analyse=0x3:0x133 / me=umh / subme=11 / psy=1 / fade_compensate=0.00 / psy_rd=1.05:0.00 / mixed_ref=1 / me_range=32 / chroma_me=1 / trellis=2 / 8x8dct=1 / cqm=0 / deadzone=21,11 / fast_pskip=0 / chroma_qp_offset=-2 / threads=6 / lookahead_threads=1 / sliced_threads=0 / nr=0 / decimate=1 / interlaced=0 / bluray_compat=0 / constrained_intra=0 / fgo=0 / bframes=12 / b_pyramid=2 / b_adapt=2 / b_bias=0 / direct=1 / weightb=1 / open_gop=0 / weightp=2 / keyint=250 / keyint_min=23 / scenecut=40 / intra_refresh=0 / rc=crf / mbtree=0 / crf=19.5000 / qcomp=0.70 / qpmin=0 / qpmax=69 / qpstep=4 / ip_ratio=1.30 / pb_ratio=1.20 / aq=3:0.85Language                                 : EnglishDefault                                  : YesForced                                   : NoMatrix coefficients                      : BT.709-5, BT.1361, IEC 61966-2-4 709, SMPTE RP177

Audio #1ID                                       : 2Format                                   : AC-3Format/Info                              : Audio Coding 3Mode extension                           : CM (complete main)Codec ID                                 : A_AC3Duration                                 : 1h 42mnBit rate mode                            : ConstantBit rate                                 : 448 KbpsChannel(s)                               : 6 channelsChannel positions                        : Front: L C R, Side: L R, LFESampling rate                            : 48.0 KHzBit depth                                : 16 bitsCompression mode                         : LossyStream size                              : 330 MiB (3%)Language                                 : RussianDefault                                  : YesForced                                   : No

Audio #2ID                                       : 3Format                                   : DTSFormat/Info                              : Digital Theater SystemsCodec ID                                 : A_DTSDuration                                 : 1h 42mnBit rate mode                            : ConstantBit rate                                 : 1 510 KbpsChannel(s)                               : 6 channelsChannel positions                        : Front: L C R, Side: L R, LFESampling rate                            : 48.0 KHzBit depth                                : 24 bitsCompression mode                         : LossyStream size                              : 1.09 GiB (11%)Title                                    : OriginalLanguage                                 : EnglishDefault                                  : NoForced                                   : No

TextID                                       : 4Format                                   : UTF-8Codec ID                                 : S_TEXT/UTF8Codec ID/Info                            : UTF-8 Plain TextTitle                                    : FullLanguage                                 : RussianDefault                                  : NoForced                                   : No

Menu00:00:00.000                             : en:A Day In A Life00:02:42.537                             : en:Day 10,90900:06:49.283                             : en:Aquaphobia00:09:06.712                             : en:The Chef's Pal00:09:43.457                             : en:Dreaming Of Fiji00:11:31.357                             : en:Memories Of Dad00:17:14.700                             : en:"Lauren"...or Is It Sylvia?00:29:29.225                             : en:Paranoia00:36:58.215                             : en:There's No Place Like Home00:42:33.926                             : en:Travelers Deware00:45:41.112                             : en:Lady...Flowers... Dented Beetle00:47:43.819                             : en:"I'm Being Spontaneous!"00:51:12.444                             : en:Blocked At Every Turn00:52:56.631                             : en:Mococoa - It's The Best!00:55:23.027                             : en:Father And Son Reunion01:01:08.039                             : en:Trutalk01:09:57.985                             : en:Do You Think He Knows?01:13:20.896                             : en:"He's Gone."01:21:01.356                             : en:Setting Sail01:23:22.747                             : en:Cue The Storm01:27:44.091                             : en:The Sky's The Limit01:31:51.214                             : en:"Who am I?"01:34:49.308                             : en:Good Afternoon, Good Evening, & Good Night01:36:00.755                             : en:Credits

piratbit.ru

Скачать фильм Шоу Трумана через торрент в хорошем качестве бесплатно DVDRip

Размер: 1.46 GB | Добавлен: 6 лет 10 мес. назад | Торрент скачан:1687 раз
Реклама Дарим 3000 рублей за регистрацию, не упусти свой шанс получить шикарный бонус!!!

Шоу Трумана / The Truman Show

Год выпуска: 1998Страна: СШАЖанр: трагикомедия,драмаПродолжительность: 1 ч. 42 м.Тип релиза: лицензияПеревод:проффесиональный многоголосный (закадровый)Режиссер: Питер УирПродюссер: Скотт Рудин ,Эндрю НикколСценарий: Эндрю Никкол

Бюджет: 60 млн. $

В ролях: Джим КерриЭд ХаррисЛора ЛинниНоа Эммерих

Описание: Бёрбанк — обычный человек, живущий обычной жизнью. Только он не знает, что каждое его телодвижение наблюдают многочисленные скрытые камеры, а вся его жизнь передается в прямом эфире по всему миру. Родина Трумана — город Сихэвэн — искусно выполненные декорации, а все его население — нанятые актёры. Исполнительный продюсер «Шоу Трумана», Кристоф с помощью своей команды подобно Богу может изменить даже погоду в городе.

Качество: DVDRipФормат: AVIВидео кодек: XviDАудио кодек: AC3Видео: MPEG-4 Visual,XVID,704x400,23,976 кадр/сек,1567 Кбит/секАудио: AC-3,448 Кбит/сек,6 канала(ов),48,0 КГц

Скачать Шоу Трумана через торрент http://piratbit.in.ua/613175ca24d567bed292a03fdbb99e99.jpg Скачать фильм Шоу Трумана через торрент бесплантно в хорошем качестве Описание: Бёрбанк — обычный человек, живущий обычной жизнью. Только он не знает, что каждое его телодвижение наблюдают многочисленные ... 2010-12-17 11:38 10 10 7

Loading...

Loading...

Последний раз редактировалось: jingles (2010-12-18 09:03), всего редактировалось 1 раз

Рекламный пират

Дорогой пользователь! Огромная просьба, поблагодарите релизера, оцените раздачу и оставьте свои комментарий, если Вы скачали Шоу Трумана через торрент бесплатно! Внесите свою лепту в развитие PiratBit!

Комментировать посты могут только пользователи прошедшие не сложную регистрацию

Шоу Трумана через торрент Скачать бесплатно Шоу Трумана Шоу Трумана скачать торрент Шоу Трумана смотреть онлайн Cкачать фильм Шоу Трумана бесплатно Шоу Трумана скачать торрент в хорошем качестве Шоу Трумана смотреть онлайн бесплатно в хорошем качестве

Вы не можете начинать темыВы не можете отвечать на сообщенияВы не можете редактировать свои сообщенияВы не можете удалять свои сообщенияВы не можете голосовать в опросахВы не можете прикреплять файлы к сообщениямВы можете скачивать файлы

piratbit.ru

Скачать фильм Шоу Трумана через торрент в хорошем качестве бесплатно BDRip-AVC

Раздают: 1 [ 0 KB/s ]
Размер: 2.18 GB | Добавлен: 6 лет 8 мес. назад | Торрент скачан:1201 раз
Реклама Дарим 3000 рублей за регистрацию, не упусти свой шанс получить шикарный бонус!!!

10-02-2011 13:23 Шоу Трумана Скачать торрент  

Уважительная просьба всем кто,собирается качать или уже качает эту раздачу,когда раздающих меньше 1-ого на протяжение 24 часовжать вот эту кнопку ==> <==,а не ждать святого духа,который встанет на раздачу.

«Он в прямом эфире и даже не подозревает...» Год выхода:1998Выпущено: США Жанр: фантастика, драмаПродолжительность: 01:42:56Перевод: Профессиональный (многоголосый, закадровый)

Режиссер:Питер УирВ Ролях:Джим Керри, Лора Линни, Ноа Эммерик, Наташа МакЭлхоун, Холланд Тейлор, Брайан Дилейт, Блэр Слэйтер, Питер Краузе, Хайди Шанц, Рон ТейлорОписание: Труман не знает, что его город на самом деле не что иное, как гигантская студия, построенная таинственным продюсером и режиссером, что живущие и работающие в городе люди - это голливудские актеры, и что даже его вечно шипящая жена - актриса по контракту. Но постепенно к Труману приходит прозрение.Доп. информация: Качество: BDRipФормат: MatroskaВидео кодек: AVCАудио кодек: AAC LCРазмер:2,17 ГБ (2 336 556 473 байт)Видео: 1136x640, 23,976 fps, ~2465.86 kb/sАудио#1:RU:AAC LC, 6ch, 48Hz, ~283Kbps |Профессиональный (многоголосый, закадровый)|Аудио#2: EN:AAC LC, 6ch, 48Hz, ~271Kbps |Оригинал|Субтитры:

avis [info]: 1136x640 @ 23.98 fps (148097 frames)x264 [info]: using SAR=1/1x264 [info]: using cpu capabilities: MMX2 SSE2Fast SSSE3 Cache64x264 [info]: cabac=1 ref=8 deblock=1:-3:0 analyse=0x3:0x133 me=umh subme=9 psy_rd=1.0:0.0 mixed_ref=1 me_range=24 chroma_me=1 trellis=2 8x8dct=1 cqm=0 deadzone=21,11 chroma_qp_offset=-2 threads=3 thread_queue=3 nr=0 decimate=1 mbaff=0 bframes=7 b_pyramid=1 b_adapt=2 b_bias=0 direct=3 wpredb=1 keyint=250 keyint_min=25 scenecut=40(pre) rc=2pass bitrate=2466 ratetol=1.0 qcomp=0.60 qpmin=10 qpmax=51 qpstep=4 cplxblur=20.0 qblur=0.5 ip_ratio=1.40 pb_ratio=1.30 aq=1:1.00x264 [info]: profile High, level 4.0x264 [info]: encoded 148097 frames, 2.51 fps, 2465.86 kb/sx264 [info]: slice I:1815 Avg QP:18.54 size: 64129 PSNR Mean Y:45.76 U:49.11V:50.97 Avg:46.60 Global:45.28x264 [info]: slice P:51068 Avg QP:20.35 size: 22093 PSNR Mean Y:44.16 U:49.03V:50.45 Avg:45.11 Global:43.63x264 [info]: slice B:95214 Avg QP:22.24 size: 6923 PSNR Mean Y:43.34 U:49.88V:50.61 Avg:44.34 Global:43.02x264 [info]: consecutive B-frames: 3.5% 15.6% 53.8% 12.6% 6.9% 4.2% 1.9% 1.5%x264 [info]: mb I I16..4: 9.7% 80.4% 9.9%x264 [info]: mb P I16..4: 0.7% 5.4% 0.5% P16..4: 51.9% 20.3% 12.4% 0.3% 0.3% skip: 8.2%x264 [info]: mb B I16..4: 0.0% 0.4% 0.0% B16..8: 45.3% 1.2% 2.0% direct:4.6% skip:46.4% L0:39.5% L1:52.6% BI: 7.9%x264 [info]: 8x8 transform intra:81.7% inter:69.3%x264 [info]: direct mvs spatial:99.3% temporal:0.7%x264 [info]: ref P L0 51.3% 19.4% 9.5% 5.7% 4.1% 4.2% 3.4% 2.6%x264 [info]: ref B L0 70.4% 15.3% 5.4% 3.1% 2.3% 2.1% 1.3%x264 [info]: ref B L1 91.4% 8.6%x264 [info]: SSIM Mean Y:0.9763968x264 [info]: PSNR Mean Y:43.653 U:49.577 V:50.558 Avg:44.635 Global:43.247 kb/s:2465.76encoded 148097 frames, 2.51 fps, 2465.86 kb/s

* На роль Кристофа уже был выбран Деннис Хоппер, однако буквально после первого съемочного дня был вынужден покинуть проект. Спешно призванный на замену Эд Харрис не только мастерски справился со своей ролью, но еще и получил приз «Золотой Глобус» за лучшую мужскую роль второго плана, и номинацию на Оскар в этой же категории.* Джим Керри в рамках работы над данной картиной хотел доказать всем, что умеет играть не только придурков, но и весьма серьезные драматические роли. Именно по этой причине на съемочной площадке было запрещено кому бы то ни было произносить фразы и реплики из предыдущих «глупых» картин Джима.* Многие элементы сюжета была позаимствованы из новеллы Филиппа Дика 1957 года «Свихнувшееся время». В данном произведении речь идет о человеке из 1998 года, которого удерживают в изоляции, внушая ему, что сейчас на дворе 1957 год.* Гарри Ширер сыграл роль Майка Майклсона, ведущего ТВ-шоу. В весьма похожей картине «Эд ТВ», повествующей о создании телеканала, по которому 24 часа в сутки можно наблюдать за жизнью человека по имени Эд, он сыграл аналогичную роль.* Режиссер картины Питер Уир решил поставить свое детище в формате 1,66:1, приближая картинку к телевизионному формату. © Оформление by .::Sergey::. Скачать Шоу Трумана через торрент http://piratbit.in.ua/d7c77d24e19db5b3cd553328ece549da.jpg Скачать фильм Шоу Трумана через торрент бесплантно в хорошем качестве Описание: Труман не знает, что его город на самом деле не что иное, как гигантская , построенная таинственным продюсером и ... 2011-02-10 13:23 10 10 19

Loading...

Loading...

Последний раз редактировалось: .::Sergey::. (2011-04-27 16:15), всего редактировалось 3 раз(а)

Рекламный пират

10-02-2011 16:17 Шоу Трумана Скачать торрент  

Супер фильм! Оч нравится!

10-02-2011 17:46 Шоу Трумана Скачать торрент  

+1 хорошее кино!

24-10-2013 13:13 Шоу Трумана Скачать торрент  

24-10-2013 13:34 Шоу Трумана Скачать торрент  

хороший фильм, правда

18-02-2014 10:58 Шоу Трумана Скачать торрент  

шикарный фильм

10-03-2014 13:58 Шоу Трумана Скачать торрент  

добрая старая комедия , забираю )

Дорогой пользователь! Огромная просьба, поблагодарите релизера, оцените раздачу и оставьте свои комментарий, если Вы скачали Шоу Трумана через торрент бесплатно! Внесите свою лепту в развитие PiratBit!

Комментировать посты могут только пользователи прошедшие не сложную регистрацию

Шоу Трумана через торрент Скачать бесплатно Шоу Трумана Шоу Трумана скачать торрент Шоу Трумана смотреть онлайн Cкачать фильм Шоу Трумана бесплатно Шоу Трумана скачать торрент в хорошем качестве Шоу Трумана смотреть онлайн бесплатно в хорошем качестве

Вы не можете начинать темыВы не можете отвечать на сообщенияВы не можете редактировать свои сообщенияВы не можете удалять свои сообщенияВы не можете голосовать в опросахВы не можете прикреплять файлы к сообщениямВы можете скачивать файлы

piratbit.ru

Шоу Трумана/The Truman Show (1998) DVDRip скачать торрент

Оригинальное название: The Truman ShowГод: 1998Страна: СШАРежиссер: Питер УирСценарий:Эндрю НикколЖанр: фантастика, драма

В главных ролях:Джим КерриЛора ЛинниНоа ЭммерикНаташа МакЭлхоунХолланд ТейлорБрайан ДилейтБлэр СлэйтерПитер КраузеХайди ШанцРон Тейлор

Героя этой американской картины зовут Трумен Бёрбэнк. У наших зрителей могут возникнуть ассоциации, пожалуй, только с Гарри Труменом, президентом США, вошедшим в историю из-за того, что именно он отдал приказ об атомной бомбардировке Хиросимы и Нагасаки. Однако для американцев, которые, кстати, с небывалым энтузиазмом откликнулись на ленту Питера Уира с участием популярного актёра Джима Кэрри, есть две подсказки, позволяющие сразу почувствовать скрытую иронию повествования. Truman — звучит почти так же, как True Man, то есть «настоящий человек», а фамилия Бёрбэнк вообще является кинематографической, поскольку именно в Бёрбэнке находятся несколько голливудских киностудий. Таким образом, в имени и фамилии главного персонажа уже заложен парадокс, который становится определяющим и для всего фильма «Шоу Трумена» — настоящее соседствует с киношным, подлинность сочетается с выдуманностью.Страховой агент Трумен Бербэнк, живущий как будто в кукольном городке Сихейвен вот уже 30 лет, буквально с момента своего рождения, находится под пристальным вниманием телекамер, более того, является, вовсе не догадываясь об этом, истинной звездой сериала под названием «Шоу Трумена», который транслируется «в прямом эфире без купюр 24 часа в сутки, 7 дней в неделю для телезрителей всей Земли» (из рекламного слогана, звучащего в картине). И всё-таки легкомысленный и беспечный Трумен начинает подмечать какие-то странные мелочи и подозрительные нестыковки, что косвенно подтверждает те вроде бы безумные фразы, которые однажды произнесла на берегу моря его несостоявшаяся возлюбленная Лорин (на самом деле — актриса Сильвия Гарленд: вот и ещё один кинематографический намёк!): «Всё это — ложь, а мы только играем свои роли».То есть, вслед за Шекспиром, герой «Шоу Трумена», обнаружив, в конце концов, что вся реальность вокруг него действительно сочинена, мог бы повторить: «Весь мир — театр, а люди в нём — актёры». Ну, а в применении к собственной истории Трумена Бёрбэнка, которая развивалась по законам успешной «мыльной оперы», это прозвучало бы так: «Весь мир — как шоу, а люди — лишь марионетки». Некий до поры до времени невидимый кукловод, телемагнат Кристоф, тоже играющий особую роль — чуть ли не самого Создателя (или, если продолжить шекспировские аллюзии, Просперо из «Бури»), управляет всем нереальным миром, который помещён в большой павильон недалеко от Голливуда — пока «необунтарь» Бёрбэнк не вздумает открыть «новые горизонты» и не наткнётся на нарисованное небо. И тогда он сбежит из этого «рая на Земле», не желая слушать увещеваний своего Телеотца и положив тем самым конец телешоу собственного имени. На том кончается и фильм «Шоу Трумена».Перед его выходом в кинопрокат США у журналистов и критиков были некоторые сомнения, что вторая попытка Джима Кэрри, самого удачливого комика середины 90-х годов, сменить на время своё амплуа и предстать в более чёрно-юмористическом, трагикомическом качестве, окажется столь же кисло принятой, как и лента «Кабельщик» за два года до того. Между прочим, там Кэрри сыграл одержимого телемастера, подключающего клиентов к кабельному телевидению. Он ещё с детства, что называется, помешался на сериалах, подсел на эту «телеиглу» и стал путать реальность с выдуманной действительностью. Однако американская публика, видимо, постепенно свыклась с новой манией своего кумира, который пожелал не только хохмить и строить рожи, изображая очередного «тупого и ещё тупее», но и ненароком заставлять сограждан задумываться над житьём-бытьём, задавать себе проклятые «гамлетовские вопросы», например: «Чтo он Гекубе, чтo ему Гекуба?».Кстати, Джим Кэрри проделал почти ту же эволюцию от эксцентрика до очень старающегося драматического актёра, как и Том Хэнкс. И Трумен Бёрбэнк мог бы стать столь же нарицательным персонажем, подобно Форресту Гампу. А по предварительным оскаровским раскладам Кэрри даже светила перспектива попасть в номинацию «Оскара» по итогам 1998 года — забавно, что это опять удалось Тому Хэнксу (на этот раз за почти трагическую роль в «Спасении рядового Райана» Стивена Спилберга). Совпадений несть числа — ведь именно Спилберга уговаривали поставить «Шоу Трумена», а в результате режиссёром стал умный и деликатный по манере австралийский мастер кино Питер Уир, который уже 15 лет без особого усердия (в отличие от многих соотечественников, тоже импортированных в Голливуд) пытался вписаться в калифорнийскую «фабрику грёз».Уир не прельстился ни язвительной сатирой, ни ещё недавно модным «постмодернистским пастишем», ни лукавым заигрыванием с мифами и маниями по-голливудски. Он сделал поистине интеллигентное, тонко выдержанное по стилю и ненавязчивое произведение, которое каждый волен понимать и трактовать по-своему: от примитивно-обывательской насмешки зрителей над приевшимися «мыльными операми» до тотально-философских раздумий о том, что все мы заняты в некоем всемирном, вселенском шоу, устроенном Создателем с целью, ведомой ему одному.На такой подход к зрелищному «Шоу Трумена», оказавшемуся в прокате США среди картин выпуска 1998 года на вполне почётном 12-м месте, побуждает хотя бы «Пикник у Висячей скалы» (1975), один из самых загадочных фильмов в истории мирового кино, к появлению которого причастен как раз Питер Уир. Спустя 23 года он снял своего рода «Пикник у Морской гавани» (любопытно, что вымышленный городок Сихейвен отнюдь не строили в павильоне, а запечатлели в подлинном флоридском местечке Сисайд). Реальность подчас призрачнее самой богатой фантазии.

Продолжительность: 1:42:58;Размер: 1.37 Gb;Файл: .avi;Качество: DVDRip;Видео: XviD; 704x384; 23.976 fps; 1440 kbps; Аудио: перевод:русский закадровый многоголосый ; 6 ch; AC3; 48000Hz; 446 kbps;

torrent-games.net

Скачать фильм Шоу Трумана через торрент в хорошем качестве бесплатно BDRip-AVC

x264 [info]: frame I:1203 Avg QP:15.68 size: 95845x264 [info]: frame P:33473 Avg QP:17.92 size: 36696x264 [info]: frame B:113422 Avg QP:19.92 size: 12429

GeneralUnique ID : 181369979658263680061524208273160263835 (0x887296655484B849913B264558DDD89B)Complete name : D:\download\The Truman Show.1998.BDRip-AVC by schultz R.G.Resident.mkvFormat : MatroskaFormat version : Version 4 / Version 2File size : 4.78 GiBDuration : 1 h 42 minOverall bit rate : 6 641 kb/sEncoded date : UTC 2017-07-26 08:45:02Writing application : mkvmerge v8.9.0 ('Father Daughter') 64bitWriting library : libebml v1.3.3 + libmatroska v1.4.4

VideoID : 1Format : AVCFormat/Info : Advanced Video CodecFormat profile : [email protected] settings, CABAC : YesFormat settings, ReFrames : 11 framesCodec ID : V_MPEG4/ISO/AVCDuration : 1 h 42 minBit rate : 3 567 kb/sWidth : 1 024 pixelsHeight : 576 pixelsDisplay aspect ratio : 16:9Frame rate mode : ConstantFrame rate : 23.976 (23976/1000) FPSColor space : YUVChroma subsampling : 4:2:0Bit depth : 8 bitsScan type : ProgressiveBits/(Pixel*Frame) : 0.252Stream size : 2.56 GiB (54%)Writing library : x264 core 146 r2538 121396cEncoding settings : cabac=1 / ref=11 / deblock=1:-3:-3 / analyse=0x3:0x113 / me=umh / subme=11 / psy=1 / psy_rd=1.00:0.15 / mixed_ref=1 / me_range=48 / chroma_me=1 / trellis=2 / 8x8dct=1 / cqm=0 / deadzone=21,11 / fast_pskip=0 / chroma_qp_offset=-3 / threads=12 / lookahead_threads=3 / sliced_threads=0 / nr=0 / decimate=0 / interlaced=0 / bluray_compat=0 / constrained_intra=0 / bframes=11 / b_pyramid=2 / b_adapt=2 / b_bias=0 / direct=3 / weightb=1 / open_gop=0 / weightp=2 / keyint=240 / keyint_min=23 / scenecut=40 / intra_refresh=0 / rc_lookahead=40 / rc=2pass / mbtree=0 / bitrate=3567 / ratetol=1.0 / qcomp=0.60 / qpmin=0 / qpmax=69 / qpstep=4 / cplxblur=20.0 / qblur=0.5 / vbv_maxrate=50000 / vbv_bufsize=62500 / nal_hrd=none / filler=0 / ip_ratio=1.40 / pb_ratio=1.30 / aq=1:1.00Language : EnglishDefault : YesForced : NoColor range : LimitedColor primaries : BT.709Transfer characteristics : BT.709Matrix coefficients : BT.709

Audio #1ID : 2Format : AC-3Format/Info : Audio Coding 3Mode extension : CM (complete main)Format settings, Endianness : BigCodec ID : A_AC3Duration : 1 h 42 minBit rate mode : ConstantBit rate : 448 kb/sChannel(s) : 6 channelsChannel positions : Front: L C R, Side: L R, LFESampling rate : 48.0 kHzFrame rate : 31.250 FPS (1536 spf)Compression mode : LossyStream size : 330 MiB (7%)Title : Universal Pictures RusLanguage : RussianDefault : YesForced : No

Audio #2ID : 3Format : AC-3Format/Info : Audio Coding 3Mode extension : CM (complete main)Format settings, Endianness : BigCodec ID : A_AC3Duration : 1 h 42 minBit rate mode : ConstantBit rate : 448 kb/sChannel(s) : 6 channelsChannel positions : Front: L C R, Side: L R, LFESampling rate : 48.0 kHzFrame rate : 31.250 FPS (1536 spf)Compression mode : LossyStream size : 330 MiB (7%)Title : ПозитивLanguage : RussianDefault : NoForced : No

Audio #3ID : 4Format : AC-3Format/Info : Audio Coding 3Mode extension : CM (complete main)Format settings, Endianness : BigCodec ID : A_AC3Duration : 1 h 42 minBit rate mode : ConstantBit rate : 448 kb/sChannel(s) : 6 channelsChannel positions : Front: L C R, Side: L R, LFESampling rate : 48.0 kHzFrame rate : 31.250 FPS (1536 spf)Compression mode : LossyStream size : 330 MiB (7%)Title : СТСLanguage : RussianDefault : NoForced : No

Audio #4ID : 5Format : AC-3Format/Info : Audio Coding 3Mode extension : CM (complete main)Format settings, Endianness : BigCodec ID : A_AC3Duration : 1 h 42 minBit rate mode : ConstantBit rate : 192 kb/sChannel(s) : 2 channelsChannel positions : Front: L RSampling rate : 48.0 kHzFrame rate : 31.250 FPS (1536 spf)Compression mode : LossyStream size : 141 MiB (3%)Title : РоссияLanguage : RussianDefault : NoForced : No

Audio #5ID : 6Format : AC-3Format/Info : Audio Coding 3Mode extension : CM (complete main)Format settings, Endianness : BigCodec ID : A_AC3Duration : 1 h 42 minBit rate mode : ConstantBit rate : 448 kb/sChannel(s) : 6 channelsChannel positions : Front: L C R, Side: L R, LFESampling rate : 48.0 kHzFrame rate : 31.250 FPS (1536 spf)Compression mode : LossyStream size : 330 MiB (7%)Title : Ю.ЖивовLanguage : RussianDefault : NoForced : No

Audio #6ID : 7Format : AC-3Format/Info : Audio Coding 3Mode extension : CM (complete main)Format settings, Endianness : BigCodec ID : A_AC3Duration : 1 h 42 minBit rate mode : ConstantBit rate : 448 kb/sChannel(s) : 6 channelsChannel positions : Front: L C R, Side: L R, LFESampling rate : 48.0 kHzFrame rate : 31.250 FPS (1536 spf)Compression mode : LossyStream size : 330 MiB (7%)Title : Ю.СербинLanguage : RussianDefault : NoForced : No

Audio #7ID : 8Format : AC-3Format/Info : Audio Coding 3Mode extension : CM (complete main)Format settings, Endianness : BigCodec ID : A_AC3Duration : 1 h 42 minBit rate mode : ConstantBit rate : 192 kb/sChannel(s) : 2 channelsChannel positions : Front: L RSampling rate : 48.0 kHzFrame rate : 31.250 FPS (1536 spf)Compression mode : LossyStream size : 141 MiB (3%)Title : С.ВизгуновLanguage : RussianDefault : NoForced : No

Audio #8ID : 9Format : AC-3Format/Info : Audio Coding 3Mode extension : CM (complete main)Format settings, Endianness : BigCodec ID : A_AC3Duration : 1 h 42 minBit rate mode : ConstantBit rate : 448 kb/sChannel(s) : 6 channelsChannel positions : Front: L C R, Side: L R, LFESampling rate : 48.0 kHzFrame rate : 31.250 FPS (1536 spf)Compression mode : LossyStream size : 330 MiB (7%)Title : OriginalLanguage : EnglishDefault : NoForced : No

Text #1ID : 10Format : UTF-8Codec ID : S_TEXT/UTF8Codec ID/Info : UTF-8 Plain TextDuration : 1 h 35 minBit rate : 95 b/sCount of elements : 1463Stream size : 67.0 KiB (0%)Title : fullLanguage : RussianDefault : NoForced : No

Text #2ID : 11Format : UTF-8Codec ID : S_TEXT/UTF8Codec ID/Info : UTF-8 Plain TextDuration : 1 h 35 minBit rate : 89 b/sCount of elements : 1390Stream size : 62.9 KiB (0%)Title : fullLanguage : RussianDefault : NoForced : No

Text #3ID : 12Format : UTF-8Codec ID : S_TEXT/UTF8Codec ID/Info : UTF-8 Plain TextDuration : 1 h 35 minBit rate : 41 b/sCount of elements : 695Stream size : 29.3 KiB (0%)Title : fullLanguage : EnglishDefault : NoForced : No

Menu00:00:00.000 : en:Chapter 100:02:42.537 : en:Chapter 200:06:49.283 : en:Chapter 300:09:06.712 : en:Chapter 400:09:43.457 : en:Chapter 500:11:31.357 : en:Chapter 600:17:14.700 : en:Chapter 700:29:29.225 : en:Chapter 800:36:58.216 : en:Chapter 900:42:33.926 : en:Chapter 1000:45:41.112 : en:Chapter 1100:47:43.819 : en:Chapter 1200:51:12.444 : en:Chapter 1300:52:56.631 : en:Chapter 1400:55:23.028 : en:Chapter 1501:01:08.039 : en:Chapter 1601:09:57.985 : en:Chapter 1701:13:20.896 : en:Chapter 1801:21:01.356 : en:Chapter 1901:23:22.747 : en:Chapter 2001:27:44.091 : en:Chapter 2101:31:51.214 : en:Chapter 2201:34:49.308 : en:Chapter 2301:36:00.755 : en:Chapter 24

piratbit.ru


Смотрите также