Семейка джонсов скачать торрент в хорошем качестве


Скачать фильм Семейка Джонсов через торрент в хорошем качестве бесплатно 1080p by msltel

ОбщееУникальный идентификатор : 238287342301170726080039484241483802966 (0xB3447908CE7B6266B17BD37036DE2956)Полное имя : D:VideoСемейка Джонсов.2009.BDRip.1080p.mkvФормат : MatroskaВерсия формата : Version 4 / Version 2Размер файла : 9,84 ГбайтПродолжительность : 1 ч. 35 м.Общий поток : 14,7 Мбит/секНазвание фильма : BDRip -- STarankovДата кодирования : UTC 2015-11-20 05:12:36Программа кодирования : mkvmerge v8.2.0 ('World of Adventure') 64bitБиблиотека кодирования : libebml v1.3.1 + libmatroska v1.4.2DURATION : 01:33:36.401000000NUMBER_OF_FRAMES : 1390NUMBER_OF_BYTES : 48839_STATISTICS_WRITING_APP : mkvmerge v8.2.0 ('World of Adventure') 64bit_STATISTICS_WRITING_DATE_UTC : 2015-11-20 05:12:36_STATISTICS_TAGS : BPS DURATION NUMBER_OF_FRAMES NUMBER_OF_BYTES

ВидеоИдентификатор : 1Формат : AVCФормат/Информация : Advanced Video CodecПрофиль формата : [email protected]Параметр CABAC формата : ДаПараметр ReFrames формата : 4 кадраИдентификатор кодека : V_MPEG4/ISO/AVCПродолжительность : 1 ч. 35 м.Битрейт : 11,4 Мбит/секШирина : 1920 пикселейВысота : 808 пикселейСоотношение сторон : 2,40:1Режим частоты кадров : ПостоянныйЧастота кадров : 23,976 кадра/секЦветовое пространство : YUVСубдискретизация насыщенности : 4:2:0Битовая глубина : 8 битТип развёртки : ПрогрессивнаяБит/(Пиксели*Кадры) : 0.306Размер потока : 7,63 Гбайт (77%)Библиотека кодирования : x264 core 146 r2538 121396cНастройки программы : cabac=1 / ref=4 / deblock=1:-1:-1 / analyse=0x3:0x113 / me=umh / subme=10 / psy=1 / psy_rd=1.00:0.15 / mixed_ref=1 / me_range=32 / chroma_me=1 / trellis=2 / 8x8dct=1 / cqm=0 / deadzone=21,11 / fast_pskip=1 / chroma_qp_offset=-3 / threads=6 / lookahead_threads=1 / sliced_threads=0 / nr=0 / decimate=1 / interlaced=0 / bluray_compat=0 / constrained_intra=0 / bframes=9 / b_pyramid=2 / b_adapt=2 / b_bias=0 / direct=1 / weightb=1 / open_gop=0 / weightp=2 / keyint=230 / keyint_min=23 / scenecut=40 / intra_refresh=0 / rc_lookahead=40 / rc=crf / mbtree=0 / crf=18.8 / qcomp=0.60 / qpmin=0 / qpmax=69 / qpstep=4 / vbv_maxrate=40000 / vbv_bufsize=50000 / crf_max=0.0 / nal_hrd=none / filler=0 / ip_ratio=1.40 / pb_ratio=1.30 / aq=1:1.00Язык : EnglishDefault : ДаForced : НетDURATION : 01:35:50.787000000NUMBER_OF_FRAMES : 137881NUMBER_OF_BYTES : 8397879352_STATISTICS_WRITING_APP : mkvmerge v8.2.0 ('World of Adventure') 64bit_STATISTICS_WRITING_DATE_UTC : 2015-11-20 05:12:36_STATISTICS_TAGS : BPS DURATION NUMBER_OF_FRAMES NUMBER_OF_BYTES

Аудио #1Идентификатор : 2Формат : DTSФормат/Информация : Digital Theater SystemsРежим : 16Параметр Endianness формата : BigИдентификатор кодека : A_DTSПродолжительность : 1 ч. 35 м.Вид битрейта : ПостоянныйБитрейт : 1510 Кбит/секКаналы : 6 каналовРасположение каналов : Front: L C R, Side: L R, LFEЧастота : 48,0 КГцБитовая глубина : 24 битМетод сжатия : С потерямиРазмер потока : 1,01 Гбайт (10%)Заголовок : DUBЯзык : RussianDefault : ДаForced : Нет

Аудио #2Идентификатор : 3Формат : DTSФормат/Информация : Digital Theater SystemsРежим : 16Параметр Endianness формата : BigИдентификатор кодека : A_DTSПродолжительность : 1 ч. 35 м.Вид битрейта : ПостоянныйБитрейт : 1509 Кбит/секКаналы : 6 каналовРасположение каналов : Front: L C R, Side: L R, LFEЧастота : 48,0 КГцБитовая глубина : 24 битМетод сжатия : С потерямиРазмер потока : 1,01 Гбайт (10%)Заголовок : OriginalЯзык : EnglishDefault : НетForced : Нет

ТекстИдентификатор : 4Формат : UTF-8Идентификатор кодека : S_TEXT/UTF8Идентификатор кодека/Информация : UTF-8 Plain TextЗаголовок : английскийЯзык : EnglishDefault : НетForced : Нет

piratbit.ru

Скачать фильм Семейка Джонсов через торрент в хорошем качестве бесплатно HDRip

piratbit.ru

Размер: 746 MB | Добавлен: 6 лет назад | Торрент скачан:45 раз
Реклама Дарим 3000 рублей за регистрацию, не упусти свой шанс получить шикарный бонус!!!

09-10-2011 09:55 Семейка Джонсов Скачать торрент  

Семейка Джонсов / The Joneses

Год выпуска: 2009Страна: СШАЖанр: комедия, драма, мелодрамаПродолжительность: 01:35:50Перевод: Профессиональный (полное дублирование)

Режиссер: Деррик Борте

В ролях: Дэвид Духовны, Деми Мур, Эмбер Хёрд, Бен Холлингсворт, Гэри Коул, Гленн Хедли, Лорен Хаттон, Крис Уильямс, Кристин Евангелиста, Роберт Пралго, Тиффани Морган, Джо Нарцисо, Рик Рейц, Л. Уоррен Янг, Хэйес Меркюр, Эндрю ДиПальма, Дженсон Гойннс, Джейсон Хорган, Катрин Дайер

Описание: Образцово-показательная во всех отношениях семья Джонсов поселяется в маленьком городке, и сразу становится кумирами и любимчиками всех его жителей. Вот на кого хотят быть похожими все от мала до велика! Но на самом деле Джонсы – не супруги, и их дети – не настоящие. Нет, они не шпионы и не инопланетяне.Все они – просто сотрудники маркетинговой компании, нанятые и засланные в городок, чтобы рекламировать нестандартными методами "идеальный" образ жизни, а заодно и миллион товаров! Но со временем Джонсы начинают обнаруживать, что их работенка не такая простая, как казалось, а горожане – что Джонсы не такие уж идеальные, и у каждого из них найдется какой-нибудь тайный порок…

Качество: HDRipФормат: AVIВидео кодек: XviDАудио кодек: MP3 Видео: 688x288 (2.39:1), 23.976 fps, XviD build 50 ~950 kbps avg, 0.20 bit/pixelАудио: 48 kHz, MPEG Layer 3, 2 ch, ~128.00 kbps avg

Скачать Семейка Джонсов через торрент http://i30.fastpic.ru/big/2011/1009/b5/993c3298cb63e2dbe96f9e7f1b92c6b5.png Скачать фильм Семейка Джонсов через торрент бесплантно в хорошем качестве Описание: Образцово-показательная во всех отношениях семья Джонсов поселяется в маленьком городке, и сразу становится кумирами и ... 2011-10-09 09:55 5 10 4

Loading...

Loading...

Последний раз редактировалось: markfiter (2011-10-09 10:46), всего редактировалось 1 раз

Рекламный пират

09-10-2011 10:36 Семейка Джонсов Скачать торрент  

Дорогой пользователь! Огромная просьба, поблагодарите релизера, оцените раздачу и оставьте свои комментарий, если Вы скачали Семейка Джонсов через торрент бесплатно! Внесите свою лепту в развитие PiratBit!

Комментировать посты могут только пользователи прошедшие не сложную регистрацию

Семейка Джонсов через торрент Скачать бесплатно Семейка Джонсов Семейка Джонсов скачать торрент Семейка Джонсов смотреть онлайн Cкачать фильм Семейка Джонсов бесплатно Семейка Джонсов скачать торрент в хорошем качестве Семейка Джонсов смотреть онлайн бесплатно в хорошем качестве

Вы не можете начинать темыВы не можете отвечать на сообщенияВы не можете редактировать свои сообщенияВы не можете удалять свои сообщенияВы не можете голосовать в опросахВы не можете прикреплять файлы к сообщениямВы можете скачивать файлы

Скачать фильм Семейка Джонсов через торрент в хорошем качестве бесплатно 720p by msltel

ОбщееУникальный идентификатор : 221491854647180378626890926779548266856 (0xA6A1C78F4C00D5C58A36581C9EA37168)Полное имя : D:VideoСемейка Джонсов.2009.BDRip.720p.mkvФормат : MatroskaВерсия формата : Version 4 / Version 2Размер файла : 3,26 ГбайтПродолжительность : 1 ч. 35 м.Общий поток : 4874 Кбит/секНазвание фильма : BDRip -- STarankovДата кодирования : UTC 2015-11-20 16:20:02Программа кодирования : mkvmerge v8.2.0 ('World of Adventure') 64bitБиблиотека кодирования : libebml v1.3.1 + libmatroska v1.4.2DURATION : 01:33:36.401000000NUMBER_OF_FRAMES : 1390NUMBER_OF_BYTES : 48839_STATISTICS_WRITING_APP : mkvmerge v8.2.0 ('World of Adventure') 64bit_STATISTICS_WRITING_DATE_UTC : 2015-11-20 16:20:02_STATISTICS_TAGS : BPS DURATION NUMBER_OF_FRAMES NUMBER_OF_BYTES

ВидеоИдентификатор : 1Формат : AVCФормат/Информация : Advanced Video CodecПрофиль формата : [email protected]Параметр CABAC формата : ДаПараметр ReFrames формата : 9 кадровИдентификатор кодека : V_MPEG4/ISO/AVCПродолжительность : 1 ч. 35 м.Битрейт : 3881 Кбит/секШирина : 1280 пикселейВысота : 538 пикселейСоотношение сторон : 2,40:1Режим частоты кадров : ПостоянныйЧастота кадров : 23,976 кадра/секЦветовое пространство : YUVСубдискретизация насыщенности : 4:2:0Битовая глубина : 8 битТип развёртки : ПрогрессивнаяБит/(Пиксели*Кадры) : 0.235Размер потока : 2,60 Гбайт (80%)Библиотека кодирования : x264 core 146 r2538 121396cНастройки программы : cabac=1 / ref=9 / deblock=1:-1:-1 / analyse=0x3:0x113 / me=umh / subme=10 / psy=1 / psy_rd=1.00:0.15 / mixed_ref=1 / me_range=32 / chroma_me=1 / trellis=2 / 8x8dct=1 / cqm=0 / deadzone=21,11 / fast_pskip=1 / chroma_qp_offset=-3 / threads=6 / lookahead_threads=1 / sliced_threads=0 / nr=0 / decimate=1 / interlaced=0 / bluray_compat=0 / constrained_intra=0 / bframes=9 / b_pyramid=2 / b_adapt=2 / b_bias=0 / direct=1 / weightb=1 / open_gop=0 / weightp=2 / keyint=230 / keyint_min=23 / scenecut=40 / intra_refresh=0 / rc_lookahead=40 / rc=crf / mbtree=0 / crf=19.0 / qcomp=0.60 / qpmin=0 / qpmax=69 / qpstep=4 / vbv_maxrate=40000 / vbv_bufsize=50000 / crf_max=0.0 / nal_hrd=none / filler=0 / ip_ratio=1.40 / pb_ratio=1.30 / aq=1:1.00Язык : EnglishDefault : ДаForced : НетDURATION : 01:35:50.787000000NUMBER_OF_FRAMES : 137881NUMBER_OF_BYTES : 2858176971_STATISTICS_WRITING_APP : mkvmerge v8.2.0 ('World of Adventure') 64bit_STATISTICS_WRITING_DATE_UTC : 2015-11-20 16:20:02_STATISTICS_TAGS : BPS DURATION NUMBER_OF_FRAMES NUMBER_OF_BYTES

Аудио #1Идентификатор : 2Формат : AC-3Формат/Информация : Audio Coding 3Расширение режима : CM (complete main)Параметр Endianness формата : BigИдентификатор кодека : A_AC3Продолжительность : 1 ч. 35 м.Вид битрейта : ПостоянныйБитрейт : 448 Кбит/секКаналы : 6 каналовРасположение каналов : Front: L C R, Side: L R, LFEЧастота : 48,0 КГцМетод сжатия : С потерямиРазмер потока : 307 Мбайт (9%)Заголовок : DUBЯзык : RussianDefault : ДаForced : Нет

Аудио #2Идентификатор : 3Формат : AC-3Формат/Информация : Audio Coding 3Расширение режима : CM (complete main)Параметр Endianness формата : BigИдентификатор кодека : A_AC3Продолжительность : 1 ч. 35 м.Вид битрейта : ПостоянныйБитрейт : 448 Кбит/секКаналы : 6 каналовРасположение каналов : Front: L C R, Side: L R, LFEЧастота : 48,0 КГцМетод сжатия : С потерямиРазмер потока : 307 Мбайт (9%)Заголовок : OriginalЯзык : EnglishDefault : НетForced : Нет

ТекстИдентификатор : 4Формат : UTF-8Идентификатор кодека : S_TEXT/UTF8Идентификатор кодека/Информация : UTF-8 Plain TextЗаголовок : английскийЯзык : EnglishDefault : НетForced : Нет

piratbit.ru

Скачать фильм Семейка Джонсов (2010) через торрент

gig-torrent.net

28 декабря 2015 10:03 Семейка Джонсов / The Joneses (2009) BDRip 1080p by msltel | D .torrent   [Информация о файле (нажмите для просмотра)] Перевод: дублированныйКачество: BDRip 1080pСравнение с исходникомФормат: MKVВидео: MPEG-4 AVC, 11.4 Mбит/с, 1920x808, 23,976 кадра/сАудио 1: русский, DTS, 1509 kbps, 6 ch, 48 kHz [дублированный]Аудио 2: английский, DTS, 1509 kbps, 6 ch, 48 kHz [оригинал]Субтитры: английскиеВидео: Идентификатор : 1 Формат : AVC Формат/Информация : Advanced Video Codec Профиль формата : [email protected] Параметр CABAC формата : Да Параметр ReFrames формата : 4 кадра Идентификатор кодека : V_MPEG4/ISO/AVC Продолжительность : 1 ч. 35 м. Битрейт : 11,4 Мбит/сек Ширина : 1920 пикселей Высота : 808 пикселей Соотношение сторон : 2,40:1 Режим частоты кадров : Постоянный Частота кадров : 23,976 кадра/сек Цветовое пространство : YUV Субдискретизация насыщенности : 4:2:0 Битовая глубина : 8 бит Тип развёртки : Прогрессивная Бит/(Пиксели*Кадры) : 0.306 Размер потока : 7,63 Гбайт (77%) Библиотека кодирования : x264 core 146 r2538 121396c Настройки программы : cabac=1 / ref=4 / deblock=1:-1:-1 / analyse=0x3:0x113 / me=umh / subme=10 / psy=1 / psy_rd=1.00:0.15 / mixed_ref=1 / me_range=32 / chroma_me=1 / trellis=2 / 8x8dct=1 / cqm=0 / deadzone=21,11 / fast_pskip=1 / chroma_qp_offset=-3 / threads=6 / lookahead_threads=1 / sliced_threads=0 / nr=0 / decimate=1 / interlaced=0 / bluray_compat=0 / constrained_intra=0 / bframes=9 / b_pyramid=2 / b_adapt=2 / b_bias=0 / direct=1 / weightb=1 / open_gop=0 / weightp=2 / keyint=230 / keyint_min=23 / scenecut=40 / intra_refresh=0 / rc_lookahead=40 / rc=crf / mbtree=0 / crf=18.8 / qcomp=0.60 / qpmin=0 / qpmax=69 / qpstep=4 / vbv_maxrate=40000 / vbv_bufsize=50000 / crf_max=0.0 / nal_hrd=none / filler=0 / ip_ratio=1.40 / pb_ratio=1.30 / aq=1:1.00 Язык : English Default : Да Forced : Нет DURATION : 01:35:50.787000000 NUMBER_OF_FRAMES : 137881 NUMBER_OF_BYTES : 8397879352 _STATISTICS_WRITING_APP : mkvmerge v8.2.0 ('World of Adventure') 64bit _STATISTICS_WRITING_DATE_UTC : 2015-11-20 05:12:36 _STATISTICS_TAGS : BPS DURATION NUMBER_OF_FRAMES NUMBER_OF_BYTESАудио #1: Идентификатор : 2 Формат : DTS Формат/Информация : Digital Theater Systems Режим : 16 Параметр Endianness формата : Big Идентификатор кодека : A_DTS Продолжительность : 1 ч. 35 м. Вид битрейта : Постоянный Битрейт : 1510 Кбит/сек Каналы : 6 каналов Расположение каналов : Front: L C R, Side: L R, LFE Частота : 48,0 КГц Битовая глубина : 24 бит Метод сжатия : С потерями Размер потока : 1,01 Гбайт (10%) Заголовок : DUB Язык : Russian Default : Да Forced : НетАудио #2: Идентификатор : 3 Формат : DTS Формат/Информация : Digital Theater Systems Режим : 16 Параметр Endianness формата : Big Идентификатор кодека : A_DTS Продолжительность : 1 ч. 35 м. Вид битрейта : Постоянный Битрейт : 1509 Кбит/сек Каналы : 6 каналов Расположение каналов : Front: L C R, Side: L R, LFE Частота : 48,0 КГц Битовая глубина : 24 бит Метод сжатия : С потерями Размер потока : 1,01 Гбайт (10%) Заголовок : Original Язык : English Default : Нет Forced : Нет 9,84 Gb 21 5
28 декабря 2015 10:03 Семейка Джонсов / The Joneses (2010) BDRip 720p .torrent   [Информация о файле (нажмите для просмотра)] Перевод: Профессиональный (полное дублирование) + ОригинальныйСубтитры: русские, английские.Качество: BDRipКонтейнер: MKVВидео: AVC, 1280x536 (2.40:1), 4100 kbps, 23,976 fps, 0,249 bppАудио №1: русский / AC3 / 5.1 / 48 kHz / 448 kbpsАудио №2: английский / AC3 / 5.1 / 48 kHz / 448 kbps 3,35 Gb 54 6
28 декабря 2015 10:03 Семейка Джонсов / The Joneses (2009) HDRip от Scarabey | D .torrent   [Информация о файле (нажмите для просмотра)] Перевод: Профессиональный (полное дублирование)Видео: 720x304 (2.37:1), 23.976 fps, XviD build 73 ~1700 kbps avg, 0.32 bit/pixelАудио: 48 kHz, AC3 Dolby Digital, 3/2 (L,C,R,l,r) + LFE ch, ~448.00 kbps avg 1,44 Gb 91 5
28 декабря 2015 10:03 Семейка Джонсов / The Joneses (2009) HDRip от Scarabey | D .torrent   [Информация о файле (нажмите для просмотра)] Перевод: Профессиональный (полное дублирование)Видео: 640x272 (2.35:1), 23.976 fps, XviD build 73 ~948 kbps avg, 0.23 bit/pixelАудио: 48 kHz, MPEG Layer 3, 2 ch, ~128.00 kbps avg 744,55 Mb 70 16
28 декабря 2015 10:02 Семейка Джонсов / The Joneses (2009) BDRip от Rulya74 .torrent   [Информация о файле (нажмите для просмотра)] Перевод: Дубляж + Любительский (двухголосый закадровый) + Оригинал (Английский)Кодек: XVIDКачество: BDRipВидео: 720x304 (2.37:1), 23.976 fps, XviD MPEG-4 ~1980 kbps avg, 0.38 bit/pixelСубтитры: Английские [SRT] / внешние 2,19 Gb 6 4
28 декабря 2015 10:02 Семейка Джонсов / The Joneses (2009) BDRip-AVC от potroks | D .torrent   [Информация о файле (нажмите для просмотра)] Перевод: Профессиональный (полное дублирование) Субтитры: Английские, русскиеКачество: BDRip-AVC [BDRemux]Формат: MKVВидео: H.264, 1036x436 (2,37:1), 23,976 кадр/сек, 2370 Кбит/сек, 0.219 bit/pixelАудио#1: 48 kHz, AC3 Dolby Digital, 3/2 (L,C,R,l,r) + LFE ch, ~448.00 kbps avg |RUSАудио#2: 48 kHz, AC3 Dolby Digital, 3/2 (L,C,R,l,r) + LFE ch, ~448.00 kbps avg |ENGВидео: Идентификатор : 1 Формат : AVC Формат/Информация : Advanced Video Codec Профиль формата : [email protected] Параметр CABAC формата : Да Параметр ReFrames формата : 11 кадров Идентификатор кодека : V_MPEG4/ISO/AVC Продолжительность : 1 ч. 35 м. Битрейт : 2370 Кбит/сек Ширина : 1036 пикселей Высота : 436 пикселей Соотношение сторон : 2,40:1 Режим частоты кадров : Постоянный Частота кадров : 23,976 кадра/сек Цветовое пространство : YUV Субдискретизация насыщенности : 4:2:0 Битовая глубина : 8 бит Тип развёртки : Прогрессивная Бит/(Пиксели*Кадры) : 0.219 Размер потока : 1,54 Гбайт (71%) Заголовок : The Joneses Библиотека кодирования : x264 core 125 r2208 d9d2288 Настройки программы : cabac=1 / ref=11 / deblock=1:-2:-1 / analyse=0x3:0x133 / me=umh / subme=11 / psy=1 / psy_rd=1.07:0.00 / mixed_ref=1 / me_range=32 / chroma_me=1 / trellis=2 / 8x8dct=1 / cqm=0 / deadzone=21,11 / fast_pskip=0 / chroma_qp_offset=-2 / threads=9 / lookahead_threads=1 / sliced_threads=0 / nr=0 / decimate=1 / interlaced=0 / bluray_compat=0 / constrained_intra=0 / bframes=12 / b_pyramid=2 / b_adapt=2 / b_bias=0 / direct=3 / weightb=1 / open_gop=0 / weightp=2 / keyint=240 / keyint_min=23 / scenecut=40 / intra_refresh=0 / rc_lookahead=150 / rc=2pass / mbtree=1 / bitrate=2370 / ratetol=1.0 / qcomp=0.70 / qpmin=0 / qpmax=69 / qpstep=4 / cplxblur=20.0 / qblur=0.5 / vbv_maxrate=20000 / vbv_bufsize=25000 / nal_hrd=none / ip_ratio=1.35 / aq=1:0.70 Язык : English Default : Да Forced : НетАудио #1: Идентификатор : 2 Формат : AC-3 Формат/Информация : Audio Coding 3 Расширение режима : CM (complete main) Параметр Endianness формата : Big Идентификатор кодека : A_AC3 Продолжительность : 1 ч. 35 м. Вид битрейта : Постоянный Битрейт : 448 Кбит/сек Каналы : 6 каналов Расположение каналов : Front: L C R, Side: L R, LFE Частота : 48,0 КГц Битовая глубина : 16 бит Метод сжатия : С потерями Размер потока : 307 Мбайт (14%) Заголовок : Dub | DD 5.1 @ 448 kbps Язык : Russian Default : Да Forced : ДаАудио #2: Идентификатор : 3 Формат : AC-3 Формат/Информация : Audio Coding 3 Расширение режима : CM (complete main) Параметр Endianness формата : Big Идентификатор кодека : A_AC3 Продолжительность : 1 ч. 35 м. Вид битрейта : Постоянный Битрейт : 448 Кбит/сек Каналы : 6 каналов Расположение каналов : Front: L C R, Side: L R, LFE Частота : 48,0 КГц Битовая глубина : 16 бит Метод сжатия : С потерями Размер потока : 307 Мбайт (14%) Заголовок : Original | DD 5.1 @ 448 kbps Язык : English Default : Нет Forced : Нет 2,19 Gb 76 3
28 декабря 2015 10:02 Семейка Джонсов / The Joneses (2009) BDRip от HQ-ViDEO .torrent   [Информация о файле (нажмите для просмотра)] Субтитры: Английские 1,71 Gb 19 5
28 декабря 2015 10:02 Семейка Джонсов / The Joneses (2009) DVDRip by BigFANGroup | Лицензия .torrent   [Информация о файле (нажмите для просмотра)] Перевод: Дублированный | лицензияКодек: XviDКачество: DVDRipВидео: 720x400, 1292 Кбит/с, 25.00fpsЗвук: Dolby AC3, 48000Hz, 6ch, 448 Кбит/с 1,12 Gb 20 2
28 декабря 2015 10:02 Семейка Джонсов / The Joneses (2009) BDRip от HQCLUB .torrent   [Информация о файле (нажмите для просмотра)] Перевод: Профессиональный (полное дублирование) + Оригинал(отдельно)Формат: AVIКачество: BDRip (источник:Видео: 720x304 (2.37:1), 23.976 fps, XviD build 50 ~1773 kbps avg, 0.34 bit/pixelАудио #1: 48 kHz, AC3 Dolby Digital, 3/2 (L,C,R,l,r) + LFE ch, ~384.00 kbps avgАудио #2: 48 kHz, AC3 Dolby Digital, 3/2 (L,C,R,l,r) + LFE ch, ~384.00 kbps avg(отдельно) 1,71 Gb 7 4
28 декабря 2015 10:02 Семейка Джонсов / The Joneses (2009) DVD5 vadi .torrent   [Информация о файле (нажмите для просмотра)] Перевод: профессиональный (дублированный)Качество: DVD5 (от vadi)Контейнер: DVD-VideoВидео: PAL 16:9 (720x576) VBRАудио: Русский (Dolby AC3, 6 ch, 448Kbps)Видео: Идентификатор : 224 (0xE0) Формат : MPEG Video Версия формата : Version 2 Профайл формата : [email protected] Параметры BVOP формата : Да Параметры матрицы формата : По умолчанию Продолжительность : 21 м. Вид битрейта : Переменный Битрейт : 5981 Кбит/сек Номинальный битрейт : 8000 Кбит/сек Ширина : 720 пикс. Высота : 576 пикс. Соотношение кадра : 4:3 Частота кадров : 25,000 кадр/сек Стандарт вещания : PAL Разрешение : 8 бит Колориметрия : 4:2:0 Тип развёртки : Чересстрочная Порядок развёртки : Верхнее поле первое Бит/(Пиксели*Кадры) : 0.577 Размер потока : 934 МиБ (91%)Аудио: Идентификатор : 128 (0x80) Формат : AC-3 Формат/Информация : Audio Coding 3 Format_Settings_ModeExtension : CM (complete main) Продолжительность : 21 м. Вид битрейта : Постоянный Битрейт : 448 Кбит/сек Канал(ы) : 6 канала(ов) Расположение каналов : Front: L C R, Side: L R, LFE Частота : 48,0 КГц Размер потока : 69,9 МиБ (7%) 4,36 Gb 4 1
28 декабря 2015 10:02 Семейка Джонсов / The Joneses (2009) HDRip | лицензия .torrent   [Информация о файле (нажмите для просмотра)] Формат: AVI (XviD)Качество: HDRip [SANTi]Видео: 1688 kb/s, 720x304Аудио: AC3, 448 kb/s (6 ch) 1,44 Gb 79 2

Скачать торрент Семейка Джонсов / The Joneses (2010) BDRip 720p

Название: Семейка Джонсов Оригинальное название: The Joneses Год выпуска: 2009 Жанр: Комедия, мелодрама, драма Выпущено: США, Echo Lake Productions Режиссер: Деррик Борте В ролях: Эмбер Хёрд, Деми Мур, Дэвид Духовны, Гэри Коул, Гленн Хедли, Лорен Хаттон, Крис Уильямс, Катрин Дайер, Кристин Евангелиста, Роберт Пралго, Марк Оливер, Ким Уолл, Уилбур Фицджералд

О фильме: Образцово-показательная во всех отношениях семья Джонсов поселяется в маленьком городке, и сразу становится кумирами и любимчиками всех его жителей. Вот на кого хотят быть похожими все от мала до велика! Но на самом деле Джонсы — не супруги, и их дети — не настоящие. Нет, они не шпионы и не инопланетяне. Все они — просто сотрудники маркетинговой компании, нанятые и засланные в городок, чтобы рекламировать нестандартными методами «идеальный» образ жизни, а заодно и миллион товаров! Но со временем Джонсы начинают обнаруживать, что их работенка не такая простая, как казалось, а горожане — что Джонсы не такие уж идеальные, и у каждого из них найдется какой-нибудь тайный порок…

Качество: BDRip 720p Видео: MPEG-4 AVC, 5891 Kбит/с, 1280x538, 23.976 кадр/с Аудио: Русский, английский (DTS, 6 ch, 1509 Кбит/с) Продолжительность: 01:35:50 Перевод: Дублированный Субтитры: Английские, испанские, португальские, чешские, румынские

MediaInfo

Общее Уникальный идентификатор : 220462768145526927689425884277240373804 (0xA5DB95AD8C8914C7ADBB73D143DA222C) Полное имя : The.Joneses.2009.720p.BluRay.DTS.Rus.Eng.HDCLUB.mkv Формат : Matroska Версия формата : Version 2 Размер файла : 5,97 Гбайт Продолжительность : 1 ч. 35 м. Общий поток : 8911 Кбит/сек Название фильма : The Joneses (2009) - Release for HDCLUB Дата кодирования : UTC 2010-09-09 23:18:42 Программа кодирования : mkvmerge v3.3.0 ('Language') built on Mar 24 2010 14:59:24 Библиотека кодирования : libebml v0.8.0 + libmatroska v0.9.0

Видео Идентификатор : 1 Формат : AVC Формат/Информация : Advanced Video Codec Профиль формата : [email protected] Параметр CABAC формата : Да Параметр ReFrames формата : 10 кадров Идентификатор кодека : V_MPEG4/ISO/AVC Продолжительность : 1 ч. 35 м. Битрейт : 5891 Кбит/сек Ширина : 1280 пикселей Высота : 538 пикселей Соотношение сторон : 2,40:1 Режим частоты кадров : Постоянный Частота кадров : 23,976 кадра/сек Цветовое пространство : YUV Субдискретизация насыщенности : 4:2:0 Битовая глубина : 8 бит Тип развёртки : Прогрессивная Бит/(Пиксели*Кадры) : 0.357 Размер потока : 3,83 Гбайт (64%) Заголовок : Release for HDCLUB Библиотека кодирования : x264 core 104 r1698 c41b8f0 Настройки программы : cabac=1 / ref=10 / deblock=1:-3:-3 / analyse=0x3:0x113 / me=tesa / subme=10 / psy=1 / psy_rd=0.90:0.00 / mixed_ref=1 / me_range=16 / chroma_me=1 / trellis=2 / 8x8dct=1 / cqm=0 / deadzone=21,11 / fast_pskip=0 / chroma_qp_offset=-2 / threads=12 / sliced_threads=0 / nr=0 / decimate=0 / interlaced=0 / constrained_intra=0 / bframes=7 / b_pyramid=2 / b_adapt=2 / b_bias=0 / direct=3 / weightb=1 / open_gop=1 / weightp=2 / keyint=250 / keyint_min=23 / scenecut=40 / intra_refresh=0 / rc=2pass / mbtree=0 / bitrate=5891 / ratetol=1.0 / qcomp=0.60 / qpmin=10 / qpmax=51 / qpstep=4 / cplxblur=20.0 / qblur=0.5 / ip_ratio=1.40 / pb_ratio=1.30 / aq=1:0.80 Язык : English Default : Да Forced : Нет

Аудио #1 Идентификатор : 2 Формат : DTS Формат/Информация : Digital Theater Systems Режим : 16 Параметр Endianness формата : Big Идентификатор кодека : A_DTS Продолжительность : 1 ч. 35 м. Вид битрейта : Постоянный Битрейт : 1510 Кбит/сек Каналы : 6 каналов Расположение каналов : Front: L C R, Side: L R, LFE Частота : 48,0 КГц Битовая глубина : 24 бит Метод сжатия : С потерями Размер потока : 1,01 Гбайт (17%) Заголовок : DTS 5.1 1536 Kbps [Дубляж, R5] Язык : Russian Default : Да Forced : Нет

Аудио #2 Идентификатор : 3 Формат : DTS Формат/Информация : Digital Theater Systems Режим : 16 Параметр Endianness формата : Big Идентификатор кодека : A_DTS Продолжительность : 1 ч. 35 м. Вид битрейта : Постоянный Битрейт : 1509 Кбит/сек Каналы : 6 каналов Расположение каналов : Front: L C R, Side: L R, LFE Частота : 48,0 КГц Битовая глубина : 24 бит Метод сжатия : С потерями Размер потока : 1,01 Гбайт (17%) Заголовок : DTS 5.1 1536 Kbps [Оригинал] Язык : English Default : Нет Forced : Нет

Текст #1 Идентификатор : 4 Формат : UTF-8 Идентификатор кодека : S_TEXT/UTF8 Идентификатор кодека/Информация : UTF-8 Plain Text Язык : English Default : Нет Forced : Нет

Текст #2 Идентификатор : 5 Формат : UTF-8 Идентификатор кодека : S_TEXT/UTF8 Идентификатор кодека/Информация : UTF-8 Plain Text Язык : Spanish Default : Нет Forced : Нет

Текст #3 Идентификатор : 6 Формат : UTF-8 Идентификатор кодека : S_TEXT/UTF8 Идентификатор кодека/Информация : UTF-8 Plain Text Язык : Czech Default : Нет Forced : Нет

Текст #4 Идентификатор : 7 Формат : UTF-8 Идентификатор кодека : S_TEXT/UTF8 Идентификатор кодека/Информация : UTF-8 Plain Text Язык : Portuguese Default : Нет Forced : Нет

Текст #5 Идентификатор : 8 Формат : UTF-8 Идентификатор кодека : S_TEXT/UTF8 Идентификатор кодека/Информация : UTF-8 Plain Text Язык : Romanian Default : Нет Forced : Нет

Меню 00:00:00.000 : :00:00:00.000 00:03:58.905 : :00:03:58.905 00:08:11.741 : :00:08:11.741 00:12:47.725 : :00:12:47.725 00:17:09.570 : :00:17:09.570 00:23:54.683 : :00:23:54.683 00:33:36.723 : :00:33:36.723 00:38:34.270 : :00:38:34.270 00:43:33.820 : :00:43:33.820 00:51:09.608 : :00:51:09.608 00:55:41.296 : :00:55:41.296 01:00:52.649 : :01:00:52.649 01:06:22.061 : :01:06:22.061 01:13:57.933 : :01:13:57.933 01:18:45.596 : :01:18:45.596 01:25:21.700 : :01:25:21.700

m-torrent.org


Смотрите также