Самба скачать торрент в хорошем качестве


Скачать фильм Самба через торрент в хорошем качестве бесплатно HDRip

piratbit.ru

Раздают: 2 [ 0 KB/s ]
Размер: 1.46 GB | Добавлен: 2 года 2 мес. назад | Торрент скачан:401 раз
Реклама Дарим 3000 рублей за регистрацию, не упусти свой шанс получить шикарный бонус!!!

28-03-2015 12:52 Самба Скачать торрент  

Самба / Samba ИНФОРМАЦИЯ: Год выпуска:2014 Страна: Франция Жанр: драма, комедия Продолжительность: 01:58:51 Перевод: Дубляж - [Лицензия] Режиссер: Оливье Накаш , Эрик Толедано В Ролях: Омар Си (Samba Cissé), Шарлотта Генсбур (Alice), Тахар Рахим (Walid dit Wilson), Изиа Ижлен (Manu), Исака Савадого (Jonas Karanoto), Элен Венсан (Marcelle), Янгар Фолл (L'oncle Lamouna), Кристиана Милле (Madeleine), Жаклин Жеаннеф (Maggy), Лия Кебеде (Magali dite Gracieuse), Сабина Пакора (Gracieuse - la gérante du salon), Клотильд Молле (Josiane - de l'agence d'intérim) ОПИСАНИЕ:Самба - сенегалец, живущий во Франции десять лет, но неудачи все еще преследуют его - он не может устроиться на хорошее место работы. Элис - руководитель высшего звена, буквально «сгорела» на работе. Самба всеми силами пытается получить документы, чтобы трудоустроиться, а Алиса ищет спасения от пустоты собственной жизни. Каждый из них ищет выход из сложившегося тупика, пока в один прекрасный день их судьбы не пересекаются. Между смехом и слезами их история прокладывает себе дорогу к счастью.
  • Мировая премьера:7 сентября 2014 ТЕХ.ДАННЫЕ: Качество: HDRip Формат: AVI Видео кодек: XviD Аудио кодек: AC3 Видео: XviD, 720x384 (1.875), 1298 kbps, 24 fps, 0,185 bpp Аудио: AC3 / 5.1 / 48 kHz / 448 kbps / 16 bit

    Код:

    GeneralComplete name                            : D:\Торенты\Samba.2014.D.HDRip.aviFormat                                   : AVIFormat/Info                              : Audio Video InterleaveFile size                                : 1.46 GiBDuration                                 : 1h 58mnOverall bit rate                         : 1 755 KbpsWriting application                      : VirtualDubMod 1.5.10.3 | www.virtualdub-fr.org || (build 2550/release)Writing library                          : VirtualDubMod build 2550/release

    VideoID                                       : 0Format                                   : MPEG-4 VisualFormat profile                           : Advanced [email protected] settings, BVOP                    : 2Format settings, QPel                    : NoFormat settings, GMC                     : No warppointsFormat settings, Matrix                  : Default (MPEG)Muxing mode                              : Packed bitstreamCodec ID                                 : XVIDCodec ID/Hint                            : XviDDuration                                 : 1h 58mnBit rate                                 :  1298KbpsWidth                                    : 720 pixelsHeight                                   : 384 pixelsDisplay aspect ratio                     : 1.875Frame rate                               : 24.000 fpsColor space                              : YUVChroma subsampling                       : 4:2:0Bit depth                                : 8 bitsScan type                                : ProgressiveCompression mode                         : LossyBits/(Pixel*Frame)                       : 0.185Stream size                              : 1.02 GiB (70%)Writing library                          : XviD 73

    AudioID                                       : 1Format                                   : AC-3Format/Info                              : Audio Coding 3Mode extension                           : CM (complete main)Codec ID                                 : 2000Duration                                 : 1h 58mnBit rate mode                            : ConstantBit rate                                 : 448 KbpsChannel(s)                               : 6 channelsChannel positions                        : Front: L C R, Side: L R, LFESampling rate                            : 48.0 KHzBit depth                                : 16 bitsCompression mode                         : LossyStream size                              : 381 MiB (26%)Alignment                                : Split accross interleaves

    Скриншоты: © Оформление by Ворон
  • Скачать Самба через торрент http://pic.pb.wtf/images/6/ordi9.jpg Скачать фильм Самба через торрент бесплантно в хорошем качестве Е:Самба - сенегалец, живущий во Франции десять лет, но неудачи все еще преследуют его - он не может устроиться на хорошее место работы. ... 2015-08-24 08:21 9 10 34

    Loading...

    Loading...

    Рекламный пират

    29-03-2015 11:10 Самба Скачать торрент  

    Хороший фильм. Печальный, как и сама жизнь. Комедии, как таковой, нет, зато есть светлая грусть. Сильнейший актерский состав. Большое спасибо!

    24-08-2015 11:12 Самба Скачать торрент  

    Фильм действительно хороший. Заставляет задуматься о жизни.

    24-08-2015 14:53 Самба Скачать торрент  

    спасибо

    24-08-2015 17:21 Самба Скачать торрент  

    Спасибо за кино, очень кино понравилось :film:

    24-08-2015 19:59 Самба Скачать торрент  

    значит советуете? глянем

    12-03-2017 18:13 Самба Скачать торрент  

    неплохо, но грусноват!

    Дорогой пользователь! Огромная просьба, поблагодарите релизера, оцените раздачу и оставьте свои комментарий, если Вы скачали Самба через торрент бесплатно! Внесите свою лепту в развитие PiratBit!

    Комментировать посты могут только пользователи прошедшие не сложную регистрацию

    Самба через торрент Скачать бесплатно Самба Самба скачать торрент Самба смотреть онлайн Cкачать фильм Самба бесплатно Самба скачать торрент в хорошем качестве Самба смотреть онлайн бесплатно в хорошем качестве

    Вы не можете начинать темыВы не можете отвечать на сообщенияВы не можете редактировать свои сообщенияВы не можете удалять свои сообщенияВы не можете голосовать в опросахВы не можете прикреплять файлы к сообщениямВы можете скачивать файлы

    " / Samba [2014 / , / BDRip 1080p] DUB+SUB ()" - Rusbitor.ru

    www.rusbitor.ru

    : 2014: : Quad Productions, Ten Films, Gaumont: , : 01:58:51: []C:

    :

    ,

    :

    , , , , , , , ,

    , , . , . , , . , . .

    19 2015, Top Film Distribution

    : BDRip 1080p: MKV : x264 : AC3: 1920x1038 (1.85:1) / AVC [email protected] / 23.976 fps / 12.8 Mbps avg, 0.267 bit/pixel: 48 KHz / AC3, 3/2 (L,C,R,l,r) + LFE ch / 448 Kbps - DUB Russian: 48 KHz / AC3, 3/2 (L,C,R,l,r) + LFE ch / 640 Kbps - FrenchC:

    <img src="http://rupix.org/images/14423440169982156893.jpg" alt="http://rupix.org/images/14423440169982156893.jpg" title="http://rupix.org/images/14423440169982156893.jpg" /><br /> <br /> <img src="http://rupix.org/images/88985048093108863973.jpg" alt="http://rupix.org/images/88985048093108863973.jpg" title="http://rupix.org/images/88985048093108863973.jpg" /><br /> <br /> <img src="http://rupix.org/images/10742774707413636360.jpg" alt="http://rupix.org/images/10742774707413636360.jpg" title="http://rupix.org/images/10742774707413636360.jpg" /><br /> <br /> <img src="http://rupix.org/images/58520988447839626240.jpg" alt="http://rupix.org/images/58520988447839626240.jpg" title="http://rupix.org/images/58520988447839626240.jpg" /><br /> <br /> <img src="http://rupix.org/images/81437702887964119850.jpg" alt="http://rupix.org/images/81437702887964119850.jpg" title="http://rupix.org/images/81437702887964119850.jpg" />

    Media Info

    Samba.2014.D.BDRip.1080p.mkv<br /> Format : Matroska<br /> Format version : Version 4 / Version 2<br /> File size : 11.8 GiB<br /> Duration : 1h 58mn<br /> Overall bit rate : 14.2 Mbps<br /> Encoded date : UTC 2015-03-28 08:16:14<br /> Writing application : mkvmerge v7.7.0 ('Six Voices') 32bit built on Feb 28 2015 23:23:00<br /> Writing library : libebml v1.3.1 + libmatroska v1.4.2<br /> _STATISTICS_WRITING_APP : mkvmerge v7.7.0 ('Six Voices') 32bit built on Feb 28 2015 23:23:00<br /> _STATISTICS_WRITING_DATE_UTC : 2015-03-28 08:16:14<br /> _STATISTICS_TAGS : BPS DURATION NUMBER_OF_FRAMES NUMBER_OF_BYTES<br /> DURATION : 01:58:51.104000000<br /> NUMBER_OF_FRAMES : 222847<br /> NUMBER_OF_BYTES : 399341824<br /> <br /> Video<br /> ID : 1<br /> Format : AVC<br /> Format/Info : Advanced Video Codec<br /> Format profile : [email protected]<br /> Format settings, CABAC : Yes<br /> Format settings, ReFrames : 4 frames<br /> Codec ID : V_MPEG4/ISO/AVC<br /> Duration : 1h 58mn<br /> Bit rate : 12.8 Mbps<br /> Width : 1 920 pixels<br /> Height : 1 038 pixels<br /> Display aspect ratio : 1.85:1<br /> Frame rate mode : Constant<br /> Frame rate : 24.000 fps<br /> Color space : YUV<br /> Chroma subsampling : 4:2:0<br /> Bit depth : 8 bits<br /> Scan type : Progressive<br /> Bits/(Pixel*Frame) : 0.267<br /> Stream size : 10.6 GiB (90%)<br /> Title : Samba.2014.D.BDRip.1080p.ELEKTRI4KA.uniongang.tv [3imeMachi9e]<br /> Writing library : x264 core 146 r2538 121396c<br /> <br /> Language : French<br /> Default : Yes<br /> Forced : No<br /> _STATISTICS_WRITING_APP : mkvmerge v7.7.0 ('Six Voices') 32bit built on Feb 28 2015 23:23:00<br /> _STATISTICS_WRITING_DATE_UTC : 2015-03-28 08:16:14<br /> _STATISTICS_TAGS : BPS DURATION NUMBER_OF_FRAMES NUMBER_OF_BYTES<br /> DURATION : 01:58:51.000000000<br /> NUMBER_OF_FRAMES : 171144<br /> NUMBER_OF_BYTES : 11654169271<br /> <br /> Audio #1<br /> ID : 2<br /> Format : AC-3<br /> Format/Info : Audio Coding 3<br /> Mode extension : CM (complete main)<br /> Format settings, Endianness : Big<br /> Codec ID : A_AC3<br /> Duration : 1h 58mn<br /> Bit rate mode : Constant<br /> Bit rate : 448 Kbps<br /> Channel(s) : 6 channels<br /> Channel positions : Front: L C R, Side: L R, LFE<br /> Sampling rate : 48.0 KHz<br /> Bit depth : 16 bits<br /> Compression mode : Lossy<br /> Stream size : 381 MiB (3%)<br /> Title : Samba.2014.D.BDRip.1080p.ELEKTRI4KA.uniongang.tv [3imeMachi9e]<br /> Language : Russian<br /> Default : Yes<br /> Forced : No<br /> <br /> Audio #2<br /> ID : 3<br /> Format : AC-3<br /> Format/Info : Audio Coding 3<br /> Mode extension : CM (complete main)<br /> Format settings, Endianness : Big<br /> Codec ID : A_AC3<br /> Duration : 1h 58mn<br /> Bit rate mode : Constant<br /> Bit rate : 640 Kbps<br /> Channel(s) : 6 channels<br /> Channel positions : Front: L C R, Side: L R, LFE<br /> Sampling rate : 48.0 KHz<br /> Bit depth : 16 bits<br /> Compression mode : Lossy<br /> Stream size : 544 MiB (5%)<br /> Title : Samba.2014.D.BDRip.1080p.ELEKTRI4KA.uniongang.tv [3imeMachi9e]<br /> Language : French<br /> Default : No<br /> Forced : No<br /> <br /> Text<br /> ID : 4<br /> Format : UTF-8<br /> Codec ID : S_TEXT/UTF8<br /> Codec ID/Info : UTF-8 Plain Text<br /> Title : SDH<br /> Language : French<br /> Default : No<br /> Forced : No<br /> <br /> Menu<br /> 00:00:00.000 : en:00:00:00.000<br /> 00:11:12.958 : en:00:11:12.958<br /> 00:19:54.833 : en:00:19:54.833<br /> 00:31:40.417 : en:00:31:40.417<br /> 00:40:49.750 : en:00:40:49.750<br /> 00:53:26.500 : en:00:53:26.500<br /> 01:01:21.208 : en:01:01:21.208<br /> 01:12:46.958 : en:01:12:46.958<br /> 01:23:59.667 : en:01:23:59.667<br /> 01:33:05.542 : en:01:33:05.542<br /> 01:42:50.917 : en:01:42:50.917<br /> 01:52:51.625 : en:01:52:51.625

    / Samba [2014 / , / BDRip 1080p] DUB+SUB () . .

    , / Samba [2014 / , / BDRip 1080p] DUB+SUB (). .

    , , , , .

    C / Samba [2014 / , / BDRip 1080p] DUB+SUB ()

    ...

       2015-03-31 20:22:14  11.76 GB (12,626,123,669 )  
           1  
       

    1 | 1

     0  
     2 (a)  .torrent
      :     √     HD  

    / Samba [2014 / , / BDRip 1080p] DUB+SUB (), " ".

    Скачать торрент Самба / Samba (2014) BDRip 1080p

    Информация о фильмеНазвание: СамбаОригинальное название: SambaГод выхода: 2014Жанр: драма, комедияРежиссер: Оливье Накаш, Эрик ТоледаноВ ролях: Омар Си, Шарлотта Генсбур, Тахар Рахим, Изиа Ижлен, Исака Савадого, Элен Венсан, Янгар Фолл, Кристиана Милле, Жаклин Жеаннеф, Лия Кебеде

    О фильме: Самба — сенегалец, живущий во Франции десять лет, но неудачи все еще преследуют его — он не может устроиться на хорошее место работы. Элис — руководитель высшего звена, буквально «сгорела» на работе. Самба всеми силами пытается получить документы, чтобы трудоустроиться, а Алиса ищет спасения от пустоты собственной жизни. Каждый из них ищет выход из сложившегося тупика, пока в один прекрасный день их судьбы не пересекаются. Между смехом и слезами их история прокладывает себе дорогу к счастью.

    Выпущено: Gaumont, Broad Green PicturesПродолжительность: 01:58:20Перевод: Дублированный (R5)

    ФайлКодек: x264Качество: BDRip (источник: Blu-ray Disc)Видео: 1920x1040 (1,85:1), 24.000 fps (True24p), 8295 kbpsАудио #1: AC-3, 6 ch, 448 kbps (Rus)Аудио #2: AC-3, 6 ch, 640 kbps (Fre)Субтитры: АнглийскиеСкачать: сэмпл

    Скриншоты

    MI

    General Unique ID : 228173106126959538307470198934736704759 (0xABA88AB0BE116208BF9845E106EB94F7) Complete name : D:Samba.2014.BDRip.1080p.Rus.Fre.mkv Format : Matroska Format version : Version 2 File size : 7.75 GiB Duration : 1h 58mn Overall bit rate : 9 379 Kbps Movie name : Самба / Samba (2014) Encoded date : UTC 2015-06-12 15:24:37 Writing application : mkvmerge v5.8.0 ('No Sleep / Pillow') built on Sep 2 2012 15:37:04 Writing library : libebml v1.2.3 + libmatroska v1.3.0 Attachements : cover.png / logfile.log

    Video ID : 1 Format : AVC Format/Info : Advanced Video Codec Format profile : [email protected] Format settings, CABAC : Yes Format settings, ReFrames : 4 frames Codec ID : V_MPEG4/ISO/AVC Duration : 1h 58mn Bit rate : 8 294 Kbps Width : 1 920 pixels Height : 1 040 pixels Display aspect ratio : 1.85:1 Frame rate mode : Constant Frame rate : 24.000 fps Color space : YUV Chroma subsampling : 4:2:0 Bit depth : 8 bits Scan type : Progressive Bits/(Pixel*Frame) : 0.173 Stream size : 6.70 GiB (86%) Title : Самба / Samba (2014) Writing library : x264 core 146 r0+2586 e393126 t_mod_Custom [[email protected] X86_64] Encoding settings : cabac=1 / ref=4 / deblock=1:-3:-3 / analyse=0x3:0x133 / me=esa / subme=10 / psy=1 / fade_compensate=0.00 / psy_rd=1.05:0.00 / mixed_ref=1 / me_range=32 / chroma_me=1 / trellis=2 / 8x8dct=1 / cqm=0 / deadzone=21,11 / fast_pskip=0 / chroma_qp_offset=-2 / threads=12 / lookahead_threads=3 / sliced_threads=0 / nr=0 / decimate=1 / interlaced=0 / bluray_compat=0 / constrained_intra=0 / fgo=0 / bframes=10 / b_pyramid=2 / b_adapt=2 / b_bias=0 / direct=3 / weightb=1 / open_gop=0 / weightp=2 / keyint=240 / keyint_min=24 / scenecut=40 / intra_refresh=0 / rc=2pass / mbtree=0 / bitrate=8294 / ratetol=1.0 / qcomp=0.70 / qpmin=0:0:0 / qpmax=69:69:69 / qpstep=4 / cplxblur=20.0 / qblur=0.5 / ip_ratio=1.40 / pb_ratio=1.30 / aq=1:0.70 / aq-sensitivity=10.00 / aq-factor=1.00:1.00:1.00 / aq2=0 / aq3=0 Language : French Default : Yes Forced : No

    Audio #1 ID : 2 Format : AC-3 Format/Info : Audio Coding 3 Mode extension : CM (complete main) Format settings, Endianness : Big Codec ID : A_AC3 Duration : 1h 58mn Bit rate mode : Constant Bit rate : 448 Kbps Channel(s) : 6 channels Channel positions : Front: L C R, Side: L R, LFE Sampling rate : 48.0 KHz Bit depth : 16 bits Compression mode : Lossy Stream size : 379 MiB (5%) Title : Дубляж, R5 Language : Russian Default : Yes Forced : No

    Audio #2 ID : 3 Format : AC-3 Format/Info : Audio Coding 3 Mode extension : CM (complete main) Format settings, Endianness : Big Codec ID : A_AC3 Duration : 1h 58mn Bit rate mode : Constant Bit rate : 640 Kbps Channel(s) : 6 channels Channel positions : Front: L C R, Side: L R, LFE Sampling rate : 48.0 KHz Bit depth : 16 bits Compression mode : Lossy Stream size : 542 MiB (7%) Title : French Language : French Default : No Forced : No

    Text ID : 4 Format : UTF-8 Codec ID : S_TEXT/UTF8 Codec ID/Info : UTF-8 Plain Text Title : English Language : English Default : No Forced : No

    Menu 00:00:00.000 : :Chapter 01 00:11:13.375 : :Chapter 02 00:19:55.250 : :Chapter 03 00:28:05.916 : :Chapter 04 00:40:49.166 : :Chapter 05 00:48:00.541 : :Chapter 06 00:58:25.333 : :Chapter 07 01:07:59.375 : :Chapter 08 01:18:09.041 : :Chapter 09 01:29:50.250 : :Chapter 10 01:40:58.958 : :Chapter 11 01:51:42.583 : :Chapter 12

    x264

    x264 [info]: frame I:1129 Avg QP:15.92 size:183671 x264 [info]: frame P:40332 Avg QP:18.38 size: 78954 x264 [info]: frame B:128963 Avg QP:20.80 size: 30737 x264 [info]: consecutive B-frames: 3.1% 4.5% 13.9% 12.6% 7.7% 55.9% 1.7% 0.2% 0.2% 0.1% 0.1%

    krutor.org

    Скачать фильм Самба через торрент в хорошем качестве бесплатно 1080p

    GeneralUnique ID : 175251867780091485906003232920355029822 (0x83D84830F0564A28AA799D1FF561433E)Complete name : D:\Торенты\Samba.2014.D.BDRip.1080p.mkvFormat : MatroskaFormat version : Version 4 / Version 2File size : 11.8 GiBDuration : 1h 58mnOverall bit rate : 14.2 MbpsMovie name : Samba.2014.D.BDRip.1080p.ELEKTRI4KA.uniongang.tv [3imeMachi9e]Encoded date : UTC 2015-03-28 08:16:14Writing application : mkvmerge v7.7.0 ('Six Voices') 32bit built on Feb 28 2015 23:23:00Writing library : libebml v1.3.1 + libmatroska v1.4.2

    VideoID : 1Format : AVCFormat/Info : Advanced Video CodecFormat profile : [email protected] settings, CABAC : YesFormat settings, ReFrames : 4 framesCodec ID : V_MPEG4/ISO/AVCDuration : 1h 58mnBit rate : 12.8 MbpsWidth : 1 920 pixelsHeight : 1 038 pixelsDisplay aspect ratio : 1.850Frame rate : 24.000 fpsColor space : YUVChroma subsampling : 4:2:0Bit depth : 8 bitsScan type : ProgressiveBits/(Pixel*Frame) : 0.267Stream size : 10.6 GiB (90%)Title : Samba.2014.D.BDRip.1080p.ELEKTRI4KA.uniongang.tv [3imeMachi9e]Writing library : x264 core 146 r2538 121396cEncoding settings : cabac=1 / ref=4 / deblock=1:-3:-3 / analyse=0x3:0x133 / me=umh / subme=10 / psy=1 / psy_rd=1.05:0.00 / mixed_ref=1 / me_range=16 / chroma_me=1 / trellis=2 / 8x8dct=1 / cqm=0 / deadzone=21,11 / fast_pskip=0 / chroma_qp_offset=-2 / threads=12 / lookahead_threads=2 / sliced_threads=0 / nr=0 / decimate=0 / interlaced=0 / bluray_compat=0 / constrained_intra=0 / bframes=9 / b_pyramid=2 / b_adapt=2 / b_bias=0 / direct=3 / weightb=1 / open_gop=0 / weightp=2 / keyint=250 / keyint_min=24 / scenecut=40 / intra_refresh=0 / rc=crf / mbtree=0 / crf=17.0 / qcomp=0.60 / qpmin=0 / qpmax=69 / qpstep=4 / ip_ratio=1.40 / pb_ratio=1.30 / aq=3:0.70 / zones=783,1211,crf=11/11627,11691,crf=11/32341,32413,crf=11/39263,39470,crf=13/39671,39789,crf=13/40446,40824,crf=11/84988,85122,crf=13/85296,85415,crf=13/85685,85859,crf=13/86332,86432,crf=13/88016,88103,crf=13/88259,88356,crf=13/88761,88798,crf=13/88861,88902,crf=13/105777,105939,crf=11/106093,106159,crf=11/106263,106398,crf=11/106527,106799,crf=11/107779,107880,crf=11/107960,108011,crf=13/108068,108217,crf=13/108316,108466,crf=13/108559,108690,crf=13/108788,109015,crf=13/109083,109144,crf=13/110814,111068,crf=13Language : FrenchDefault : YesForced : No

    Audio #1ID : 2Format : AC-3Format/Info : Audio Coding 3Mode extension : CM (complete main)Codec ID : A_AC3Duration : 1h 58mnBit rate mode : ConstantBit rate : 448 KbpsChannel(s) : 6 channelsChannel positions : Front: L C R, Side: L R, LFESampling rate : 48.0 KHzBit depth : 16 bitsCompression mode : LossyStream size : 381 MiB (3%)Title : Samba.2014.D.BDRip.1080p.ELEKTRI4KA.uniongang.tv [3imeMachi9e]Language : RussianDefault : YesForced : No

    Audio #2ID : 3Format : AC-3Format/Info : Audio Coding 3Mode extension : CM (complete main)Codec ID : A_AC3Duration : 1h 58mnBit rate mode : ConstantBit rate : 640 KbpsChannel(s) : 6 channelsChannel positions : Front: L C R, Side: L R, LFESampling rate : 48.0 KHzBit depth : 16 bitsCompression mode : LossyStream size : 544 MiB (5%)Title : Samba.2014.D.BDRip.1080p.ELEKTRI4KA.uniongang.tv [3imeMachi9e]Language : FrenchDefault : NoForced : No

    TextID : 4Format : UTF-8Codec ID : S_TEXT/UTF8Codec ID/Info : UTF-8 Plain TextTitle : SDHLanguage : FrenchDefault : NoForced : No

    Menu00:00:00.000 : en:00:00:00.00000:11:12.958 : en:00:11:12.95800:19:54.833 : en:00:19:54.83300:31:40.417 : en:00:31:40.41700:40:49.750 : en:00:40:49.75000:53:26.500 : en:00:53:26.50001:01:21.208 : en:01:01:21.20801:12:46.958 : en:01:12:46.95801:23:59.667 : en:01:23:59.66701:33:05.542 : en:01:33:05.54201:42:50.917 : en:01:42:50.91701:52:51.625 : en:01:52:51.625

    piratbit.ru


    Смотрите также