Руби спаркс скачать торрент в хорошем качестве


Скачать фильм Руби Спаркс (2012) через торрент

27 января 2016 08:55 Руби Спаркс / Ruby Sparks (2012) BDRip 720p от Leonardo and Scarabey .torrent   [Информация о файле (нажмите для просмотра)] Перевод: Профессиональный (полное дублирование) ЛицензияФормат: MKVВидео кодек: MPEG-4 AVC Аудио кодек: AC3Видео: 1280x694 (1.85:1) at 23.976 fps, AVC at 7341 kbps avg, 0.345 bit/pixelАудио: 48 kHz, AC3 Dolby Digital, 3/2 (L,C,R,l,r) + LFE ch, 448 kbps avgСубтитры: Русские, английские 5,78 Gb 27 3 27 января 2016 08:55 Руби Спаркс / Ruby Sparks (2012) BDRip-AVC от HQCLUB | Лицензия .torrent   [Информация о файле (нажмите для просмотра)] Перевод: Профессиональный (полное дублирование) Blu-Ray EUR + Оригинальная звуковая дорожкаСубтитры: Русские (форсированные, полные), украинские (форсированные, полные), английские (полные, полные SDH)(*.srt, отключаемые)Формат: MKVКачество: BDRip-AVC (источник:Видео: 1024x554 (1,85:1), 23.976 fps, [email protected], 2pass, ~2099 kbps avg, 0.15 bit/pixelАудио #1: 48 kHz, AC3, 3/2 (L,C,R,l,r) + LFE ch, ~448.00 kbps avg (RUS) Blu-Ray EURАудио #2: 48 kHz, AC3, 3/2 (L,C,R,l,r) + LFE ch, ~448.00 kbps avg (ENG)Видео: Идентификатор : 1 Формат : AVC Формат/Информация : Advanced Video Codec Профиль формата : [email protected] Параметр CABAC формата : Да Параметр ReFrames формата : 12 кадров Идентификатор кодека : V_MPEG4/ISO/AVC Продолжительность : 1 ч. 44 м. Битрейт : 2099 Кбит/сек Ширина : 1024 пикселя Высота : 554 пикселя Соотношение сторон : 1,85:1 Режим частоты кадров : Постоянный Частота кадров : 23,976 кадра/сек Цветовое пространство : YUV Субдискретизация насыщенности : 4:2:0 Битовая глубина : 8 бит Тип развёртки : Прогрессивная Бит/(Пиксели*Кадры) : 0.154 Размер потока : 1,48 Гбайт (68%) Заголовок : Руби Спаркс / Ruby Sparks (2012) BDRip-AVC by MOSFET | HQCLUB.NET Библиотека кодирования : x264 core 129 r2245 bc13772 Настройки программы : cabac=1 / ref=12 / deblock=1:-2:-1 / analyse=0x3:0x113 / me=esa / subme=10 / psy=1 / psy_rd=1.00:0.00 / mixed_ref=1 / me_range=48 / chroma_me=1 / trellis=2 / 8x8dct=1 / cqm=0 / deadzone=21,11 / fast_pskip=0 / chroma_qp_offset=-2 / threads=12 / lookahead_threads=2 / sliced_threads=0 / nr=0 / decimate=1 / interlaced=0 / bluray_compat=0 / constrained_intra=0 / bframes=13 / b_pyramid=2 / b_adapt=2 / b_bias=0 / direct=3 / weightb=1 / open_gop=0 / weightp=2 / keyint=240 / keyint_min=23 / scenecut=40 / intra_refresh=0 / rc_lookahead=50 / rc=2pass / mbtree=1 / bitrate=2099 / ratetol=1.0 / qcomp=0.70 / qpmin=0 / qpmax=69 / qpstep=4 / cplxblur=20.0 / qblur=0.5 / vbv_maxrate=50000 / vbv_bufsize=62500 / nal_hrd=none / ip_ratio=1.40 / aq=1:0.80 Язык : English Default : Да Forced : НетАудио #1: Идентификатор : 2 Формат : AC-3 Формат/Информация : Audio Coding 3 Расширение режима : CM (complete main) Параметр Endianness формата : Big Идентификатор кодека : A_AC3 Продолжительность : 1 ч. 44 м. Вид битрейта : Постоянный Битрейт : 448 Кбит/сек Каналы : 6 каналов Расположение каналов : Front: L C R, Side: L R, LFE Частота : 48,0 КГц Битовая глубина : 16 бит Метод сжатия : С потерями Размер потока : 334 Мбайт (15%) Заголовок : Профессиональный (полное дублирование) Blu-ray EUR Язык : Russian Default : Да Forced : НетАудио #2: Идентификатор : 3 Формат : AC-3 Формат/Информация : Audio Coding 3 Расширение режима : CM (complete main) Параметр Endianness формата : Big Идентификатор кодека : A_AC3 Продолжительность : 1 ч. 44 м. Вид битрейта : Постоянный Битрейт : 448 Кбит/сек Каналы : 6 каналов Расположение каналов : Front: L C R, Side: L R, LFE Частота : 48,0 КГц Битовая глубина : 16 бит Метод сжатия : С потерями Размер потока : 334 Мбайт (15%) Заголовок : Оригинальная звуковая дорожка Язык : English Default : Нет Forced : Нет 2,18 Gb 36 1 27 января 2016 08:55 Руби Спаркс / Ruby Sparks (2012) BDRip 1080p от DeathN2 .torrent   [Информация о файле (нажмите для просмотра)] Перевод: |Дубляж, Blu-ray EUR|Кодек: MPEG-4 AVCКачество: BDRip (1080p)Видео: 13.4 Мбит/с, 1920x1040, 23.976 кадр/сЗвук: Русский (DTS, 6 ch, 768 Кбит/с), английский (DTS, 6 ch, 1536 Кбит/с)Субтитры: Russian, Russian (forced), English (SDH) 11,4 Gb 12 4 27 января 2016 08:54 Руби Спаркс / Ruby Sparks (2012) BDRip 720p от HDClub .torrent   [Информация о файле (нажмите для просмотра)] Перевод: |Дубляж, Blu-ray EUR|Кодек: [email protected]Качество: BDRip (720p)Видео: 1280x694 at 23.976 fps, crf, ~9354 kbps avgЗвук: Аудио#1: Russian: 48 kHz, DTS, 3/2 (L,C,R,l,r) + LFE ch, ~768 kbps avg |Дубляж, Blu-ray EUR| Аудио#2: English: 48 kHz, AC3, 3/2 (L,C,R,l,r) + LFE ch, ~640 kbps avgСубтитры: Russian, Russian (forced), Ukrainian, Ukrainian (forced), English (SDH)Видео: Идентификатор : 1 Формат : AVC Формат/Информация : Advanced Video Codec Профиль формата : [email protected] Параметр CABAC формата : Да Параметр ReFrames формата : 9 кадров Идентификатор кодека : V_MPEG4/ISO/AVC Продолжительность : 1 ч. 44 м. Битрейт : 9354 Кбит/сек Ширина : 1280 пикселей Высота : 694 пикселя Соотношение сторон : 1,85:1 Режим частоты кадров : Постоянный Частота кадров : 23,976 кадра/сек Цветовое пространство : YUV Субдискретизация насыщенности : 4:2:0 Битовая глубина : 8 бит Тип развёртки : Прогрессивная Бит/(Пиксели*Кадры) : 0.439 Размер потока : 6,80 Гбайт (85%) Заголовок : EbP Библиотека кодирования : x264 core 128 r2216 198a7ea Настройки программы : cabac=1 / ref=9 / deblock=1:-3:-3 / analyse=0x3:0x113 / me=tesa / subme=9 / psy=1 / psy_rd=1.20:0.00 / mixed_ref=1 / me_range=16 / chroma_me=1 / trellis=2 / 8x8dct=1 / cqm=0 / deadzone=21,11 / fast_pskip=0 / chroma_qp_offset=-2 / threads=12 / lookahead_threads=2 / sliced_threads=0 / nr=0 / decimate=0 / interlaced=0 / bluray_compat=0 / constrained_intra=0 / bframes=7 / b_pyramid=2 / b_adapt=2 / b_bias=0 / direct=3 / weightb=1 / open_gop=0 / weightp=2 / keyint=250 / keyint_min=23 / scenecut=40 / intra_refresh=0 / rc=crf / mbtree=0 / crf=16.0 / qcomp=0.55 / qpmin=0 / qpmax=69 / qpstep=4 / ip_ratio=1.40 / pb_ratio=1.30 / aq=1:0.55 Язык : English Default : Да Forced : Нет Коэффициенты матрицы : BT.709Аудио #1: Идентификатор : 2 Формат : DTS Формат/Информация : Digital Theater Systems Режим : 16 Параметр Endianness формата : Big Идентификатор кодека : A_DTS Продолжительность : 1 ч. 44 м. Вид битрейта : Постоянный Битрейт : 768 Кбит/сек Каналы : 6 каналов Расположение каналов : Front: L C R, Side: L R, LFE Частота : 48,0 КГц Битовая глубина : 24 бит Метод сжатия : С потерями Размер потока : 572 Мбайт (7%) Заголовок : DTS 5.1 @ 768 Kbps - Дубляж, Blu-ray EUR Язык : Russian Default : Да Forced : НетАудио #2: Идентификатор : 3 Формат : AC-3 Формат/Информация : Audio Coding 3 Расширение режима : CM (complete main) Параметр Endianness формата : Big Идентификатор кодека : A_AC3 Продолжительность : 1 ч. 44 м. Вид битрейта : Постоянный Битрейт : 640 Кбит/сек Каналы : 6 каналов Расположение каналов : Front: L C R, Side: L R, LFE Частота : 48,0 КГц Битовая глубина : 16 бит Метод сжатия : С потерями Размер потока : 477 Мбайт (6%) Заголовок : AC3 5.1 @ 640Kbps Язык : English Default : Нет Forced : Нет 7,98 Gb 9 1 27 января 2016 08:54 Руби Спаркс / Ruby Sparks (2012) BDRip от HQCLUB | Лицензия .torrent   [Информация о файле (нажмите для просмотра)] Перевод: Профессиональный (полное дублирование) + Оригинал (английский)Субтитры: русские (полные, форсированные), английские (SDH), украинские (форсированные)Формат: AVIКачество: BDRip (источник:Видео: 704x384 (1.83:1), 23.976 fps, XviD build 65 ~2100 kbps avg, 0.32 bit/pixelАудио #1: 48 kHz, AC3 Dolby Digital, 3/2 (L,C,R,l,r) + LFE ch, ~448 kbps avg (RUS)Аудио #2: 48 kHz, AC3 Dolby Digital, 3/2 (L,C,R,l,r) + LFE ch, ~448 kbps avg (ENG) 2,18 Gb 12 1 27 января 2016 08:54 Руби Спаркс / Ruby Sparks (2012) BDRip от HELLYWOOD .torrent   [Информация о файле (нажмите для просмотра)] Перевод: Профессиональный (полное дублирование) + Оригинальная звуковая дорожкаСубтитры: Русские[Full, Forced], Английские [SDH]Формат: AVIКачество: BDRip (Исходник: HDClub/Blu-ray Disc [EUR]/1080p)Видео: 704x384 (1.83:1), 23.976 fps, XviD build 65 ~2101 kbps avg, 0.32 bit/pixelАудио #1: 48 kHz, AC3 Dolby Digital, 3/2 (L,C,R,l,r) + LFE ch, ~448 kbps|DUB|Аудио #2: 48 kHz, AC3 Dolby Digital, 3/2 (L,C,R,l,r) + LFE ch, ~448 kbps|ENG| 2,19 Gb 11 5 27 января 2016 08:54 Руби Спаркс / Ruby Sparks (2012) BDRip 1080p от NoLimits-Team .torrent   [Информация о файле (нажмите для просмотра)] Перевод: ДублированныйСубтитры: Русские | ПолныеКачество: BDRip 1080p (исходник Blu-Ray Remux)Видео: 1920x1038, 5621 Кбит/сек, 23,976 кадр/сек, AVC, x264, [email protected], 1.85:1, 0.118 Бит/[Пиксели*Кадры], 2passАудио: AC-3, 384 Кбит/сек, 6 канала(ов), 48,0 КГц 4,37 Gb 23 3 27 января 2016 08:54 Руби Спаркс / Ruby Sparks (2012) BDRip 720p от NoLimits-Team .torrent   [Информация о файле (нажмите для просмотра)] Перевод: ДублированныйСубтитры: Русские | ПолныеКачество: BDRip 720p (исходник Blu-Ray Remux)Видео: 1280x692, 2623 Кбит/сек, 23,976 кадр/сек, AVC, x264, [email protected], 1.85:1, 0.124 Бит/[Пиксели*Кадры], 2passАудио: AC-3, 384 Кбит/сек, 6 канала(ов), 48,0 КГц 2,19 Gb 10 1 27 января 2016 08:54 Руби Спаркс / Ruby Sparks (2012) HDRip от -=HD-NET=- | КПК | Лицензия .torrent   [Информация о файле (нажмите для просмотра)] Перевод: Профессиональный (полное дублирование) -ЛицензияКодек: х264Качество: HDRip | КПКВидео: 480х256, 23,976 fps, 406 Кбит/сЗвук: ААС LC, 2 ch, 128 Кбит/с 399,23 Mb 6 5 27 января 2016 08:54 Руби Спаркс / Ruby Sparks (2012) BDRip-AVC | iPad .torrent   [Информация о файле (нажмите для просмотра)] Перевод: ДублированныйСубтитры: русскиеФормат: MP4 (контейнер m4v)Видео: AVC, 1024x560 (16:9) at 23.976 fps, AVC at 2187 kbps avg, 0.159 bit/pixelАудио: 48 kHz, AAC, 2ch, ~128 kbps | Russian | ДублированныйАудио: 48 kHz, AAC, 2ch, ~128 Kbps | English | Original 1,78 Gb 1 4 27 января 2016 08:54 Руби Спаркс / Ruby Sparks (2012) BDRip 720p от GYN | Лицензия .torrent   5,11 Gb 3 3 27 января 2016 08:54 Руби Спаркс / Ruby Sparks (2012) BDRip-AVC от potroks | D | Лицензия .torrent   [Информация о файле (нажмите для просмотра)] Перевод: Профессиональный (полное дублирование)Субтитры: Русские, английские (отключаемые)Качество: BDRip-AVC [Ruby Sparks 2012 1080p BluRay Remux AVC DTS-HD BluEvo]Формат: MKVВидео: H.264, 960x520 (16:9), 23,976 кадр/сек, 1628 Кбит/сек, 0.136 bit/pixelАудио: 48 kHz, AC3 Dolby Digital, 3/2 (L,C,R,l,r) + LFE ch, ~384.00 kbps avg 1,46 Gb 16 4 27 января 2016 08:54 Руби Спаркс / Ruby Sparks (2012) DVD5 сжатый | Лицензия .torrent   [Информация о файле (нажмите для просмотра)] Перевод: Профессиональный (полное дублирование)Качество: DVD5 (сжатый)Формат: DVD VideoВидео: MPEG2; PAL 16:9 (720x576)Аудио: Dolby AC3, 6 ch, 384 KbpsRussianСубтитры: русские, английские, датский, финские, итальянские, норвежские, шведские, эстонские, латвийские, литовские, украинскиеВидео: Идентификатор : 224 (0xE0) Формат : MPEG Video Версия формата : Version 2 Профиль формата : [email protected] Параметр BVOP формата : Да Параметр матрицы формата : Выборочная Продолжительность : 23 м. Вид битрейта : Переменный Битрейт : 5530 Кбит/сек Максимальный битрейт : 9800 Кбит/сек Ширина : 720 пикселей Высота : 576 пикселей Соотношение сторон : 16:9 Частота кадров : 25,000 кадров/сек Стандарт вещания : PAL Цветовое пространство : YUV Субдискретизация насыщенности : 4:2:0 Битовая глубина : 8 бит Тип развёртки : Чересстрочная Порядок развёртки : Верхнее поле первое Метод сжатия : С потерями Бит/(Пиксели*Кадры) : 0.533 Размер потока : 938 Мбайт (92%)Аудио: Идентификатор : 189 (0xBD)-131 (0x83) Формат : AC-3 Формат/Информация : Audio Coding 3 Расширение режима : CM (complete main) Режим смешивания : DVD-Video Продолжительность : 23 м. Вид битрейта : Постоянный Битрейт : 384 Кбит/сек Каналы : 6 каналов Расположение каналов : Front: L C R, Side: L R, LFE Частота : 48,0 КГц Битовая глубина : 16 бит Метод сжатия : С потерями Размер потока : 65,1 Мбайт (6%) 4,36 Gb 5 4 27 января 2016 08:54 Руби Спаркс / Ruby Sparks (2012) HDRip от Scarabey | D | Лицензия .torrent   [Информация о файле (нажмите для просмотра)] Перевод: Профессиональный (полное дублирование) [Лицензия]Субтитры: нетКачество: HDRipКонтейнер: AVIВидео: 624x336 (1.86:1), 23.976 fps, XviD build 50 ~860 kbps avg, 0.17 bit/pixelАудио: 48 kHz, MPEG Layer 3, 2 ch, ~128.00 kbps avg 743,26 Mb 12 1 27 января 2016 08:54 Руби Спаркс / Ruby Sparks (2012) HDRip от Scarabey | D | Лицензия .torrent   [Информация о файле (нажмите для просмотра)] Перевод: Профессиональный (полное дублирование) [Лицензия]Субтитры: нетКачество: HDRipКонтейнер: AVIВидео: 704x384 (1.83:1), 23.976 fps, XviD build 50 ~1537 kbps avg, 0.24 bit/pixelАудио: 48 kHz, AC3 Dolby Digital, 3/2 (L,C,R,l,r) + LFE ch, ~384.00 kbps avg 1,4 Gb 50 4

gig-torrent.net

Скачать фильм Руби Спаркс через торрент в хорошем качестве бесплатно 1080p

ОбщееУникальный идентификатор : 244963868846246774422281160437061265286 (0xB84A5335311DF088A7BBE810F4862786)Полное имя : D:ФильмыRuby.Sparks.2012.D.BDRip.1080p.KinoFan.TV.mkvФормат : MatroskaВерсия формата : Version 4 / Version 2Размер файла : 11,1 ГбайтПродолжительность : 1 ч. 44 м.Общий поток : 15,3 Мбит/секНазвание фильма : KinoFan.TVДата кодирования : UTC 2010-02-22 21:41:31Программа кодирования : mkvmerge v5.9.0 ('On The Loose') built on Dec 9 2012 15:37:01Библиотека кодирования : libebml v1.3.0 + libmatroska v1.4.0

ВидеоИдентификатор : 1Формат : AVCФормат/Информация : Advanced Video CodecПрофиль формата : [email protected]Параметр CABAC формата : ДаПараметр ReFrames формата : 4 кадраРежим смешивания : Header strippingИдентификатор кодека : V_MPEG4/ISO/AVCПродолжительность : 1 ч. 44 м.Битрейт : 13,4 Мбит/секШирина : 1920 пикселейВысота : 1040 пикселейСоотношение сторон : 16:9Частота кадров : 23,976 кадра/секЦветовое пространство : YUVСубдискретизация насыщенности : 4:2:0Битовая глубина : 8 битТип развёртки : ПрогрессивнаяБит/(Пиксели*Кадры) : 0.280Размер потока : 9,52 Гбайт (86%)Библиотека кодирования : x264 core 125 r2208 d9d2288Настройки программы : cabac=1 / ref=4 / deblock=1:-3:-3 / analyse=0x3:0x113 / me=umh / subme=10 / psy=1 / psy_rd=1.05:0.10 / mixed_ref=1 / me_range=48 / chroma_me=1 / trellis=2 / 8x8dct=1 / cqm=0 / deadzone=21,11 / fast_pskip=0 / chroma_qp_offset=-2 / threads=12 / lookahead_threads=2 / sliced_threads=0 / nr=0 / decimate=1 / interlaced=0 / bluray_compat=0 / constrained_intra=0 / bframes=6 / b_pyramid=2 / b_adapt=2 / b_bias=0 / direct=3 / weightb=1 / open_gop=0 / weightp=2 / keyint=250 / keyint_min=23 / scenecut=40 / intra_refresh=0 / rc_lookahead=40 / rc=2pass / mbtree=0 / bitrate=13414 / ratetol=2.0 / qcomp=0.70 / qpmin=0 / qpmax=69 / qpstep=4 / cplxblur=20.0 / qblur=0.5 / vbv_maxrate=40000 / vbv_bufsize=30000 / nal_hrd=none / ip_ratio=1.40 / pb_ratio=1.30 / aq=2:1.00Язык : EnglishDefault : ДаForced : Нет

Аудио #1Идентификатор : 2Формат : AC-3Формат/Информация : Audio Coding 3Расширение режима : CM (complete main)Режим смешивания : Header strippingИдентификатор кодека : A_AC3Продолжительность : 1 ч. 44 м.Вид битрейта : ПостоянныйБитрейт : 384 Кбит/секКаналы : 6 каналовРасположение каналов : Front: L C R, Side: L R, LFEЧастота : 48,0 КГцБитовая глубина : 16 битМетод сжатия : С потерямиРазмер потока : 286 Мбайт (3%)Заголовок : Dub R5Язык : RussianDefault : ДаForced : Да

Аудио #2Идентификатор : 3Формат : DTSФормат/Информация : Digital Theater SystemsРежим смешивания : Header strippingИдентификатор кодека : A_DTSПродолжительность : 1 ч. 44 м.Вид битрейта : ПостоянныйБитрейт : 1510 Кбит/секКаналы : 6 каналовРасположение каналов : Front: L C R, Side: L R, LFEЧастота : 48,0 КГцБитовая глубина : 24 битМетод сжатия : С потерямиЗадержка видео : 11 мс.Размер потока : 1,10 Гбайт (10%)Заголовок : DTS.1510.Kbps.EnglishЯзык : EnglishDefault : НетForced : Нет

ТекстИдентификатор : 4Формат : UTF-8Идентификатор кодека : S_TEXT/UTF8Идентификатор кодека/Информация : UTF-8 Plain TextЗаголовок : Russian (Full)Язык : RussianDefault : ДаForced : Нет

piratbit.ru

Скачать фильм Руби Спаркс через торрент в хорошем качестве бесплатно HDRip

Размер: 1.46 GB | Добавлен: 4 года 9 мес. назад | Торрент скачан:1336 раз
Реклама Дарим 3000 рублей за регистрацию, не упусти свой шанс получить шикарный бонус!!!

23-01-2013 17:16 Руби Спаркс Скачать торрент  

Руби Спаркс / Ruby Sparks

Год выпуска: 2012Страна: СШАЖанр: фэнтези, мелодрама, комедияПродолжительность: 01:44:06Перевод: Дубляж, ЛицензияТип релиза: Лицензия

Режиссер: Джонатан Дэйтон, Валери ФэрисПродюссер: Альберт Бергер, Рон Йеркса, Пол ДаноСценарий: Зои Казан

Мировой рейтинг IMDB 7.20 (20 193)

В ролях: Пол Дано, Зои Казан, Антонио Бандерас, Аннетт Бенинг, Стив Куган, Эллиот Гулд, Крис Мессина, Аасиф Мандви, Тони Тракс, Дебора Энн Уолл, Андрей Лёвин

Описание: Молодой, но уже успешный писатель переживает творческие и душевные муки: новый роман никак не выходит, музы все нет, да и вообще с девушками как-то не клеится. И вот, призвав на помощь остатки своей фантазии, Кэлвин придумывает себе девушку по имени Руби Спаркс — умницу, красавицу, спортсменку, короче говоря, идеал, а спустя неделю... обнаруживает этот идеал из плоти и крови на своем собственном диване. Уходить Руби явно не собирается, но вот кем она окажется — Галатеей или Белочкой?..

Качество: HDRipФормат: AVIВидео кодек: XviDАудио кодек: AC3Видео: 720x384 (1.88:1), 23.976 fps, XviD MPEG-4 ~1609 kbps avg, 0.24 bit/pixelАудио#1: 48 kHz, AC3 Dolby Digital, 3/2 (L,C,R,l,r) + LFE ch, ~384 kbps

Руби Спаркс скачать торрент

Скачать Руби Спаркс через торрент http://i52.fastpic.ru/big/2013/0123/dd/6a6974915bb4a6cf4e9ad63f795e1add.jpg Скачать фильм Руби Спаркс через торрент бесплантно в хорошем качестве Описание: Молодой, но уже успешный писатель переживает творческие и душевные муки: новый роман никак не выходит, музы все нет, да и вообще ... 2013-01-23 17:16 10 10 5

Loading...

Loading...

Рекламный пират

23-01-2013 19:03 Руби Спаркс Скачать торрент  

Жанр: фэнтези ??

23-01-2013 19:08 Руби Спаркс Скачать торрент  

stivens777 писал(а):

Жанр: фэнтези ??

Именно, это действительно жанр фэнтези.   http://piratbit.net/post/669975/#post_669975 оскорбление пользователей и команды трекера, выдал Messa-fan

24-01-2013 01:01 Руби Спаркс Скачать торрент  

Не плохой фильмец. Интересная задумка. Советую посмотреть.

Дорогой пользователь! Огромная просьба, поблагодарите релизера, оцените раздачу и оставьте свои комментарий, если Вы скачали Руби Спаркс через торрент бесплатно! Внесите свою лепту в развитие PiratBit!

Комментировать посты могут только пользователи прошедшие не сложную регистрацию

Руби Спаркс через торрент Скачать бесплатно Руби Спаркс Руби Спаркс скачать торрент Руби Спаркс смотреть онлайн Cкачать фильм Руби Спаркс бесплатно Руби Спаркс скачать торрент в хорошем качестве Руби Спаркс смотреть онлайн бесплатно в хорошем качестве

Вы не можете начинать темыВы не можете отвечать на сообщенияВы не можете редактировать свои сообщенияВы не можете удалять свои сообщенияВы не можете голосовать в опросахВы не можете прикреплять файлы к сообщениямВы можете скачивать файлы

piratbit.ru

Скачать фильм Руби Спаркс через торрент в хорошем качестве бесплатно 720p

ОбщееУникальный идентификатор : 219947561812597829513542587904754671800 (0xA5785C0B66F9973382BA5EF40AD760B8)Полное имя : E:Руби Спаркс.2012.BDRip.720p.mkvФормат : MatroskaВерсия формата : Version 2Размер файла : 7,70 ГбайтПродолжительность : 1 ч. 44 м.Общий поток : 10,6 Мбит/секНазвание фильма : IRONCLUBДата кодирования : UTC 2013-01-31 17:04:13Программа кодирования : mkvmerge v5.8.0 ('No Sleep / Pillow') built on Sep 2 2012 15:37:04Библиотека кодирования : libebml v1.2.3 + libmatroska v1.3.0

ВидеоИдентификатор : 1Формат : AVCФормат/Информация : Advanced Video CodecПрофиль формата : [email protected]Параметр CABAC формата : ДаПараметр ReFrames формата : 9 кадровИдентификатор кодека : V_MPEG4/ISO/AVCПродолжительность : 1 ч. 44 м.Битрейт : 9361 Кбит/секШирина : 1280 пикселейВысота : 694 пикселяСоотношение сторон : 1,85:1Режим частоты кадров : ПостоянныйЧастота кадров : 23,976 кадра/секЦветовое пространство : YUVСубдискретизация насыщенности : 4:2:0Битовая глубина : 8 битТип развёртки : ПрогрессивнаяБит/(Пиксели*Кадры) : 0.440Размер потока : 6,81 Гбайт (88%)Заголовок : Ruby Sparks 2012 BluRay 720p BluRay DD5.1 x264-EbPБиблиотека кодирования : x264 core 128 r2216 198a7eaНастройки программы : cabac=1 / ref=9 / deblock=1:-3:-3 / analyse=0x3:0x113 / me=tesa / subme=9 / psy=1 / psy_rd=1.20:0.00 / mixed_ref=1 / me_range=16 / chroma_me=1 / trellis=2 / 8x8dct=1 / cqm=0 / deadzone=21,11 / fast_pskip=0 / chroma_qp_offset=-2 / threads=12 / lookahead_threads=2 / sliced_threads=0 / nr=0 / decimate=0 / interlaced=0 / bluray_compat=0 / constrained_intra=0 / bframes=7 / b_pyramid=2 / b_adapt=2 / b_bias=0 / direct=3 / weightb=1 / open_gop=0 / weightp=2 / keyint=250 / keyint_min=23 / scenecut=40 / intra_refresh=0 / rc=crf / mbtree=0 / crf=16.0 / qcomp=0.55 / qpmin=0 / qpmax=69 / qpstep=4 / ip_ratio=1.40 / pb_ratio=1.30 / aq=1:0.55Язык : EnglishDefault : ДаForced : ДаКоэффициенты матрицы : BT.709

Аудио #1Идентификатор : 2Формат : AC-3Формат/Информация : Audio Coding 3Расширение режима : CM (complete main)Параметр Endianness формата : BigИдентификатор кодека : A_AC3Продолжительность : 1 ч. 44 м.Вид битрейта : ПостоянныйБитрейт : 384 Кбит/секКаналы : 6 каналовРасположение каналов : Front: L C R, Side: L R, LFEЧастота : 48,0 КГцБитовая глубина : 16 битМетод сжатия : С потерямиРазмер потока : 286 Мбайт (4%)Заголовок : DubЯзык : RussianDefault : ДаForced : Нет

Аудио #2Идентификатор : 3Формат : AC-3Формат/Информация : Audio Coding 3Расширение режима : CM (complete main)Параметр Endianness формата : BigИдентификатор кодека : A_AC3Продолжительность : 1 ч. 44 м.Вид битрейта : ПостоянныйБитрейт : 640 Кбит/секКаналы : 6 каналовРасположение каналов : Front: L C R, Side: L R, LFEЧастота : 48,0 КГцБитовая глубина : 16 битМетод сжатия : С потерямиРазмер потока : 477 Мбайт (6%)Заголовок : DD 5.1 @ 640 kbpsЯзык : EnglishDefault : НетForced : Нет

Текст #1Идентификатор : 4Формат : UTF-8Идентификатор кодека : S_TEXT/UTF8Идентификатор кодека/Информация : UTF-8 Plain TextЯзык : RussianDefault : НетForced : Нет

Текст #2Идентификатор : 5Формат : UTF-8Идентификатор кодека : S_TEXT/UTF8Идентификатор кодека/Информация : UTF-8 Plain TextЗаголовок : English SDHЯзык : EnglishDefault : НетForced : Нет

Меню00:00:00.000 : en:00:00:00.00000:06:06.700 : en:00:06:06.70000:10:14.989 : en:00:10:14.98900:13:31.227 : en:00:13:31.22700:16:21.480 : en:00:16:21.48000:20:16.841 : en:00:20:16.84100:23:11.223 : en:00:23:11.22300:28:19.531 : en:00:28:19.53100:32:21.731 : en:00:32:21.73100:35:40.805 : en:00:35:40.80500:39:57.478 : en:00:39:57.47800:43:04.540 : en:00:43:04.54000:46:10.851 : en:00:46:10.85100:51:42.266 : en:00:51:42.26600:55:39.378 : en:00:55:39.37800:58:41.727 : en:00:58:41.72701:02:51.476 : en:01:02:51.47601:07:18.493 : en:01:07:18.49301:13:06.465 : en:01:13:06.46501:18:41.592 : en:01:18:41.59201:24:02.996 : en:01:24:02.99601:32:48.229 : en:01:32:48.22901:37:07.655 : en:01:37:07.65501:39:40.474 : en:01:39:40.474

piratbit.ru


Смотрите также