Робот по имени чаппи скачать торрент в хорошем качестве hd 1080 торрент


Робот по имени Чаппи через торрент

Format : Matroska Format version : Version 2 File size : 7.77 GiB Duration : 2h 0mn Overall bit rate : 9 244 Kbps Movie name : Робот по имени Чаппи / Chappie (2015) Encoded date : UTC 2015-06-07 09:29:25 Writing application : mkvmerge v5.8.0 ('No Sleep / Pillow') built on Sep 2 2012 15:37:04 Writing library : libebml v1.2.3 + libmatroska v1.3.0 Attachements : cover.png / logfile.log

Video ID : 1 Format : AVC Format/Info : Advanced Video Codec Format profile : [email protected] Format settings, CABAC : Yes Format settings, ReFrames : 5 frames Codec ID : V_MPEG4/ISO/AVC Duration : 2h 0mn Bit rate : 7 320 Kbps Width : 1 920 pixels Height : 800 pixels Display aspect ratio : 2.40:1 Frame rate mode : Constant Frame rate : 23.976 fps Color space : YUV Chroma subsampling : 4:2:0 Bit depth : 8 bits Scan type : Progressive Bits/(Pixel*Frame) : 0.199 Stream size : 6.00 GiB (77%) Title : Робот по имени Чаппи / Chappie (2015) Writing library : x264 core 146 r0+2586 e393126 t_mod_Custom [[email protected] X86_64] Encoding settings : cabac=1 / ref=5 / deblock=1:-3:-3 / analyse=0x3:0x133 / me=umh / subme=10 / psy=1 / fade_compensate=0.00 / psy_rd=1.05:0.00 / mixed_ref=1 / me_range=32 / chroma_me=1 / trellis=2 / 8x8dct=1 / cqm=0 / deadzone=21,11 / fast_pskip=0 / chroma_qp_offset=-2 / threads=12 / lookahead_threads=3 / sliced_threads=0 / nr=0 / decimate=1 / interlaced=0 / bluray_compat=0 / constrained_intra=0 / fgo=0 / bframes=10 / b_pyramid=2 / b_adapt=2 / b_bias=0 / direct=3 / weightb=1 / open_gop=0 / weightp=2 / keyint=240 / keyint_min=23 / scenecut=40 / intra_refresh=0 / rc=2pass / mbtree=0 / bitrate=7320 / ratetol=1.0 / qcomp=0.70 / qpmin=0:0:0 / qpmax=69:69:69 / qpstep=4 / cplxblur=20.0 / qblur=0.5 / ip_ratio=1.40 / pb_ratio=1.30 / aq=1:0.70 / aq-sensitivity=10.00 / aq-factor=1.00:1.00:1.00 / aq2=0 / aq3=0 Language : English Default : Yes Forced : No

Audio #1 ID : 2 Format : AC-3 Format/Info : Audio Coding 3 Mode extension : CM (complete main) Format settings, Endianness : Big Codec ID : A_AC3 Duration : 2h 0mn Bit rate mode : Constant Bit rate : 640 Kbps Channel(s) : 6 channels Channel positions : Front: L C R, Side: L R, LFE Sampling rate : 48.0 KHz Bit depth : 16 bits Compression mode : Lossy Stream size : 551 MiB (7%) Title : Дубляж, Blu-ray CEE Language : Russian Default : Yes Forced : No

Audio #2 ID : 3 Format : AC-3 Format/Info : Audio Coding 3 Mode extension : CM (complete main) Format settings, Endianness : Big Codec ID : A_AC3 Duration : 2h 0mn Bit rate mode : Constant Bit rate : 640 Kbps Channel(s) : 6 channels Channel positions : Front: L C R, Side: L R, LFE Sampling rate : 48.0 KHz Bit depth : 16 bits Compression mode : Lossy Stream size : 551 MiB (7%) Title : Дубляж, Blu-ray CEE Language : Ukrainian Default : No Forced : No

Audio #3 ID : 4 Format : AC-3 Format/Info : Audio Coding 3 Mode extension : CM (complete main) Format settings, Endianness : Big Codec ID : A_AC3 Duration : 2h 0mn Bit rate mode : Constant Bit rate : 640 Kbps Channel(s) : 6 channels Channel positions : Front: L C R, Side: L R, LFE Sampling rate : 48.0 KHz Bit depth : 16 bits Compression mode : Lossy Stream size : 551 MiB (7%) Title : English Language : English Default : No Forced : No

Text #1 ID : 5 Format : UTF-8 Codec ID : S_TEXT/UTF8 Codec ID/Info : UTF-8 Plain Text Title : Russian (Forced) Language : Russian Default : Yes Forced : No

Text #2 ID : 6 Format : UTF-8 Codec ID : S_TEXT/UTF8 Codec ID/Info : UTF-8 Plain Text Title : Russian Language : Russian Default : No Forced : No

Text #3 ID : 7 Format : UTF-8 Codec ID : S_TEXT/UTF8 Codec ID/Info : UTF-8 Plain Text Title : Ukrainian (Forced) Language : Ukrainian Default : No Forced : No

Text #4 ID : 8 Format : UTF-8 Codec ID : S_TEXT/UTF8 Codec ID/Info : UTF-8 Plain Text Title : Ukrainian Language : Ukrainian Default : No Forced : No

Text #5 ID : 9 Format : UTF-8 Codec ID : S_TEXT/UTF8 Codec ID/Info : UTF-8 Plain Text Title : English (Forced) Language : English Default : No Forced : No

Text #6 ID : 10 Format : UTF-8 Codec ID : S_TEXT/UTF8 Codec ID/Info : UTF-8 Plain Text Title : English Language : English Default : No Forced : No

Text #7 ID : 11 Format : UTF-8 Codec ID : S_TEXT/UTF8 Codec ID/Info : UTF-8 Plain Text Title : English (SDH) Language : English Default : No Forced : No

Text #8 ID : 12 Format : UTF-8 Codec ID : S_TEXT/UTF8 Codec ID/Info : UTF-8 Plain Text Title : English (SDH Colored) Language : English Default : No Forced : No

Menu 00:00:00.000 : en:(01)00:00:00:000 00:03:37.008 : en:(02)00:03:37:008 00:09:55.260 : en:(03)00:09:55:260 00:13:50.495 : en:(04)00:13:50:495 00:21:53.644 : en:(05)00:21:53:644 00:31:17.541 : en:(06)00:31:17:541 00:37:19.320 : en:(07)00:37:19:320 00:46:58.731 : en:(08)00:46:58:731 00:54:36.690 : en:(09)00:54:36:690 01:06:12.927 : en:(10)01:06:12:927 01:09:57.649 : en:(11)01:09:57:649 01:16:48.395 : en:(12)01:16:48:395 01:24:59.551 : en:(13)01:24:59:551 01:31:35.198 : en:(14)01:31:35:198 01:42:36.942 : en:(15)01:42:36:942 01:50:03.595 : en:(16)01:50:03:595

piratbit.ru

Скачать торрент Робот по имени Чаппи / Chappie (2015) BDRip 1080p от HDTracker

krutor.org

Робот по имени Чаппи / Chappie

Год выпуска: 2015Страна: США, МексикаСлоган: «I am discovery. I am wonder. I am chappie»Жанр: фантастика, боевик, триллерПродолжительность: 02:00:20Перевод:

  • Профессиональный (дублированный) Blu-ray CEE
  • Авторский (одноголосый) Михаил ЯроцкийРежиссер: Нил Бломкамп / Neill BlomkampСценарий: Нил Бломкамп / Neill Blomkamp, Тэрри Татчелл / Terri TatchellПродюсер: Нил Бломкамп / Neill Blomkamp, Саймон Кинберг / Simon Kinberg, Джеймс Битонти / James Bitonti, Виктория Буркхарт / Victoria Burkhart, Бен Уайсбрен / Ben WaisbrenОператор: Трент Опалок / Trent OpalochКомпозитор: Ханс Циммер / Hans ZimmerВ ролях: Шарлто Копли (Chappie), Дев Патель (Deon Wilson), Ниндзя (Ninja), Йоланди Фиссер (Yolandi), Хосе Пабло Кантильо (Yankie (Amerika)), Хью Джекман (Vincent Moore), Сигурни Уивер (Michelle Bradley), Брэндон Оре (Hippo), Джонни Селема (Pitbull), Андерсон Купер (играет самого себя), Морис Карпеде (Police Chief), Джейсон Коуп (Tetravaal Lead Mechanic)

    Дублёры: Данил Щебланов (Chappie), Сергей Смирнов (Deon Wilson), Дарья Фролова (Yolandi), Александр Коврижных (Vincent Moore)

    Бюджет: $49 000 000Сборы в США: $31 569 268Сборы в России: $7 146 696Сборы в мире: $102 069 268

    Мировая премьера: 4 марта 2015Премьера (РФ): 5 марта 2015,«WDSSPR»Релиз на DVD: 11 июня 2015, «CP Дистрибуция»Релиз на Blu-ray: 11 июня 2015, «CP Дистрибуция»

    Описание: Чаппи - вундеркинд. Как и любой другой ребенок, он попадает под влияние своего окружения, и только его сердце и душа помогут ему найти свой путь. Но есть одна вещь, которая делает Чаппи непохожим на всех остальных: он - первый робот, способный чувствовать и думать.Рейтинг:

    MPAA: R - Лицам до 17 лет обязательно присутствие взрослого

    Формат: MatroskaВидео: 1920x800 at 23.976 fps, [email protected], ~13.4 Мbps avgAудио#1: English: 48 kHz, DTS, 3/2 (L,C,R,l,r) + LFE ch, ~1509 kbps avgAудио#2: Russian: 48 kHz, DTS, 3/2 (L,C,R,l,r) + LFE ch, ~1509 kbps avg |Авторский, М.Яроцкий|Aудио#3: Russian: 48 kHz, AC3, 3/2 (L,C,R,l,r) + LFE ch, ~640 kbps avg |Дубляж, Blu-ray CEE|Субтитры: Russian, English

    Знаете ли Вы, что...

  • В основу фильма легла короткометражка Нила Бломкампа «Тетра Ваал» (2004).
  • Съемки фильма начались в последних числах октября 2013 года в самом крупном городе ЮАР - Йоханнесбурге, и завершились в феврале 2014 года.
  • На создание антенны в виде уха кролика Нила Бломкампа вдохновил Бриарей – персонаж манги Мусамунэ Сиро «Яблочное зёрнышко» (Appleseed), поклонником которой является Бломкамп.
  • В фильме снялась южноафриканская рэп-рейв группа Die Antwoord, участники которой являются поклонниками работ Нила Бломкампа. У Ниндзя даже есть татуировка «D 9» на внутренней стороне губы в честь его фильма «Район N9» (2009).
  • MI

    General Unique ID : 177522077431128832147277187234959642904 (0x858D822B2F3F282DA57CF9D35276D118) Complete name : Chappie.2015.1080p.HDTracker.mkv Format : Matroska Format version : Version 4 / Version 2 File size : 14.6 GiB Duration : 2h 0mn Overall bit rate : 17.4 Mbps Encoded date : UTC 2015-06-20 14:35:24 Writing application : mkvmerge v7.9.0 ('Birds') 64bit Writing library : libebml v1.3.1 + libmatroska v1.4.2

    Video ID : 1 Format : AVC Format/Info : Advanced Video Codec Format profile : [email protected] Format settings, CABAC : Yes Format settings, ReFrames : 5 frames Codec ID : V_MPEG4/ISO/AVC Duration : 2h 0mn Bit rate : 13.4 Mbps Width : 1 920 pixels Height : 800 pixels Display aspect ratio : 2.40:1 Frame rate mode : Constant Frame rate : 23.976 fps Color space : YUV Chroma subsampling : 4:2:0 Bit depth : 8 bits Scan type : Progressive Bits/(Pixel*Frame) : 0.363 Stream size : 11.2 GiB (77%) Writing library : x264 core 146 r2538 121396c Encoding settings : cabac=1 / ref=5 / deblock=1:-3:-3 / analyse=0x3:0x133 / me=umh / subme=10 / psy=1 / psy_rd=1.00:0.00 / mixed_ref=1 / me_range=16 / chroma_me=1 / trellis=2 / 8x8dct=1 / cqm=0 / deadzone=21,11 / fast_pskip=0 / chroma_qp_offset=-2 / threads=12 / lookahead_threads=2 / sliced_threads=0 / nr=0 / decimate=0 / interlaced=0 / bluray_compat=0 / constrained_intra=0 / bframes=9 / b_pyramid=2 / b_adapt=2 / b_bias=0 / direct=3 / weightb=1 / open_gop=0 / weightp=2 / keyint=250 / keyint_min=23 / scenecut=40 / intra_refresh=0 / rc=crf / mbtree=0 / crf=16.0 / qcomp=0.70 / qpmin=0 / qpmax=69 / qpstep=4 / ip_ratio=1.40 / pb_ratio=1.30 / aq=3:0.75 / zones=162627,173087,crf=22 Language : English Default : Yes Forced : No

    Audio #1 ID : 2 Format : DTS Format/Info : Digital Theater Systems Mode : 16 Format settings, Endianness : Big Codec ID : A_DTS Duration : 2h 0mn Bit rate mode : Constant Bit rate : 1 509 Kbps Channel(s) : 6 channels Channel positions : Front: L C R, Side: L R, LFE Sampling rate : 48.0 KHz Bit depth : 24 bits Compression mode : Lossy Delay relative to video : 11ms Stream size : 1.27 GiB (9%) Title : DTS 5.1 @ 1536 kbps Language : English Default : No Forced : No

    Audio #2 ID : 3 Format : DTS Format/Info : Digital Theater Systems Mode : 16 Format settings, Endianness : Big Codec ID : A_DTS Duration : 2h 0mn Bit rate mode : Constant Bit rate : 1 509 Kbps Channel(s) : 6 channels Channel positions : Front: L C R, Side: L R, LFE Sampling rate : 48.0 KHz Bit depth : 24 bits Compression mode : Lossy Stream size : 1.27 GiB (9%) Title : kyberpunk Language : Russian Default : Yes Forced : Yes

    Audio #3 ID : 4 Format : AC-3 Format/Info : Audio Coding 3 Mode extension : CM (complete main) Format settings, Endianness : Big Codec ID : A_AC3 Duration : 2h 0mn Bit rate mode : Constant Bit rate : 640 Kbps Channel(s) : 6 channels Channel positions : Front: L C R, Side: L R, LFE Sampling rate : 48.0 KHz Bit depth : 16 bits Compression mode : Lossy Stream size : 551 MiB (4%) Title : AC3 5.1 @ 640 kbps - DUB, Blu-ray CEE Language : Russian Default : No Forced : No

    Text #1 ID : 5 Format : UTF-8 Codec ID : S_TEXT/UTF8 Codec ID/Info : UTF-8 Plain Text Title : Forced Language : Russian Default : Yes Forced : Yes

    Text #2 ID : 6 Format : UTF-8 Codec ID : S_TEXT/UTF8 Codec ID/Info : UTF-8 Plain Text Language : Russian Default : No Forced : No

    Text #3 ID : 7 Format : UTF-8 Codec ID : S_TEXT/UTF8 Codec ID/Info : UTF-8 Plain Text Language : English Default : No Forced : No

    Menu 00:00:00.000 : en:00:00:00.000 00:03:37.008 : en:00:03:37.008 00:09:55.261 : en:00:09:55.261 00:13:50.496 : en:00:13:50.496 00:21:53.646 : en:00:21:53.646 00:31:17.125 : en:00:31:17.125 00:37:19.320 : en:00:37:19.320 00:46:58.733 : en:00:46:58.733 00:54:36.690 : en:00:54:36.690 01:06:12.927 : en:01:06:12.927 01:09:57.652 : en:01:09:57.652 01:16:48.395 : en:01:16:48.395 01:24:59.553 : en:01:24:59.553 01:31:35.198 : en:01:31:35.198 01:42:36.942 : en:01:42:36.942 01:50:03.597 : en:01:50:03.597

    ЦитатаКто-то писал:Перевод М.Яроцкого доступен благодаря: Kruj0k, 7654, dikii, sivservik, mv73, kidman644, boldino, Shrooms, 4poK. Работа со звуком: Переводман.

    Робот по имени Чаппи через торрент

    piratbit.ru

    Размер: 1.46 GB | Добавлен: 2 года 4 мес. назад | Торрент скачан:1110 раз
    Реклама Дарим 3000 рублей за регистрацию, не упусти свой шанс получить шикарный бонус!!!

    06-06-2015 11:17 Робот по имени Чаппи Скачать торрент  

    Год выпуска: 2015Страна: США, Мексика, ЮАР / Sony Pictures Entertainment (SPE)...Жанр: Фантастика, боевик, триллерПродолжительность: 02:00:19Перевод: Дубляж [BD CEE]Субтитры: Русские (полные + форс.)

    Режиссер: Нил Бломкамп / Neill Blomkamp

    В ролях: Шарлто Копли, Дев Патель, Ниндзя, Йоланди Фиссер, Хосе Пабло Кантилльо, Хью Джекман, Сигурни Уивер, Брэндон Оре, Джонни Селема, Андерсон Купер, Морис Карпеде, Джейсон Коуп, Кевин Отто, Крис Шилдс, Билл Мэрчент, Роберт Хоббс, Марк К. Куслу, Шерлдон Марема, Шахид Хаджи, Дэвид Давадосс

    Описание: Чаппи – высокоинтеллектуальный робот, созданный талантливейшим ученым. В отличие от тысяч аналогов, Чаппи может не только мыслить и развиваться, но и чувствовать, страдать, надеяться и мечтать. Одним словом, это – человек, только с большими интеллектуальными и физическими способностями и большим объемом памяти. Сейчас Чаппи – эдакий ребенок, который учится, шутит, играет, познает мир. Ученый, его создавший, относится к Чаппи, как к родному сыну и радуется каждому его достижению. Но однажды Чаппи похищают люди недобрые, прознавшие об уникальных способностях робота и решившие воспользоваться этим в своих подлых целях. Мафиозники обучают Чаппи на свой манер, и к большой печали, первоначально Чаппи верит людям, перенимая иной образ поведения и общения, нежели ему внушался прежде. Карусель событий разгоняется все быстрее: теперь военные получили информацию, что у мафии есть высокоинтеллектуальный робот и объявили охоту на него.

    Качество: BDRip-AVCФормат: MKVВидео кодек: H.264Аудио кодек: AC3Видео: 912x380 (2,40:1), 23.976 fps, 1354 kbps, 0.163 bit/pixelАудио: 48 kHz, AC3 Dolby Digital, 3/2 (L,C,R,l,r) + LFE ch, 384.00 kbps

    Релиз группы: Автор рипа: potroks

    Общее Уникальный идентификатор : 251377699860845586407105033242725402690 (0xBD1D957DD56964519C9243BAC97D4842) Полное имя : N:\Фантастика\Robot.po.Imeni.Chappi.2015.RUS.BDRip.x264.-HELLYWOOD.mkv Формат : Matroska Версия формата : Version 4 / Version 2 Размер файла : 1,46 Гбайт Продолжительность : 2 ч. 0 м. Общий поток : 1737 Кбит/сек Название фильма : Chappie (2015) - HELLYWOOD Дата кодирования : UTC 2015-06-06 11:03:32 Программа кодирования : mkvmerge v5.9.0 ('On The Loose') built on Dec 15 2012 16:39:58 Библиотека кодирования : libebml v1.3.0 + libmatroska v1.4.0

    Видео Идентификатор : 1 Формат : AVC Формат/Информация : Advanced Video Codec Профиль формата : [email protected] Параметр CABAC формата : Да Параметр ReFrames формата : 12 кадров Идентификатор кодека : V_MPEG4/ISO/AVC Продолжительность : 2 ч. 0 м. Битрейт : 1354 Кбит/сек Ширина : 912 пикселей Высота : 380 пикселей Соотношение сторон : 2,40:1 Режим частоты кадров : Постоянный Частота кадров : 23,976 кадра/сек Цветовое пространство : YUV Субдискретизация насыщенности : 4:2:0 Битовая глубина : 8 бит Тип развёртки : Прогрессивная Бит/(Пиксели*Кадры) : 0.163 Размер потока : 1,11 Гбайт (76%) Заголовок : potroks Библиотека кодирования : x264 core 146 r2538 121396c Настройки программы : cabac=1 / ref=12 / deblock=1:-2:-2 / analyse=0x3:0x113 / me=umh / subme=11 / psy=1 / psy_rd=0.99:0.02 / mixed_ref=1 / me_range=48 / chroma_me=1 / trellis=2 / 8x8dct=1 / cqm=0 / deadzone=21,11 / fast_pskip=0 / chroma_qp_offset=-3 / threads=9 / lookahead_threads=2 / sliced_threads=0 / nr=0 / decimate=1 / interlaced=0 / bluray_compat=0 / constrained_intra=0 / bframes=13 / b_pyramid=2 / b_adapt=2 / b_bias=0 / direct=3 / weightb=1 / open_gop=0 / weightp=2 / keyint=250 / keyint_min=23 / scenecut=40 / intra_refresh=0 / rc_lookahead=60 / rc=2pass / mbtree=0 / bitrate=1354 / ratetol=1.0 / qcomp=0.70 / qpmin=0 / qpmax=69 / qpstep=4 / cplxblur=20.0 / qblur=0.5 / vbv_maxrate=14000 / vbv_bufsize=14000 / nal_hrd=none / filler=0 / ip_ratio=1.35 / pb_ratio=1.25 / aq=1:0.80 Язык : English Default : Да Forced : Нет

    Аудио Идентификатор : 2 Формат : AC-3 Формат/Информация : Audio Coding 3 Расширение режима : CM (complete main) Параметр Endianness формата : Big Идентификатор кодека : A_AC3 Продолжительность : 2 ч. 0 м. Вид битрейта : Постоянный Битрейт : 384 Кбит/сек Каналы : 6 каналов Расположение каналов : Front: L C R, Side: L R, LFE Частота : 48,0 КГц Битовая глубина : 16 бит Метод сжатия : С потерями Размер потока : 330 Мбайт (22%) Заголовок : Dub | DD 5.1 @ 384 kbps - Blu-Ray CEE Язык : Russian Default : Да Forced : Нет

    Текст #1 Идентификатор : 3 Формат : UTF-8 Идентификатор кодека : S_TEXT/UTF8 Идентификатор кодека/Информация : UTF-8 Plain Text Заголовок : форс. Язык : Russian Default : Да Forced : Нет

    Текст #2 Идентификатор : 4 Формат : UTF-8 Идентификатор кодека : S_TEXT/UTF8 Идентификатор кодека/Информация : UTF-8 Plain Text Язык : Russian Default : Нет Forced : Нет

    Меню 00:00:00.000 : en:(01)00:00:00:000 00:03:37.008 : en:(02)00:03:37:008 00:09:55.260 : en:(03)00:09:55:260 00:13:50.495 : en:(04)00:13:50:495 00:21:53.644 : en:(05)00:21:53:644 00:31:17.541 : en:(06)00:31:17:541 00:37:19.320 : en:(07)00:37:19:320 00:46:58.731 : en:(08)00:46:58:731 00:54:36.690 : en:(09)00:54:36:690 01:06:12.927 : en:(10)01:06:12:927 01:09:57.649 : en:(11)01:09:57:649 01:16:48.395 : en:(12)01:16:48:395 01:24:59.551 : en:(13)01:24:59:551 01:31:35.198 : en:(14)01:31:35:198 01:42:36.942 : en:(15)01:42:36:942 01:50:03.595 : en:(16)01:50:03:595

    Скачать Робот по имени Чаппи через торрент http://pic.pb.wtf/images/11/lyhgf.jpg Скачать фильм Робот по имени Чаппи через торрент бесплантно в хорошем качестве Описание: Чаппи – высокоинтеллектуальный робот, созданный талантливейшим ученым. В отличие от тысяч аналогов, Чаппи может не только мыслить ... 2015-06-06 11:17 9.4 10 21

    Loading...

    Loading...

    Рекламный пират

    17-06-2015 18:39 Робот по имени Чаппи Скачать торрент  

    "Приключения Электроника" короче.

    Дорогой пользователь! Огромная просьба, поблагодарите релизера, оцените раздачу и оставьте свои комментарий, если Вы скачали Робот по имени Чаппи через торрент бесплатно! Внесите свою лепту в развитие PiratBit!

    Комментировать посты могут только пользователи прошедшие не сложную регистрацию

    Робот по имени Чаппи через торрент Скачать бесплатно Робот по имени Чаппи Робот по имени Чаппи скачать торрент Робот по имени Чаппи смотреть онлайн Cкачать фильм Робот по имени Чаппи бесплатно Робот по имени Чаппи скачать торрент в хорошем качестве Робот по имени Чаппи смотреть онлайн бесплатно в хорошем качестве

    Вы не можете начинать темыВы не можете отвечать на сообщенияВы не можете редактировать свои сообщенияВы не можете удалять свои сообщенияВы не можете голосовать в опросахВы не можете прикреплять файлы к сообщениямВы можете скачивать файлы

    Робот по имени Чаппи через торрент

    GeneralUnique ID : 234400261721858577473738039231881297328 (0xB057D92A55CCFBCE9DC87BBAB6FA3DB0)Complete name : A:\Фильмы\BDRip-avc\Робот по имени Чаппи BDRip-AVC 60fps R.G. HD-Films.mkvFormat : MatroskaFormat version : Version 4 / Version 2File size : 3.90 GiBDuration : 2h 0mnOverall bit rate : 4 643 KbpsMovie name : Tiberiumsun69Encoded date : UTC 2015-06-24 12:20:42Writing application : mkvmerge v7.9.0 ('Birds') 64bitWriting library : libebml v1.3.1 + libmatroska v1.4.2Attachment : Yes / Yes

    VideoID : 1Format : AVCFormat/Info : Advanced Video CodecFormat profile : [email protected] settings, CABAC : YesFormat settings, ReFrames : 4 framesCodec ID : V_MPEG4/ISO/AVCDuration : 2h 0mnBit rate : 4 000 KbpsWidth : 1 024 pixelsHeight : 424 pixelsDisplay aspect ratio : 2.40:1Frame rate : 59.940 fpsColor space : YUVChroma subsampling : 4:2:0Bit depth : 8 bitsScan type : ProgressiveBits/(Pixel*Frame) : 0.154Stream size : 3.29 GiB (84%)Title : Tiberiumsun69Writing library : x264 core 146 r2538 121396cEncoding settings : cabac=1 / ref=4 / deblock=1:0:0 / analyse=0x3:0x113 / me=umh / subme=9 / psy=1 / psy_rd=1.00:0.10 / mixed_ref=1 / me_range=32 / chroma_me=1 / trellis=2 / 8x8dct=1 / cqm=0 / deadzone=21,11 / fast_pskip=0 / chroma_qp_offset=-3 / threads=12 / lookahead_threads=3 / sliced_threads=0 / nr=0 / decimate=1 / interlaced=0 / bluray_compat=0 / constrained_intra=0 / bframes=16 / b_pyramid=2 / b_adapt=2 / b_bias=0 / direct=3 / weightb=1 / open_gop=0 / weightp=2 / keyint=600 / keyint_min=59 / scenecut=40 / intra_refresh=0 / rc_lookahead=60 / rc=2pass / mbtree=1 / bitrate=4000 / ratetol=1.0 / qcomp=0.60 / qpmin=0 / qpmax=69 / qpstep=4 / cplxblur=20.0 / qblur=0.5 / vbv_maxrate=50000 / vbv_bufsize=62500 / nal_hrd=none / filler=0 / ip_ratio=1.40 / aq=1:1.00Language : EnglishDefault : YesForced : No

    AudioID : 2Format : AC-3Format/Info : Audio Coding 3Mode extension : CM (complete main)Codec ID : A_AC3Duration : 2h 0mnBit rate mode : ConstantBit rate : 640 KbpsChannel(s) : 6 channelsChannel positions : Front: L C R, Side: L R, LFESampling rate : 48.0 KHzBit depth : 16 bitsCompression mode : LossyStream size : 551 MiB (14%)Title : ДубляжLanguage : RussianDefault : YesForced : No

    Text #1ID : 3Format : UTF-8Codec ID : S_TEXT/UTF8Codec ID/Info : UTF-8 Plain TextTitle : ФорсированныеLanguage : RussianDefault : YesForced : No

    Text #2ID : 4Format : UTF-8Codec ID : S_TEXT/UTF8Codec ID/Info : UTF-8 Plain TextTitle : ПолныеLanguage : RussianDefault : NoForced : No

    Text #3ID : 5Format : UTF-8Codec ID : S_TEXT/UTF8Codec ID/Info : UTF-8 Plain TextTitle : ПолныеLanguage : EnglishDefault : NoForced : No

    Menu00:00:00.000 : en:00:00:00.00000:03:37.008 : en:00:03:37.00800:09:55.261 : en:00:09:55.26100:13:50.496 : en:00:13:50.49600:21:53.646 : en:00:21:53.64600:31:17.125 : en:00:31:17.12500:37:19.320 : en:00:37:19.32000:46:58.733 : en:00:46:58.73300:54:36.690 : en:00:54:36.69001:06:12.927 : en:01:06:12.92701:09:57.652 : en:01:09:57.65201:16:48.395 : en:01:16:48.39501:24:59.553 : en:01:24:59.55301:31:35.198 : en:01:31:35.19801:42:36.942 : en:01:42:36.94201:50:03.597 : en:01:50:03.597

    piratbit.ru

    Робот по имени Чаппи (2015) (Chappie)

    «Величие души должно быть свойством всех людей» или «Почему Вы люди это делаете? Почему Вы все врёте»!!

    Я всегда поражаюсь и восхищаюсь, как режиссеры могут вызвать к холодному куску металла такую дикую любовь, что каждую секунду переживаешь за него, а слезы непрерывным потоком орошают уже все лицо, капают на диван и ты захлебываешься в чувствах… Сегодня я была сражена этим фильмом! Были такие моменты, когда я порывалась выключить, ибо чувствовала, что мое сердце не выдержит душераздирающих диалогов и действий. Я «умирала», когда смотрела «Хатико», «Белый плен», «Белый Бим Черное Ухо» - валялась с температурой и в расстроенных чувствах и клялась себе, что больше не буду смотреть такие фильмы, так как пожить всё-таки еще хочется. Но видать, слабовольный я человек – досмотрела до конца «Чаппи», рассыпалась на части, ревела белугой, пугала своими всхлипами кошку, нарушила свой запрет на курение (а ведь целый месяц держалась!), но глядела! И как же я рада, что досмотрела, так как конец фильма меня безумно порадовал и если я уже пускала слезу, то это были слезы радости! Как же я была поражена, когда увидела много отрицательных отзывов об этом кино. Как так? Я всегда с уважением отношусь к чужому вкусу и мнению, но в этот раз я недоумеваю. Люди разбирают этот фильм на молекулы, ищут какие-то мелкие нестыковки, раздувают их до неимоверных масштабов. Люди, проснитесь! Вы живые? Ваши сердца стучат в груди? Неужели, Ваши чувства не были задеты? Я не могу поверить, что этот фильм не «ударил» в сердце. Не обязательно, как я «умирать» на диване перед телевизором и пугать своих домашних питомцев, но сухо описывать какие-то нелепые недостатки по типу классических злодеев и пыхтеть на то, как Чаппи смог выучить язык за один день?! Неужели Вас только это волнует? Если так, то мне очень страшно, ибо с равнодушия и начинается гибель. Не зря Чаппи восклицает «Почему Вы люди это делаете? Почем Вы все врёте»!!! А делаем, Чаппи, потому что нам на всех плевать, мы равнодушны к чужому горю, нам абсолютно безразлично выкарабкается ли человек из беды, мы не протягиваем руку помощи, а соврать для многих и дать лживые обещания проще простого, мы убиваем все живое вокруг своим хладнодушием и безучастность к происходящему является для многих людей визитной карточкой. Тем, кто читает мою рецензию, хочу принести извинение за эмоции, но я еще не отошла от фильма «Дурак» Ю. Быкова, где тема равнодушия раскрывается во всей красе (хотя, мне думается, этой теме нет предела, и я до сих пор не перестаю удивляться жестокости людей и иногда, как Чаппи стою и вопрошаю: « Почему так? Из-за чего?». Вот и Чаппи недоумевает, как так можно. И в этом недоумении столько трогательности, что сердце в клочья. Тема искусственного интеллекта не нова в фильмах. Кто-то показывает, что за технологиями наше будущее, кто-то же, наоборот, против внедрения искусственного разума. А в этой кинокартине тема искусственного интеллекта подается совершенно под другим соусом. Нам показывают, что в корпусе этой машины заточена «душа» ребенка. И этот ребенок растет, познает мир, несправедливость, ценит свою семью, оберегает своих любимых. И что, если он в титановом панцире - мы должны любит его меньше? Мы должны считать его паршивой овцой? Конечно же, нет! Ведь этот панцирь не спасает его от боли и разочарования. Он всё чувствует. Да, пули ему не страшны, но душевная боль вонзается в него также, как и в человека, у которого бежит кровь по венам и стучит сердце. И тут даже вопрос об некоторых людях – а могут ли они так ощущать, как Чаппи? Могут ли также через себя пропускать переживания? Сочувствовать?! Да, Чаппи в титановом одеянии, но его человечность этот факт не отменяет. Также Нил Бломкамп поднимает в своем фильме тему воспитания и влияния окружающей среды на человека. Чаппи - ребенок, который только начинает познавать мир, он как губка впитывает и хорошее, и плохое. Ему трудно пока отделять черное от белого и легко поддаться на чужое влияние. Среда, в которую попал Чаппи нельзя назвать милосердной и всепонимающей. Мы сочувствуем Чаппи, и не можем злиться на него, что со временем он начинает круто держать пистолет и воровать тачки. Он побыл в этом мире всего несколько дней, но уже наглотался несправедливости («Почему они продолжали делать это, мама? Я же сказал им: «пожалуйста»?). Но я не могу полностью сказать, что Иоланди и Ниндзя плохие люди. Ниндзя переживает за свою любимую, он хочет спасти ее жизнь любой ценой. А Иоланди расцветает, когда у них появляется Чаппи. Окружает его любовью и заботой, ее материнский инстинкт взывает взять книжку и прочитать Чаппи сказку. Также и Мы, люди, рождаемся, нас окружает любовь родителей, мамы, которые читают нам сказки, а дальше мы взрослеем, сталкиваемся с несправедливостью и дальше наш выбор – бороться с ней или ступить на шаткую дорожку, забыв, что такое помощь, сострадание, честь. Я не считаю этот фильм – развлекательным, «под попкорн». В «Робот по имени Чаппи» заложена мораль, проблемы выбора и нравственности. Да, философии времен и народов здесь нет (и не надо!), все просто и любой зритель может постичь эту мораль. Главное – прислушается ли он к ней, прочувствует ли ее. Ведь, если мы хотим увидеть умное, отзывчивое, доброе и справедливое общество, то сначала должны начать с себя, со своего воспитания. И режиссер замечательно это показывает. И в очередной раз ненавязчиво поднимает вопрос – что же все-таки делает нас людьми? Можно много говорить о разуме, ибо это ключевое, это именно то, что отличает нас от всего животного мира. Но разумом обладают все люди на планете, но можно ли считать их людьми? С горькой усмешкой вспоминаешь, что чаще бывает - люди как звери, а звери, как люди. Я считаю, что именно наличие души и определяет человека, как человека (извините за тавтологию). Душа таинственна и невидна нашему глазу, но зато ее можно почувствовать и проявить в таких поступках, как в сострадание, в чуткости, в благородстве, в доброте… Именно наличие души и проявляет нашу человечность. Поэтому, если Вы до сих пор считаете Чаппи обычным развлекаловом, где только погони, перестрелки и драки, то прошу Вас, пересмотреть еще раз и разглядеть за этими крутыми спецэффектами намного больше, чем Вы увидели. Благодарю Нила, за то, что лишний раз напомнил про Душу и Разум, про трудность выбора и дал эмоциям пробиваться наружу. И спасибо за такую пусть и банальную правду, и призыв - «Никогда не позволяй ограничивать себя в развитии!» Многие могут пенять на то, что росли в неблагополучной семье, то что столкнулись с несправедливостью, оказались в жестоких условиях… Да, грешить можно на что угодно, но давайте запомним – чистая душа может прорасти и на плохой почве, крепкие стебельки веры и надежды поддержат ее, а за нами право выбора – сохранить человечность или же продолжать ругать жестокий мир! Можно еще много говорить о душевности, о чувствах, говорить о проблемах телесной оболочки («Зачем ты сделал меня таким, если я умру?»), но меня сейчас унесет в такие дебри, поэтому дабы не мучить людей, читающих рецензию я быстро «пробегусь» по актерскому составу. Хочу сказать огромное спасибо (хотя ни одно спасибо не сможет выразить всю мою благодарность!) Шарлто Копли. Я восхищалась игрой Энди Серкиса в фильмах «Планета обезьян» и Восстание планеты обезьян». Образ Цезаря был прекрасно преподнесен и раскрыт. Не хочу ни капли умалить старания Серкиса (я его безмерно уважаю), но шимпанзе легче воспринимать, как живое существо, ибо она им и является, а вот вдохнуть жизнь в железо – это титанический труд! Благодаря Копли я ни на минуту не представляла Чаппи железякой и заглянула в душу робота, почувствовала всю его трогательность и человечность. Спасибо, спасибо и еще раз спасибо! Ниндзя и Иоланди органично вписались в эту обстановку. По сути, ребята играли самих себя, но вышло колоритно и можно с уверенностью сказать – актерский дебют удался! Дева Пателя уважаю, его роль «Миллионера из трущоб» поистине звездная и тут он не подкачал. Верила каждому слову, его мимика полностью передавала ощущение, что ему как, Создателю Чаппи, больно от того, что его творение попало не в те руки! Его любовь к своему детищу искренняя и трогательная! Молодец! Ну а вот Хрю Джекмана хвалить особо не за что, любопытно просто было понаблюдать за Росомахой в шортиках)) Я не скажу, что он сыграл плохо. Нет, нет, просто другие персонажи спокойно затмили его. Поэтому осталось только громкое имя и шортики. Сигурни Уивер люблю и уважаю. Но сыграть роль меркантильного директора по плечу многим актрисам. Вот «Чужого» без нее я не представляю. Но опять же, я не говорю о плохой игре, просто проект без звездной Уивер ничего не потерял бы. Насчет саундтреков – все на высоте. Ханс Циммер – мастер своего дела. Его музыка заставляла мое сердце не раз разрываться в клочья, а музыка группы «Die Antwoord» играет теперь в моем телефоне. Ну а теперь, низкий поклон режиссеру Нилу Бломкампу. Кто-то ругает его, что, мол, все у него одинаковое. И место действия (любимый Йоханнесбург), и персонажи все клишированные и атмосфера «под» копирку» предыдущих работ. Я считаю, что Н. Бломкамп, лишний раз доказывает, что, несмотря на некоторую штампованность можно создать очередной шедевр. И пусть хоть все его фильмы будут происходит в Иоханнесбурге – я это переживу, при условии, что он в каждое творение будет вкладывать свою душу! В этом фильме душа не просто ощущается, здесь всё окутано ею и я благодарна ему! Этот фильм про главное в нашей жизни – про семью, любовь, дружбу! Про нашу человечность. Только ради этих главных аспектов стоит смотреть фильм! « – Скажите, а ощущать тепло человеческого тела – это приятно? – Очень. Но гораздо приятнее ощущать тепло человеческой души.» Всем спасибо!

    Полезная рецензия? Да / Нет 15 / 6

    www.fast-torrent.ru

    Скачать фильм Робот по имени Чаппи через торрент в хорошем качестве бесплатно 720p

    Format                                   : MatroskaFormat version                           : Version 2File size                                : 6.02 GiBDuration                                 : 2h 0mnOverall bit rate                         : 7 168 KbpsMovie name                               : Робот по имени Чаппи.(2015).BDRip.720p.[envy].[60fps]Encoded date                             : UTC 2015-06-08 02:16:06Writing application                      : mkvmerge v5.8.0 ('No Sleep / Pillow') built on Sep  2 2012 15:37:04Writing library                          : libebml v1.2.3 + libmatroska v1.3.0

    VideoID                                       : 1Format                                   : AVCFormat/Info                              : Advanced Video CodecFormat profile                           : [email protected] settings, CABAC                   : YesFormat settings, ReFrames                : 9 framesCodec ID                                 : V_MPEG4/ISO/AVCDuration                                 : 2h 0mnBit rate                                 : 5 746 KbpsWidth                                    : 1 280 pixelsHeight                                   : 534 pixelsDisplay aspect ratio                     : 2.40:1Frame rate                               : 59.940 fpsColor space                              : YUVChroma subsampling                       : 4:2:0Bit depth                                : 8 bitsScan type                                : ProgressiveBits/(Pixel*Frame)                       : 0.140Stream size                              : 4.83 GiB (80%)Title                                    : Робот по имени Чаппи.(2015).BDRip.720p.[envy].[60fps]Writing library                          : x264 core 130 r2273 b3065e6Encoding settings                        : cabac=1 / ref=9 / deblock=1:0:0 / analyse=0x3:0x113 / me=umh / subme=11 / psy=1 / psy_rd=1.00:0.00 / mixed_ref=1 / me_range=24 / chroma_me=1 / trellis=2 / 8x8dct=1 / cqm=0 / deadzone=21,11 / fast_pskip=0 / chroma_qp_offset=-2 / threads=12 / lookahead_threads=2 / sliced_threads=0 / nr=0 / decimate=1 / interlaced=0 / bluray_compat=0 / constrained_intra=0 / bframes=7 / b_pyramid=2 / b_adapt=2 / b_bias=0 / direct=3 / weightb=1 / open_gop=0 / weightp=2 / keyint=250 / keyint_min=25 / scenecut=40 / intra_refresh=0 / rc=crf / mbtree=0 / crf=17.0 / qcomp=0.60 / qpmin=0 / qpmax=69 / qpstep=4 / ip_ratio=1.40 / pb_ratio=1.30 / aq=1:0.70Language                                 : EnglishDefault                                  : YesForced                                   : No

    Audio #1ID                                       : 2Format                                   : AC-3Format/Info                              : Audio Coding 3Mode extension                           : CM (complete main)Codec ID                                 : A_AC3Duration                                 : 2h 0mnBit rate mode                            : ConstantBit rate                                 : 640 KbpsChannel(s)                               : 6 channelsChannel positions                        : Front: L C R, Side: L R, LFESampling rate                            : 48.0 KHzBit depth                                : 16 bitsCompression mode                         : LossyStream size                              : 551 MiB (9%)Title                                    : DubLanguage                                 : RussianDefault                                  : YesForced                                   : No

    Audio #2ID                                       : 3Format                                   : AC-3Format/Info                              : Audio Coding 3Mode extension                           : CM (complete main)Codec ID                                 : A_AC3Duration                                 : 2h 0mnBit rate mode                            : ConstantBit rate                                 : 640 KbpsChannel(s)                               : 6 channelsChannel positions                        : Front: L C R, Side: L R, LFESampling rate                            : 48.0 KHzBit depth                                : 16 bitsCompression mode                         : LossyStream size                              : 551 MiB (9%)Title                                    : EngLanguage                                 : EnglishDefault                                  : NoForced                                   : No

    Text #1ID                                       : 4Format                                   : UTF-8Codec ID                                 : S_TEXT/UTF8Codec ID/Info                            : UTF-8 Plain TextTitle                                    : Rus forcedLanguage                                 : RussianDefault                                  : YesForced                                   : Yes

    Text #2ID                                       : 5Format                                   : UTF-8Codec ID                                 : S_TEXT/UTF8Codec ID/Info                            : UTF-8 Plain TextTitle                                    : Rus fullLanguage                                 : RussianDefault                                  : NoForced                                   : No

    Text #3ID                                       : 6Format                                   : UTF-8Codec ID                                 : S_TEXT/UTF8Codec ID/Info                            : UTF-8 Plain TextTitle                                    : Eng forcedLanguage                                 : EnglishDefault                                  : NoForced                                   : No

    Text #4ID                                       : 7Format                                   : UTF-8Codec ID                                 : S_TEXT/UTF8Codec ID/Info                            : UTF-8 Plain TextTitle                                    : Eng fullLanguage                                 : EnglishDefault                                  : NoForced                                   : No

    Menu00:00:00.000                             : en:(01)00:00:00:00000:03:37.008                             : en:(02)00:03:37:00800:09:55.260                             : en:(03)00:09:55:26000:13:50.495                             : en:(04)00:13:50:49500:21:53.644                             : en:(05)00:21:53:64400:31:17.541                             : en:(06)00:31:17:54100:37:19.320                             : en:(07)00:37:19:32000:46:58.731                             : en:(08)00:46:58:73100:54:36.690                             : en:(09)00:54:36:69001:06:12.927                             : en:(10)01:06:12:92701:09:57.649                             : en:(11)01:09:57:64901:16:48.395                             : en:(12)01:16:48:39501:24:59.551                             : en:(13)01:24:59:55101:31:35.198                             : en:(14)01:31:35:19801:42:36.942                             : en:(15)01:42:36:94201:50:03.595                             : en:(16)01:50:03:595

    piratbit.ru


    Смотрите также