Разрушение скачать торрент в хорошем качестве


Скачать торрент Разрушение / Demolition (2015) BDRip-AVC от New-Team

РазрушениеDemolition

«LIFE: Some Disassembly Required»

Страна: СШАЖанр: драма

Год выпуска: 2015Продолжительность: 01:40:53

Перевод: Профессиональный (полное дублирование) [iTunes]Cубтитры: английские (полные, SDH)Оригинальная аудиодорожка: английский

Режиссер: Жан-Марк Валле / Jean-Marc Vallée

В ролях: Джейк Джилленхол, Наоми Уоттс, Крис Купер, Джуда Льюис, С.Дж. Уилсон, Полли Дрэйпер, Мэлаки Клири, Дебра Монк, Хезер Линд, Уасс М. Стивенс, Блэйр Брукс, Бен Коул

Описание: Когда Дэвис узнал, что его жена умерла, он захотел купить шоколадные конфеты в торговом автомате, но пачка застряла. Пытаясь выяснить, почему он ничего не чувствует по поводу смерти жены, Дэвис начинает писать длинные письма в обслуживающую торговые автоматы фирму. А в письмах он рассказывает о себе и об отношениях с погибшей женой. Скоро ему отвечает Карен, менеджер компании. Попутно Дэвис понимает, что ему совершенно необходимо разобрать холодильник, разломать кабинку туалета, рабочий компьютер и разрушить собственный дом.

Релиз:

Автор рипа: stalkerok

Сэмпл

Качество видео: BDRip-AVC [Demolition (2015) Blu-ray Disc BLUEBIRD]Формат видео: MKVВидео кодек: AVCАудио кодек: AC3Видео: 2200 Кбит/сек, 1150*490 (2,35:1), в 23,976 (24000/1001) кадра/сек, AVCАудио #1: русский, 384 Кбит/сек, 48 КГц, 16 бит, 5.1, AC3Аудио #2: английский, 448 Кбит/сек, 48 КГц, 16 бит, 5.1, AC3Навигация по главам: есть

MediaInfo

Общее Уникальный идентификатор : 228762960389326074259723654151425597344 (0xAC1A24C0385EBF9AB73AAA2E1E619FA0) Полное имя : M:2RipsDemolitionDemolition.2015.BDRip-AVC.Dub.2.18Gb.stalkerok.new-team.mkv Формат : Matroska Версия формата : Version 4 / Version 2 Размер файла : 2,14 Гбайт Продолжительность : 1 ч. 40 м. Общий поток : 3035 Кбит/сек Название фильма : Demolition (2015) (Rip by stalkerok) Дата кодирования : UTC 2016-07-19 19:04:52 Программа кодирования : mkvmerge v8.6.1 ('Flying') 64bit Библиотека кодирования : libebml v1.3.3 + libmatroska v1.4.4

Видео Идентификатор : 1 Формат : AVC Формат/Информация : Advanced Video Codec Профиль формата : [email protected] Параметр CABAC формата : Да Параметр ReFrames формата : 12 кадров Идентификатор кодека : V_MPEG4/ISO/AVC Продолжительность : 1 ч. 40 м. Битрейт : 2200 Кбит/сек Ширина : 1150 пикселей Высота : 490 пикселей Соотношение сторон : 2,35:1 Режим частоты кадров : Постоянный Частота кадров : 23,976 (24000/1001) кадра/сек Цветовое пространство : YUV Субдискретизация насыщенности : 4:2:0 Битовая глубина : 8 бит Тип развёртки : Прогрессивная Бит/(Пиксели*Кадры) : 0.163 Размер потока : 1,55 Гбайт (73%) Заголовок : Demolition (2015) (Rip by stalkerok) Библиотека кодирования : x264 core 148 r2705+54 9f484c1 t_mod_Custom [[email protected] X86_64] Настройки программы : cabac=1 / ref=12 / deblock=1:-3:-2 / analyse=0x3:0x133 / me=umh / subme=10 / psy=1 / fade_compensate=0.00 / psy_rd=1.00:0.00 / mixed_ref=1 / me_range=32 / chroma_me=1 / trellis=2 / 8x8dct=1 / cqm=0 / deadzone=21,11 / fast_pskip=0 / chroma_qp_offset=-2 / threads=12 / lookahead_threads=3 / sliced_threads=0 / nr=0 / decimate=0 / interlaced=0 / bluray_compat=0 / constrained_intra=0 / fgo=0 / bframes=13 / b_pyramid=2 / b_adapt=2 / b_bias=0 / direct=3 / weightb=1 / open_gop=0 / weightp=2 / keyint=240 / keyint_min=23 / scenecut=40 / intra_refresh=0 / rc_lookahead=60 / rc=2pass / mbtree=0 / bitrate=2200 / ratetol=1.0 / qcomp=0.65 / qpmin=0:0:0 / qpmax=69:69:69 / qpstep=4 / cplxblur=20.0 / qblur=0.5 / vbv_maxrate=50000 / vbv_bufsize=62500 / nal_hrd=none / filler=0 / ip_ratio=1.40 / pb_ratio=1.30 / aq=3:0.85 / aq-sensitivity=10.00 / aq-factor=1.00:1.00:1.00 / aq2=0 / aq3=0 Default : Да Forced : Нет

Аудио #1 Идентификатор : 2 Формат : AC-3 Формат/Информация : Audio Coding 3 Расширение режима : CM (complete main) Параметр Endianness формата : Big Идентификатор кодека : A_AC3 Продолжительность : 1 ч. 40 м. Вид битрейта : Постоянный Битрейт : 384 Кбит/сек Каналы : 6 каналов Расположение каналов : Front: L C R, Side: L R, LFE Частота : 48,0 КГц Частота кадров : 31,250 кадров/сек (1536 spf) Метод сжатия : С потерями Размер потока : 277 Мбайт (13%) Язык : Russian Default : Да Forced : Нет

Аудио #2 Идентификатор : 3 Формат : AC-3 Формат/Информация : Audio Coding 3 Расширение режима : CM (complete main) Параметр Endianness формата : Big Идентификатор кодека : A_AC3 Продолжительность : 1 ч. 40 м. Вид битрейта : Постоянный Битрейт : 448 Кбит/сек Каналы : 6 каналов Расположение каналов : Front: L C R, Side: L R, LFE Частота : 48,0 КГц Частота кадров : 31,250 кадров/сек (1536 spf) Метод сжатия : С потерями Размер потока : 323 Мбайт (15%) Язык : English Default : Нет Forced : Нет

Текст #1 Идентификатор : 4 Формат : UTF-8 Идентификатор кодека : S_TEXT/UTF8 Идентификатор кодека/Информация : UTF-8 Plain Text Продолжительность : 1 ч. 39 м. Битрейт : 51 бит/сек Count of elements : 1256 Размер потока : 37,5 Кбайт (0%) Язык : English Default : Нет Forced : Нет

Текст #2 Идентификатор : 5 Формат : UTF-8 Идентификатор кодека : S_TEXT/UTF8 Идентификатор кодека/Информация : UTF-8 Plain Text Продолжительность : 1 ч. 39 м. Битрейт : 57 бит/сек Count of elements : 1439 Размер потока : 41,8 Кбайт (0%) Заголовок : SDH Язык : English Default : Нет Forced : Нет

Меню 00:00:00.000 : en:Chapter 1 00:03:09.814 : en:Chapter 2 00:07:28.281 : en:Chapter 3 00:11:11.671 : en:Chapter 4 00:15:55.996 : en:Chapter 5 00:19:23.036 : en:Chapter 6 00:23:14.768 : en:Chapter 7 00:28:21.324 : en:Chapter 8 00:32:39.040 : en:Chapter 9 00:37:16.692 : en:Chapter 10 00:42:31.382 : en:Chapter 11 00:47:09.952 : en:Chapter 12 00:51:39.805 : en:Chapter 13 00:56:23.004 : en:Chapter 14 01:00:27.290 : en:Chapter 15 01:04:41.878 : en:Chapter 16 01:09:10.187 : en:Chapter 17 01:14:08.444 : en:Chapter 18 01:18:14.523 : en:Chapter 19 01:22:22.354 : en:Chapter 20 01:26:28.474 : en:Chapter 21 01:29:15.475 : en:Chapter 22 01:33:43.618 : en:Chapter 23 01:36:41.837 : en:Chapter 24

mrutor.org

Скачать торрент Разрушение / Demolition (2015) BDRemux 1080p от ExKinoRay

Информация о фильмеНазвание: РазрушениеОригинальное название: DemolitionГод выхода: 2015Жанр: Драма, комедияРежиссер: Жан-Марк ВаллеВ ролях: Джейк Джилленхол, Наоми Уоттс, Крис Купер, Джуда Льюис, С.Дж. Уилсон, Полли Дрэйпер, Мэлаки Клири, Дебра Монк, Хезер Линд, Уасс М. Стивенс

О фильме: Когда банкир Дэвис узнал, что его жена мертва, он захотел купить шоколадный батончик в торговом автомате, но тот оказался сломан. Переживая горе, Дэвис начинает крушить дом, мебель, машину, строчить жалобы в обслуживающую торговые автоматы фирму. А в письмах он… рассказывает историю своей любви. Скоро ему отвечает Карен, менеджер компании, но сможет ли она спасти Дэвиса из эмоциональной пропасти?...

Страна: СШАСтудия: Black Label Media, Mr. Mudd, Right of Way Films, Sidney Kimmel EntertainmentПродолжительность: 01:41:25Перевод: Любительский многоголосый (закадровый) | СПД

ФайлКодек: x264Качество: BDRemux 1080pВидео: 1920x1080, 29.4 Mbit/s, 23.976 fpsЗвук: Аудио #01: 48 kHz, AC3, 5.1, 384 Kbps | Любительский многоголосый (закадровый), СПД | Аудио #02: 48 kHz, DTS-HD MA, 5.1, 3224 kbps | Оригинал | Субтитры: Английские

Релиз от: Автор релиза:

MI

General Unique ID : 171208930050210227479220112039105077705 (0x80CDA3F8A9495CFA881B9AF63BA121C9) Complete name : F:VideoDemolition.2015.BDREMUX.1080p.ExKinoRay.mkv Format : Matroska Format version : Version 4 / Version 2 File size : 23.3 GiB Duration : 1h 40mn Overall bit rate mode : Variable Overall bit rate : 33.1 Mbps Movie name : Demolition.2015.BDREMUX.1080p.ExKinoRay Encoded date : UTC 2016-07-10 14:03:37 Writing application : mkvmerge v8.3.0 ('Over the Horizon') 64bit Writing library : libebml v1.3.1 + libmatroska v1.4.2

Video ID : 1 Format : AVC Format/Info : Advanced Video Codec Format profile : [email protected] Format settings, CABAC : Yes Format settings, ReFrames : 2 frames Codec ID : V_MPEG4/ISO/AVC Duration : 1h 40mn Bit rate mode : Variable Bit rate : 29.4 Mbps Width : 1 920 pixels Height : 1 080 pixels Display aspect ratio : 16:9 Frame rate mode : Constant Frame rate : 23.976 (24000/1001) fps Color space : YUV Chroma subsampling : 4:2:0 Bit depth : 8 bits Scan type : Progressive Bits/(Pixel*Frame) : 0.592 Stream size : 20.7 GiB (89%) Language : English Default : Yes Forced : No

Audio #1 ID : 2 Format : AC-3 Format/Info : Audio Coding 3 Mode extension : CM (complete main) Format settings, Endianness : Big Codec ID : A_AC3 Duration : 1h 40mn Bit rate mode : Constant Bit rate : 384 Kbps Channel(s) : 6 channels Channel positions : Front: L C R, Side: L R, LFE Sampling rate : 48.0 KHz Frame rate : 31.250 fps (1536 spf) Compression mode : Lossy Stream size : 277 MiB (1%) Title : MVO Language : Russian Default : Yes Forced : No

Audio #2 ID : 3 Format : DTS Format/Info : Digital Theater Systems Format profile : MA / Core Mode : 16 Format settings, Endianness : Big Codec ID : A_DTS Duration : 1h 40mn Bit rate mode : Variable / Constant Bit rate : 3 224 Kbps / 1 509 Kbps Channel(s) : 6 channels Channel positions : Front: L C R, Side: L R, LFE Sampling rate : 48.0 KHz Frame rate : 93.750 fps (512 spf) Bit depth : 24 bits Compression mode : Lossless / Lossy Stream size : 2.27 GiB (10%) Title : Original Language : English Default : No Forced : No

Text #1 ID : 4 Format : UTF-8 Codec ID : S_TEXT/UTF8 Codec ID/Info : UTF-8 Plain Text Duration : 1h 39mn Bit rate : 51 bps Count of elements : 1256 Stream size : 37.6 KiB (0%) Title : Full Language : English Default : No Forced : No

Text #2 ID : 5 Format : UTF-8 Codec ID : S_TEXT/UTF8 Codec ID/Info : UTF-8 Plain Text Duration : 1h 39mn Bit rate : 57 bps Count of elements : 1439 Stream size : 41.9 KiB (0%) Title : SDH Language : English Default : No Forced : No

Menu 00:00:00.000 : en:Chapter 1 00:03:09.815 : en:Chapter 2 00:07:28.281 : en:Chapter 3 00:11:11.671 : en:Chapter 4 00:15:55.997 : en:Chapter 5 00:19:23.037 : en:Chapter 6 00:23:14.768 : en:Chapter 7 00:28:21.325 : en:Chapter 8 00:32:39.040 : en:Chapter 9 00:37:16.693 : en:Chapter 10 00:42:31.382 : en:Chapter 11 00:47:09.952 : en:Chapter 12 00:51:39.805 : en:Chapter 13 00:56:23.005 : en:Chapter 14 01:00:27.290 : en:Chapter 15 01:04:41.878 : en:Chapter 16 01:09:10.188 : en:Chapter 17 01:14:08.444 : en:Chapter 18 01:18:14.523 : en:Chapter 19 01:22:22.354 : en:Chapter 20 01:26:28.475 : en:Chapter 21 01:29:15.475 : en:Chapter 22 01:33:43.618 : en:Chapter 23 01:36:41.838 : en:Chapter 24

krutor.org

Скачать фильм Разрушение через торрент в хорошем качестве бесплатно HDRip

Раздают: 1 [ 0 KB/s ]
Размер: 2.04 GB | Добавлен: 1 год 3 мес. назад | Торрент скачан:1158 раз
Реклама Дарим 3000 рублей за регистрацию, не упусти свой шанс получить шикарный бонус!!!

18-07-2016 06:33 Разрушение Скачать торрент  

Разрушение / Demolition Год выхода: 2015Жанр: Драма, комедияСтрана: СШАСтудия: Black Label Media, Mr. Mudd, Right of Way Films, Sidney Kimmel EntertainmentПродолжительность: 01:41:25Перевод: Дублированный [Лицензия / iTunes]Субтитры: нет

Режиссер: Жан-Марк Валле

В ролях: Джейк Джилленхол, Наоми Уоттс, Крис Купер, Джуда Льюис, С.Дж. Уилсон, Полли Дрэйпер, Мэлаки Клири, Дебра Монк, Хезер Линд, Уасс М. Стивенс

Описание: Когда банкир Дэвис узнал, что его жена мертва, он захотел купить шоколадный батончик в торговом автомате, но тот оказался сломан. Переживая горе, Дэвис начинает крушить дом, мебель, машину, строчить жалобы в обслуживающую торговые автоматы фирму. А в письмах он… рассказывает историю своей любви. Скоро ему отвечает Карен, менеджер компании, но сможет ли она спасти Дэвиса из эмоциональной пропасти?...

Качество: HDRipФормат: AVIВидео: XviD, 2129 Кбит/с, 720x304, 23.976 fpsЗвук: Аудио #01: 48 kHz, AC3, 5.1, 384 Kbps | Дубляж | Аудио #02: 48 kHz, AC3, 5.1, 384 Kbps | Оригинал |

Скачать Разрушение через торрент http://i80.fastpic.ru/big/2016/0718/38/16fe00359343b5967801994b52ecce38.jpg Скачать фильм Разрушение через торрент бесплантно в хорошем качестве Описание: Когда банкир Дэвис узнал, что его жена мертва, он захотел купить шоколадный батончик в торговом автомате, но тот оказался ... 2016-07-18 06:33 9.2 10 25

Loading...

Loading...

% Раздел Тема Автор DL S | L
Фильмы 2015 [DVDrip, WEB-DLRip, HDrip] [ 1.46 GB ] Разрушение / Demolition [2015 BDRip] RUS Transfer Twi7ter Скачать
Фильмы [HD 720p, 1080p] (Хороший звук DUB, MVO) [ 6.75 GB ] Разрушение / Demolition [2015 BDRip 1080p от еnvy / NNNB] DUB / еnvy Скачать
Фильмы (Blu-ray, BD-Remux, HDDVD) [ 18.51 GB ] Разрушение / Demolition [2015 Blu-Ray RUS] Russian Mafia Скачать
Фильмы без перевода [ 23.09 GB ] Разрушение / Demolition [2015 BD Remux [Оригинал] smaster Скачать
Фильмы 2015 [DVDrip, WEB-DLRip, HDrip] [ 1.41 GB ] Разрушение / Demolition [2015 BDRip ] Twi7ter Скачать
Фильмы 2015 [DVDrip, WEB-DLRip, HDrip] [ 1.41 GB ] Разрушение / Demolition [2015 BDRip-AVC от sokol_ok] Dub sokol_ok Скачать
Фильмы [HD 720p, 1080p] (Хороший звук DUB, MVO) [ 12.29 GB ] Разрушение / Demolition [2015 BDRip 1080p] ] -Lexx- Скачать

Рекламный пират

18-07-2016 10:14 Разрушение Скачать торрент  

18-07-2016 20:14 Разрушение Скачать торрент  

Хороший фильм

18-07-2016 21:21 Разрушение Скачать торрент  

dimos882, картман плохого не посоветует, качаю

20-07-2016 17:53 Разрушение Скачать торрент  

Хороший Муть фильм

Дорогой пользователь! Огромная просьба, поблагодарите релизера, оцените раздачу и оставьте свои комментарий, если Вы скачали Разрушение через торрент бесплатно! Внесите свою лепту в развитие PiratBit!

Комментировать посты могут только пользователи прошедшие не сложную регистрацию

Разрушение через торрент Скачать бесплатно Разрушение Разрушение скачать торрент Разрушение смотреть онлайн Cкачать фильм Разрушение бесплатно Разрушение скачать торрент в хорошем качестве Разрушение смотреть онлайн бесплатно в хорошем качестве

Вы не можете начинать темыВы не можете отвечать на сообщенияВы не можете редактировать свои сообщенияВы не можете удалять свои сообщенияВы не можете голосовать в опросахВы не можете прикреплять файлы к сообщениямВы можете скачивать файлы

piratbit.ru

Разрушение (2015) hd 720p скачать торрент в хорошем качестве

Год выпуска: 2015Страна: СШАЖанр: драма, комедияПродолжительность: 01:41:23Перевод: Профессиональный (полное дублирование) [Лицензия]Субтитры: нет

В ролях: Джейк Джилленхол, Наоми Уоттс, Крис Купер, Джуда Льюис, С.Дж. Уилсон, Полли Дрэйпер, Мэлаки Клири, Дебра Монк, Хезер Линд, Уасс М. Стивенс

Описание: Когда банкир Дэвис узнал, что его жена мертва, он захотел купить шоколадный батончик в торговом автомате, но тот оказался сломан. Переживая горе, Дэвис начинает крушить дом, мебель, машину, строчить жалобы в обслуживающую торговые автоматы фирму. А в письмах он… рассказывает историю своей любви. Скоро ему отвечает Карен, менеджер компании, но сможет ли она спасти Дэвиса из эмоциональной пропасти?..

Видео: 1280х544, 23.976 fps, AVC ~5523 kbps avgАудио: 48 kHz, AC3 Dolby Digital, 3/2 (L,C,R,l,r) + LFE ch, ~640 kbps

Demolition.2015.720p_BDRip__[scarabey.org].mkvФормат : MatroskaВерсия формата : Version 4 / Version 2Размер файла : 4,25 ГбайтПродолжительность : 1 ч. 40 м.Общий поток : 6027 Кбит/секДата кодирования : UTC 2016-08-17 11:25:01Программа кодирования : mkvmerge v6.1.0 ('Old Devil') built on Mar 4 2013 09:10:42Библиотека кодирования : libebml v1.3.0 + libmatroska v1.4.0

ВидеоИдентификатор : 1Формат : AVCФормат/Информация : Advanced Video CodecПрофиль формата : [email protected]Параметр CABAC формата : ДаПараметр ReFrames формата : 12 кадровИдентификатор кодека : V_MPEG4/ISO/AVCПродолжительность : 1 ч. 40 м.Битрейт : 5523 Кбит/секШирина : 1280 пикселейВысота : 544 пикселяСоотношение сторон : 2,35:1Режим частоты кадров : ПостоянныйЧастота кадров : 23,976 (24000/1001) кадра/секЦветовое пространство : YUVСубдискретизация насыщенности : 4:2:0Битовая глубина : 8 битТип развёртки : ПрогрессивнаяБит/(Пиксели*Кадры) : 0.331Размер потока : 3,89 Гбайт (92%)Библиотека кодирования : x264 core 148 r2705kMod 3f5ed56Настройки программы : cabac=1 / ref=12 / deblock=1:-3:-3 / analyse=0x3:0x133 / me=umh / subme=10 / psy=1 / fade_compensate=0.00 / psy_rd=1.00:0.00 / mixed_ref=1 / me_range=24 / chroma_me=1 / trellis=2 / 8x8dct=1 / cqm=0 / deadzone=21,11 / fast_pskip=0 / chroma_qp_offset=-2 / threads=12 / lookahead_threads=2 / sliced_threads=0 / nr=0 / decimate=0 / interlaced=0 / bluray_compat=0 / constrained_intra=0 / fgo=0 / bframes=9 / b_pyramid=2 / b_adapt=2 / b_bias=0 / direct=3 / weightb=1 / open_gop=0 / weightp=2 / keyint=250 / keyint_min=23 / scenecut=40 / intra_refresh=0 / rc_lookahead=60 / rc=crf / mbtree=0 / crf=16.3000 / qcomp=0.65 / qpmin=0 / qpmax=69 / qpstep=4 / vbv_maxrate=62500 / vbv_bufsize=78125 / crf_max=0.0 / nal_hrd=none / filler=0 / ip_ratio=1.30 / pb_ratio=1.20 / aq=3:0.80Язык : EnglishDefault : ДаForced : НетЦветовой диапазон : LimitedКоэффициенты матрицы : BT.709

АудиоИдентификатор : 2Формат : AC-3Формат/Информация : Audio Coding 3Расширение режима : CM (complete main)Параметр Endianness формата : BigИдентификатор кодека : A_AC3Продолжительность : 1 ч. 40 м.Вид битрейта : ПостоянныйБитрейт : 640 Кбит/секКаналы : 6 каналовРасположение каналов : Front: L C R, Side: L R, LFEЧастота : 48,0 КГцЧастота кадров : 31,250 кадров/сек (1536 spf)Метод сжатия : С потерямиРазмер потока : 277 Мбайт (6%)Заголовок : Дубляж - ЛицензияЯзык : RussianDefault : ДаForced : Нет

Меню00:00:00.000 : en:00:00:00.00000:03:09.815 : en:00:03:09.81500:07:28.281 : en:00:07:28.28100:11:11.671 : en:00:11:11.67100:15:55.997 : en:00:15:55.99700:19:23.037 : en:00:19:23.03700:23:14.768 : en:00:23:14.76800:28:21.325 : en:00:28:21.32500:32:39.040 : en:00:32:39.04000:37:16.693 : en:00:37:16.69300:42:31.382 : en:00:42:31.38200:47:09.952 : en:00:47:09.95200:51:39.805 : en:00:51:39.80500:56:23.005 : en:00:56:23.00501:00:27.290 : en:01:00:27.29001:04:41.878 : en:01:04:41.87801:09:10.188 : en:01:09:10.18801:14:08.444 : en:01:14:08.44401:18:14.523 : en:01:18:14.52301:22:22.354 : en:01:22:22.35401:26:28.475 : en:01:26:28.47501:29:15.475 : en:01:29:15.47501:33:43.618 : en:01:33:43.61801:36:41.838 : en:01:36:41.838

rutorg2.ru

Скачать фильм Разрушение через торрент в хорошем качестве бесплатно HDRip

Размер: 1.46 GB | Добавлен: 1 год 3 мес. назад | Торрент скачан:518 раз
Реклама Дарим 3000 рублей за регистрацию, не упусти свой шанс получить шикарный бонус!!!

18-07-2016 04:16 Разрушение Скачать торрент  

Разрушение / Demolition«LIFE: Some Disassembly Required»
  • Год выхода: 2015
  • Жанр: драма
  • Страна: США
  • Продолжительность: 01:40:52
  • Перевод: Дубляж - [Лицензия / iTunes]
  • Режиссер: Жан-Марк Валле
  • В ролях: Джейк Джилленхол (Davis), Наоми Уоттс (Karen), Крис Купер (Phil), Джуда Льюис (Chris), С.Дж. Уилсон (Carl), Полли Дрэйпер (Margot), Мэлаки Клири (Davis' Dad), Дебра Монк (Davis' Mom), Хезер Линд (Julia), Уасс М. Стивенс (Jimmy), Блэйр Брукс (Amy), Бен Коул (Steven)
  • Когда Дэвис узнал, что его жена умерла, он захотел купить шоколадные конфеты в торговом автомате, но пачка застряла. Пытаясь выяснить, почему он ничего не чувствует по поводу смерти жены, Дэвис начинает писать длинные письма в обслуживающую торговые автоматы фирму. А в письмах он рассказывает о себе и об отношениях с погибшей женой. Скоро ему отвечает Карен, менеджер компании. Попутно Дэвис понимает, что ему совершенно необходимо разобрать холодильник, разломать кабинку туалета, рабочий компьютер и разрушить собственный дом.
  • Качество: HDRip
  • Формат: AVI
  • Видео кодек: XviD
  • Аудио кодек: AC3
  • Видео: XviD, 720x304 (2.35:1), 1601 kbps, 23,976 fps, 0,305 bpp
  • Аудио: AC3 / 5.1 / 48 kHz / 384 kbps / 16 bit
  • Код:

    GeneralComplete name                            : E:\Razrushenie.2015.D.HDRip.1490MB.aviFormat                                   : AVIFormat/Info                              : Audio Video InterleaveFile size                                : 1.46 GiBDuration                                 : 1h 40mnOverall bit rate                         : 2 077 KbpsWriting application                      : VirtualDubMod 1.5.10.2 (build 2540/release)Writing library                          : VirtualDubMod build 2540/release

    VideoID                                       : 0Format                                   : MPEG-4 VisualFormat profile                           : Advanced [email protected] settings, BVOP                    : 1Format settings, QPel                    : NoFormat settings, GMC                     : No warppointsFormat settings, Matrix                  : CustomCodec ID                                 : XVIDCodec ID/Hint                            : XviDDuration                                 : 1h 40mnBit rate                                 : 1 602 KbpsWidth                                    : 720 pixelsHeight                                   : 304 pixelsDisplay aspect ratio                     : 2.35:1Frame rate                               : 23.976 fpsColor space                              : YUVChroma subsampling                       : 4:2:0Bit depth                                : 8 bitsScan type                                : ProgressiveCompression mode                         : LossyBits/(Pixel*Frame)                       : 0.305Stream size                              : 1.13 GiB (77%)Writing library                          : XviD 73

    AudioID                                       : 1Format                                   : AC-3Format/Info                              : Audio Coding 3Mode extension                           : CM (complete main)Codec ID                                 : 2000Duration                                 : 1h 40mnBit rate mode                            : ConstantBit rate                                 : 384 KbpsChannel(s)                               : 6 channelsChannel positions                        : Front: L C R, Side: L R, LFESampling rate                            : 48.0 KHzBit depth                                : 16 bitsCompression mode                         : LossyStream size                              : 277 MiB (18%)Alignment                                : Split accross interleaves

    Скриншоты: © Оформление by -Lexx- Скачать Разрушение через торрент http://pic.pb.wtf/images/6/stazu.jpg Скачать фильм Разрушение через торрент бесплантно в хорошем качестве qw.png Когда Дэвис узнал, что его жена умерла, он захотел купить шоколадные конфеты в торговом автомате, но пачка застряла. Пытаясь ... 2016-07-18 04:16 10 10 10

    Loading...

    Loading...

    % Раздел Тема Автор DL S | L
    Фильмы [HD 720p, 1080p] (Хороший звук DUB, MVO) [ 6.75 GB ] Разрушение / Demolition [2015 BDRip 1080p от еnvy / NNNB] DUB / еnvy Скачать
    Фильмы 2015 [DVDrip, WEB-DLRip, HDrip] [ 1.41 GB ] Разрушение / Demolition [2015 BDRip ] Twi7ter Скачать
    Фильмы 2015 [DVDrip, WEB-DLRip, HDrip] [ 1.41 GB ] Разрушение / Demolition [2015 BDRip-AVC от sokol_ok] Dub sokol_ok Скачать
    Фильмы [HD 720p, 1080p] (Хороший звук DUB, MVO) [ 12.29 GB ] Разрушение / Demolition [2015 BDRip 1080p] ] -Lexx- Скачать
    Фильмы (Blu-ray, BD-Remux, HDDVD) [ 23.29 GB ] Разрушение / Demolition [2015 Blu-Ray Remux] [1080p] killermax2013 Скачать
    Фильмы 2015 [DVDrip, WEB-DLRip, HDrip] [ 2.14 GB ] Разрушение / Demolition [2015 BDRip-AVC от sokol_ok] Dub sokol_ok Скачать
    Фильмы 2015 [DVDrip, WEB-DLRip, HDrip] [ 2.04 GB ] Разрушение / Demolition [2015 HDRip] killermax2013 Скачать

    Рекламный пират

    18-07-2016 07:22 Разрушение Скачать торрент  

    Цитата:

    Разрушение / Demolition (Жан-Марк Валле) [2015, драма, HDRip] Дубляж - [Лицензия / iTunes]

    Описание фильма , конечно очень оригинальное.........

    Дорогой пользователь! Огромная просьба, поблагодарите релизера, оцените раздачу и оставьте свои комментарий, если Вы скачали Разрушение через торрент бесплатно! Внесите свою лепту в развитие PiratBit!

    Комментировать посты могут только пользователи прошедшие не сложную регистрацию

    Разрушение через торрент Скачать бесплатно Разрушение Разрушение скачать торрент Разрушение смотреть онлайн Cкачать фильм Разрушение бесплатно Разрушение скачать торрент в хорошем качестве Разрушение смотреть онлайн бесплатно в хорошем качестве

    Вы можете начинать темыВы можете отвечать на сообщенияВы не можете редактировать свои сообщенияВы не можете удалять свои сообщенияВы не можете голосовать в опросахВы не можете прикреплять файлы к сообщениямВы можете скачивать файлы

    piratbit.ru

    Скачать фильм Разрушение через торрент в хорошем качестве бесплатно BDRip от Twi7ter

    Раздают: 3 [ 0 KB/s ]
    Размер: 1.41 GB | Добавлен: 1 год 3 мес. назад | Торрент скачан:1990 раз
    Реклама Дарим 3000 рублей за регистрацию, не упусти свой шанс получить шикарный бонус!!!

    21-07-2016 19:38 Разрушение Скачать торрент  

    Разрушение / Demolition

    «LIFE: Some Disassembly Required»

    Год выпуска: 2015Страна: СШАЖанр: драмаПродолжительность: 01:40:53Перевод: Профессиональный (полное дублирование) [iTunes]Субтитры: НетРежиссер: Жан-Марк Валле / Jean-Marc ValléeВ ролях: Джейк Джилленхол (Davis), Наоми Уоттс (Karen), Крис Купер (Phil), Джуда Льюис (Chris), С.Дж. Уилсон (Carl), Полли Дрэйпер (Margot), Мэлаки Клири (Davis' Dad), Дебра Монк (Davis' Mom), Хезер Линд (Julia), Уасс М. Стивенс (Jimmy), Блэйр Брукс (Amy), Бен Коул (Steven)Описание: Когда Дэвис узнал, что его жена умерла, он захотел купить шоколадные конфеты в торговом автомате, но пачка застряла. Пытаясь выяснить, почему он ничего не чувствует по поводу смерти жены, Дэвис начинает писать длинные письма в обслуживающую торговые автоматы фирму. А в письмах он рассказывает о себе и об отношениях с погибшей женой. Скоро ему отвечает Карен, менеджер компании. Попутно Дэвис понимает, что ему совершенно необходимо разобрать холодильник, разломать кабинку туалета, рабочий компьютер и разрушить собственный дом.Рейтинг:

    MPAA: R - Лицам до 17 лет обязательно присутствие взрослого

    Качество: BDRip | исх. Demolition.2015.1080p.BluRay.AVC.DTS-HD.MA.5.1 |Формат: AVIВидео кодек: XviDАудио кодек: AC3Видео: 720x304 (2.37:1), 23.976 fps, XviD build 73 ~1615 kbps avg, 0.31 bit/pixelАудио: 48 kHz, AC3 Dolby Digital, 3/2 (L,C,R,l,r) + LFE ch, ~384 kbps

    Релиз: &

    Скачать Разрушение через торрент http://s018.radikal.ru/i502/1607/f1/3315ed4e96a1.png Скачать фильм Разрушение через торрент бесплантно в хорошем качестве Описание: Когда Дэвис узнал, что его жена умерла, он захотел купить шоколадные конфеты в торговом автомате, но пачка застряла. Пытаясь ... 2016-07-21 19:38 9.5 10 30

    Loading...

    Loading...

    % Раздел Тема Автор DL S | L
    Фильмы [HD 720p, 1080p] (Хороший звук DUB, MVO) [ 6.75 GB ] Разрушение / Demolition [2015 BDRip 1080p от еnvy / NNNB] DUB / еnvy Скачать
    Фильмы 2015 [DVDrip, WEB-DLRip, HDrip] [ 1.41 GB ] Разрушение / Demolition [2015 BDRip-AVC от sokol_ok] Dub sokol_ok Скачать
    Фильмы [HD 720p, 1080p] (Хороший звук DUB, MVO) [ 12.29 GB ] Разрушение / Demolition [2015 BDRip 1080p] ] -Lexx- Скачать
    Фильмы (Blu-ray, BD-Remux, HDDVD) [ 23.29 GB ] Разрушение / Demolition [2015 Blu-Ray Remux] [1080p] killermax2013 Скачать
    Фильмы 2015 [DVDrip, WEB-DLRip, HDrip] [ 2.14 GB ] Разрушение / Demolition [2015 BDRip-AVC от sokol_ok] Dub sokol_ok Скачать
    Фильмы 2015 [DVDrip, WEB-DLRip, HDrip] [ 2.04 GB ] Разрушение / Demolition [2015 HDRip] killermax2013 Скачать

    Рекламный пират

    21-07-2016 19:47 Разрушение Скачать торрент  

    не охото смотреть если по чеснокузря иль нет? 7

    22-07-2016 02:29 Разрушение Скачать торрент  

    bober100 писал(а):

    Да разок можно польнуть)

    сенкс так и сделаю

    26-07-2016 17:38 Разрушение Скачать торрент  

    откровенно не тянет на свой рейтинг

    28-07-2016 16:34 Разрушение Скачать торрент  

    Благодарю за релиз. Фильм смотреть нужно внимательно, стараясь проникнуться переживаниями главного героя. Иначе рискуешь потерять интерес. На любителя картина. От меня 10 за раздачу, 8 звезд на Кинопоиске за кино.

    31-07-2016 10:41 Разрушение Скачать торрент  

    хороший фильм для хороших людей.любителям покопаться в себе самое то.

    06-08-2016 10:38 Разрушение Скачать торрент  

    спасибо за кино, посмотрим и оценим

    08-08-2016 07:26 Разрушение Скачать торрент  

    Сил досмотреть не хватило, наверное не могу "копаться в себе"!!!

    08-08-2016 10:50 Разрушение Скачать торрент  

    Pекламный агент PB

    11-08-2016 13:11 Разрушение Скачать торрент  

    чущь фильм ЩИЗА 2/10 откуда 7!!!

    Дорогой пользователь! Огромная просьба, поблагодарите релизера, оцените раздачу и оставьте свои комментарий, если Вы скачали Разрушение через торрент бесплатно! Внесите свою лепту в развитие PiratBit!

    Комментировать посты могут только пользователи прошедшие не сложную регистрацию

    Разрушение через торрент Скачать бесплатно Разрушение Разрушение скачать торрент Разрушение смотреть онлайн Cкачать фильм Разрушение бесплатно Разрушение скачать торрент в хорошем качестве Разрушение смотреть онлайн бесплатно в хорошем качестве

    Вы не можете начинать темыВы не можете отвечать на сообщенияВы не можете редактировать свои сообщенияВы не можете удалять свои сообщенияВы не можете голосовать в опросахВы не можете прикреплять файлы к сообщениямВы можете скачивать файлы

    piratbit.ru

    Скачать фильм Разрушение через торрент в хорошем качестве бесплатно 1080p

    GeneralUnique ID : 222256237850836654671809743883422837091 (0xA734FE8FB6627AAABD43D8216252A963)Complete name : F:\Video\Demolition.2015.D.BDREMUX.1080p.ExKinoRay.mkvFormat : MatroskaFormat version : Version 4 / Version 2File size : 23.3 GiBDuration : 1h 40mnOverall bit rate mode : VariableOverall bit rate : 33.1 MbpsMovie name : Demolition.2015.D.BDREMUX.1080p.ExKinoRayEncoded date : UTC 2016-07-18 01:31:26Writing application : mkvmerge v8.3.0 ('Over the Horizon') 64bitWriting library : libebml v1.3.1 + libmatroska v1.4.2

    VideoID : 1Format : AVCFormat/Info : Advanced Video CodecFormat profile : [email protected] settings, CABAC : YesFormat settings, ReFrames : 2 framesCodec ID : V_MPEG4/ISO/AVCDuration : 1h 40mnBit rate mode : VariableBit rate : 29.4 MbpsWidth : 1 920 pixelsHeight : 1 080 pixelsDisplay aspect ratio : 16:9Frame rate mode : ConstantFrame rate : 23.976 (24000/1001) fpsColor space : YUVChroma subsampling : 4:2:0Bit depth : 8 bitsScan type : ProgressiveBits/(Pixel*Frame) : 0.592Stream size : 20.7 GiB (89%)Language : EnglishDefault : YesForced : No

    Audio #1ID : 2Format : AC-3Format/Info : Audio Coding 3Mode extension : CM (complete main)Format settings, Endianness : BigCodec ID : A_AC3Duration : 1h 40mnBit rate mode : ConstantBit rate : 384 KbpsChannel(s) : 6 channelsChannel positions : Front: L C R, Side: L R, LFESampling rate : 48.0 KHzFrame rate : 31.250 fps (1536 spf)Compression mode : LossyStream size : 277 MiB (1%)Title : DUB [iTunes]Language : RussianDefault : YesForced : No

    Audio #2ID : 3Format : DTSFormat/Info : Digital Theater SystemsFormat profile : MA / CoreMode : 16Format settings, Endianness : BigCodec ID : A_DTSDuration : 1h 40mnBit rate mode : Variable / ConstantBit rate : 3 224 Kbps / 1 509 KbpsChannel(s) : 6 channelsChannel positions : Front: L C R, Side: L R, LFESampling rate : 48.0 KHzFrame rate : 93.750 fps (512 spf)Bit depth : 24 bitsCompression mode : Lossless / LossyStream size : 2.27 GiB (10%)Title : OriginalLanguage : EnglishDefault : NoForced : No

    Text #1ID : 4Format : UTF-8Codec ID : S_TEXT/UTF8Codec ID/Info : UTF-8 Plain TextDuration : 1h 39mnBit rate : 51 bpsCount of elements : 1256Stream size : 37.6 KiB (0%)Title : FullLanguage : EnglishDefault : NoForced : No

    Text #2ID : 5Format : UTF-8Codec ID : S_TEXT/UTF8Codec ID/Info : UTF-8 Plain TextDuration : 1h 39mnBit rate : 57 bpsCount of elements : 1439Stream size : 41.9 KiB (0%)Title : SDHLanguage : EnglishDefault : NoForced : No

    Menu00:00:00.000 : en:00:00:00.00000:03:09.815 : en:00:03:09.81500:07:28.281 : en:00:07:28.28100:11:11.671 : en:00:11:11.67100:15:55.997 : en:00:15:55.99700:19:23.037 : en:00:19:23.03700:23:14.768 : en:00:23:14.76800:28:21.325 : en:00:28:21.32500:32:39.040 : en:00:32:39.04000:37:16.693 : en:00:37:16.69300:42:31.382 : en:00:42:31.38200:47:09.952 : en:00:47:09.95200:51:39.805 : en:00:51:39.80500:56:23.005 : en:00:56:23.00501:00:27.290 : en:01:00:27.29001:04:41.878 : en:01:04:41.87801:09:10.188 : en:01:09:10.18801:14:08.444 : en:01:14:08.44401:18:14.523 : en:01:18:14.52301:22:22.354 : en:01:22:22.35401:26:28.475 : en:01:26:28.47501:29:15.475 : en:01:29:15.47501:33:43.618 : en:01:33:43.61801:36:41.838 : en:01:36:41.838[/code]

    piratbit.ru


    Смотрите также