Пробуждение зодиака 2017 скачать торрент в хорошем качестве hd 1080


Пробуждение Зодиака (2017) HD 1080p скачать торрент в хорошем качестве

Производство: Канада, Bunk 11 Pictures, TAJJ MediaЖанр: Триллер

Режиссер: Джонатан Райт Актеры: Шейн Уэст, Лесли Бибб, Мэтт Крэйвен, Стивен МакХэтти, Николас Кэмпбелл, Кеннет Уэлш, Джейсон Хук, Джон Брегар, Ева Линк

Описание:У семейной пары Мика и Зои плачевное финансовое положение — они живут в трейлере, и Мик перебивается случайными подработками. Однажды к ним в руки попадают старые киноплёнки, которые оказываются снятыми известным серийным убийцей Зодиаком. Тот орудовал в конце 60-х годов в Сан-Франциско и так и не был пойман. Прельстившись наградой в 100000 долларов, они не относят плёнки в полицию, а вместе с другом, содержащим ломбард, пытаются вычислить Зодиака самостоятельно.

Дата мировой премьеры: 9 июня 2017Дата российской премьеры: НеизвестноПродолжительность: 01:40:00Качество видео: WEB-DLПеревод: Любительский, одноголосый [Хихикающий доктор] Субтитры: Русские, английскиеРеклама: перед фильмом голосовая реклама.

Видео: AVC/H.264, 1908х976, ~4457 KbpsАудио 1: Русский (АС3, 6 ch, 384 Кбит/с)Аудио 2: Английский (AC3, 6 ch, 384 Кбит/с)

ОбщееУникальный идентификатор : 176659233076529307123151305882406368121 (0x84E754A8538F999A944F8192352E3379)Полное имя : E:MMMMAwakening.the.Zodiac.2017.1080p.WEB-DL.h364.mkvФормат : MatroskaВерсия формата : Version 4 / Version 2Размер файла : 3,72 ГбайтПродолжительность : 1 ч. 40 м.Общий поток : 5331 Кбит/секНазвание фильма : Awakening.the.Zodiac.2017Дата кодирования : UTC 2017-05-16 18:21:56Программа кодирования : mkvmerge v6.9.1 ('Blue Panther') 64bit built on Apr 18 2014 18:23:38Библиотека кодирования : libebml v1.3.0 + libmatroska v1.4.1Обложка : YesAttachments : small_cover.jpg / small_cover_land.jpg / cover.jpg / cover_land.jpg

ВидеоИдентификатор : 1Формат : AVCФормат/Информация : Advanced Video CodecПрофиль формата : [email protected]Параметр CABAC формата : ДаПараметр ReFrames формата : 5 кадровИдентификатор кодека : V_MPEG4/ISO/AVCПродолжительность : 1 ч. 40 м.Битрейт : 4457 Кбит/секШирина : 1920 пикселейВысота : 796 пикселейСоотношение сторон : 2,40:1Режим частоты кадров : ПостоянныйЧастота кадров : 23,976 (24000/1001) кадра/секЦветовое пространство : YUVСубдискретизация насыщенности : 4:2:0Битовая глубина : 8 битТип развёртки : ПрогрессивнаяБит/(Пиксели*Кадры) : 0.122Размер потока : 3,11 Гбайт (84%)Заголовок : Awakening.the.Zodiac.2017Язык : EnglishDefault : ДаForced : НетЦветовой диапазон : LimitedОсновные цвета : BT.709Характеристики трансфера : BT.709Коэффициенты матрицы : BT.709

Аудио #1Идентификатор : 2Формат : AC-3Формат/Информация : Audio Coding 3Расширение режима : CM (complete main)Параметр Endianness формата : BigИдентификатор кодека : A_AC3Продолжительность : 1 ч. 40 м.Вид битрейта : ПостоянныйБитрейт : 384 Кбит/секКаналы : 6 каналовРасположение каналов : Front: L C R, Side: L R, LFEЧастота : 48,0 КГцЧастота кадров : 31,250 кадров/сек (1536 spf)Метод сжатия : С потерямиРазмер потока : 275 Мбайт (7%)Заголовок : xixidoktorЯзык : RussianDefault : ДаForced : Нет

Аудио #2Идентификатор : 3Формат : AC-3Формат/Информация : Audio Coding 3Расширение режима : CM (complete main)Параметр Endianness формата : BigИдентификатор кодека : A_AC3Продолжительность : 1 ч. 40 м.Вид битрейта : ПостоянныйБитрейт : 384 Кбит/секКаналы : 6 каналовРасположение каналов : Front: L C R, Side: L R, LFEЧастота : 48,0 КГцЧастота кадров : 31,250 кадров/сек (1536 spf)Метод сжатия : С потерямиРазмер потока : 275 Мбайт (7%)Заголовок : originalЯзык : EnglishDefault : НетForced : Нет

Текст #1Идентификатор : 4Формат : UTF-8Идентификатор кодека : S_TEXT/UTF8Идентификатор кодека/Информация : UTF-8 Plain TextЯзык : RussianDefault : НетForced : Нет

Текст #2Идентификатор : 5Формат : UTF-8Идентификатор кодека : S_TEXT/UTF8Идентификатор кодека/Информация : UTF-8 Plain TextЯзык : EnglishDefault : НетForced : Нет

Меню00:00:00.000 : en:100:05:16.024 : en:200:12:16.736 : en:300:17:36.722 : en:400:23:33.995 : en:500:29:34.271 : en:600:36:26.599 : en:700:44:18.696 : en:800:48:23.357 : en:900:53:29.913 : en:1001:00:02.388 : en:1101:06:43.789 : en:1201:12:27.048 : en:1301:18:00.256 : en:1401:24:03.369 : en:1501:33:50.789 : en:16

Фильм с двумя дорогами и русскими субтитрами. Наслаждайтесь.Отзыв от Хихидока.Тема про маньяка-Зодиака не дает покоя режиссерам. Новый фильм пытается размотать клубок по новому, куда делся убийца, которого так и не поймали.По большей части, это детектив, События развиваются постепенно и достигают апогея после часа расследования. Муж и жена решают раскрыть тайну Зодиака и задно получить награду за указание его местонахождения. Вместе с другом, эта троица, огребает по полной программе. Понравились диалоги, постоянная пикировка между мужем и женой разбавляет неспешный сюжет. Дам 6 балов из 10

rutorg2.ru

Скачать торрент Пробуждение Зодиака / Awakening the Zodiac (2017) WEB-DL 1080p

Производство: Канада, Bunk 11 Pictures, TAJJ MediaЖанр: Триллер

Режиссер: Джонатан Райт Актеры: Шейн Уэст, Лесли Бибб, Мэтт Крэйвен, Стивен МакХэтти, Николас Кэмпбелл, Кеннет Уэлш, Джейсон Хук, Джон Брегар, Ева Линк

Описание: Молодая девушка пытается спасти себя и своих друзей от древнего зла, которое нападает на свои жертвы во время так называемого «сонного паралича»

Дата мировой премьеры: 9 июня 2017Дата российской премьеры: НеизвестноПродолжительность: 01:40:00Качество видео: WEB-DLПеревод: Любительский, одноголосый [Хихикающий доктор] Субтитры: Русские, английскиеРеклама: перед фильмом голосовая реклама.

Скрытый текст

Видео: AVC/H.264, 1908х976, ~4457 KbpsАудио 1: Русский (АС3, 6 ch, 384 Кбит/с)Аудио 2: Английский (AC3, 6 ch, 384 Кбит/с)

Семпл

Mediainfo:

Общее Уникальный идентификатор : 176659233076529307123151305882406368121 (0x84E754A8538F999A944F8192352E3379) Полное имя : E:MMMMAwakening.the.Zodiac.2017.1080p.WEB-DL.h364.mkv Формат : Matroska Версия формата : Version 4 / Version 2 Размер файла : 3,72 Гбайт Продолжительность : 1 ч. 40 м. Общий поток : 5331 Кбит/сек Название фильма : Awakening.the.Zodiac.2017 Дата кодирования : UTC 2017-05-16 18:21:56 Программа кодирования : mkvmerge v6.9.1 ('Blue Panther') 64bit built on Apr 18 2014 18:23:38 Библиотека кодирования : libebml v1.3.0 + libmatroska v1.4.1 Обложка : Yes Attachments : small_cover.jpg / small_cover_land.jpg / cover.jpg / cover_land.jpg

Видео Идентификатор : 1 Формат : AVC Формат/Информация : Advanced Video Codec Профиль формата : [email protected] Параметр CABAC формата : Да Параметр ReFrames формата : 5 кадров Идентификатор кодека : V_MPEG4/ISO/AVC Продолжительность : 1 ч. 40 м. Битрейт : 4457 Кбит/сек Ширина : 1920 пикселей Высота : 796 пикселей Соотношение сторон : 2,40:1 Режим частоты кадров : Постоянный Частота кадров : 23,976 (24000/1001) кадра/сек Цветовое пространство : YUV Субдискретизация насыщенности : 4:2:0 Битовая глубина : 8 бит Тип развёртки : Прогрессивная Бит/(Пиксели*Кадры) : 0.122 Размер потока : 3,11 Гбайт (84%) Заголовок : Awakening.the.Zodiac.2017 Язык : English Default : Да Forced : Нет Цветовой диапазон : Limited Основные цвета : BT.709 Характеристики трансфера : BT.709 Коэффициенты матрицы : BT.709

Аудио #1 Идентификатор : 2 Формат : AC-3 Формат/Информация : Audio Coding 3 Расширение режима : CM (complete main) Параметр Endianness формата : Big Идентификатор кодека : A_AC3 Продолжительность : 1 ч. 40 м. Вид битрейта : Постоянный Битрейт : 384 Кбит/сек Каналы : 6 каналов Расположение каналов : Front: L C R, Side: L R, LFE Частота : 48,0 КГц Частота кадров : 31,250 кадров/сек (1536 spf) Метод сжатия : С потерями Размер потока : 275 Мбайт (7%) Заголовок : xixidoktor Язык : Russian Default : Да Forced : Нет

Аудио #2 Идентификатор : 3 Формат : AC-3 Формат/Информация : Audio Coding 3 Расширение режима : CM (complete main) Параметр Endianness формата : Big Идентификатор кодека : A_AC3 Продолжительность : 1 ч. 40 м. Вид битрейта : Постоянный Битрейт : 384 Кбит/сек Каналы : 6 каналов Расположение каналов : Front: L C R, Side: L R, LFE Частота : 48,0 КГц Частота кадров : 31,250 кадров/сек (1536 spf) Метод сжатия : С потерями Размер потока : 275 Мбайт (7%) Заголовок : original Язык : English Default : Нет Forced : Нет

Текст #1 Идентификатор : 4 Формат : UTF-8 Идентификатор кодека : S_TEXT/UTF8 Идентификатор кодека/Информация : UTF-8 Plain Text Язык : Russian Default : Нет Forced : Нет

Текст #2 Идентификатор : 5 Формат : UTF-8 Идентификатор кодека : S_TEXT/UTF8 Идентификатор кодека/Информация : UTF-8 Plain Text Язык : English Default : Нет Forced : Нет

Меню 00:00:00.000 : en:1 00:05:16.024 : en:2 00:12:16.736 : en:3 00:17:36.722 : en:4 00:23:33.995 : en:5 00:29:34.271 : en:6 00:36:26.599 : en:7 00:44:18.696 : en:8 00:48:23.357 : en:9 00:53:29.913 : en:10 01:00:02.388 : en:11 01:06:43.789 : en:12 01:12:27.048 : en:13 01:18:00.256 : en:14 01:24:03.369 : en:15 01:33:50.789 : en:16

Рецензия, отзыв:

Фильм с двумя дорогами и русскими субтитрами. Наслаждайтесь. Отзыв от Хихидока. Тема про маньяка-Зодиака не дает покоя режиссерам. Новый фильм пытается размотать клубок по новому, куда делся убийца, которого так и не поймали.По большей части, это детектив, События развиваются постепенно и достигают апогея после часа расследования. Муж и жена решают раскрыть тайну Зодиака и задно получить награду за указание его местонахождения. Вместе с другом, эта троица, огребает по полной программе. Понравились диалоги, постоянная пикировка между мужем и женой разбавляет неспешный сюжет. Дам 6 балов из 10

mrutor.org

Скачать фильм Пробуждение Зодиака через торрент в хорошем качестве бесплатно 1080p

GeneralUnique ID : 239953617807601475611612663309201233008 (0xB48562C279E6E0D083044691C766D470)Complete name : Awakening.the.Zodiac.2017.WEB.DL.1080p.P.mkvFormat : MatroskaFormat version : Version 2File size : 3.90 GiBDuration : 1h 40mnOverall bit rate : 5 581 KbpsEncoded date : UTC 2017-08-31 11:48:35Writing application : mkvmerge v5.6.0 ('Kenya Kane') built on May 27 2012 16:44:04Writing library : libebml v1.2.3 + libmatroska v1.3.0Attachements : CoverRUS.jpg / CoverENG.jpg

VideoID : 1Format : AVCFormat/Info : Advanced Video CodecFormat profile : [email protected] settings, CABAC : YesFormat settings, ReFrames : 5 framesCodec ID : V_MPEG4/ISO/AVCDuration : 1h 40mnBit rate : 4 472 KbpsWidth : 1 920 pixelsHeight : 796 pixelsDisplay aspect ratio : 2.40:1Frame rate mode : ConstantFrame rate : 23.976 fpsColor space : YUVChroma subsampling : 4:2:0Bit depth : 8 bitsScan type : ProgressiveBits/(Pixel*Frame) : 0.122Stream size : 3.12 GiB (98%)Language : EnglishDefault : YesForced : NoColor primaries : BT.709Transfer characteristics : BT.709Matrix coefficients : BT.709Color range : Limited

Audio #1ID : 2Format : AACFormat/Info : Advanced Audio CodecFormat profile : HE-AAC / LCCodec ID : A_AACDuration : 1h 40mnChannel(s) : 2 channelsChannel positions : Front: L RSampling rate : 88.2 KHz / 44.1 KHzCompression mode : LossyTitle : Многоголосый 2.0 (iTunes Russia)Language : RussianDefault : YesForced : No

Audio #2ID : 3Format : AC-3Format/Info : Audio Coding 3Mode extension : CM (complete main)Format settings, Endianness : BigCodec ID : A_AC3Duration : 1h 40mnBit rate mode : ConstantBit rate : 384 KbpsChannel(s) : 6 channelsChannel positions : Front: L C R, Side: L R, LFESampling rate : 48.0 KHzBit depth : 16 bitsCompression mode : LossyStream size : 275 MiB (7%)Title : Многоголосый 5.1 (iTunes Russia)Language : RussianDefault : NoForced : No

Audio #3ID : 4Format : AACFormat/Info : Advanced Audio CodecFormat profile : HE-AAC / LCCodec ID : A_AACDuration : 1h 40mnChannel(s) : 2 channelsChannel positions : Front: L RSampling rate : 88.2 KHz / 44.1 KHzCompression mode : LossyTitle : Английский 2.0 (Оригинал)Language : EnglishDefault : NoForced : No

Audio #4ID : 5Format : AC-3Format/Info : Audio Coding 3Mode extension : CM (complete main)Format settings, Endianness : BigCodec ID : A_AC3Duration : 1h 40mnBit rate mode : ConstantBit rate : 384 KbpsChannel(s) : 6 channelsChannel positions : Front: L C R, Side: L R, LFESampling rate : 48.0 KHzBit depth : 16 bitsCompression mode : LossyStream size : 275 MiB (7%)Title : Английский 5.1 (Оригинал)Language : EnglishDefault : NoForced : No

Text #1ID : 6Format : UTF-8Codec ID : S_TEXT/UTF8Codec ID/Info : UTF-8 Plain TextTitle : РусскиеLanguage : RussianDefault : NoForced : No

Text #2ID : 7Format : UTF-8Codec ID : S_TEXT/UTF8Codec ID/Info : UTF-8 Plain TextTitle : УкраинскиеLanguage : UkrainianDefault : NoForced : No

Text #3ID : 8Format : UTF-8Codec ID : S_TEXT/UTF8Codec ID/Info : UTF-8 Plain TextTitle : Английские (Вариант 1)Language : EnglishDefault : NoForced : No

Text #4ID : 9Format : UTF-8Codec ID : S_TEXT/UTF8Codec ID/Info : UTF-8 Plain TextTitle : Английские (Вариант 2)Language : EnglishDefault : NoForced : No

Text #5ID : 10Format : UTF-8Codec ID : S_TEXT/UTF8Codec ID/Info : UTF-8 Plain TextTitle : ФранцузскиеLanguage : FrenchDefault : NoForced : No

Text #6ID : 11Format : UTF-8Codec ID : S_TEXT/UTF8Codec ID/Info : UTF-8 Plain TextTitle : ИспанскиеLanguage : SpanishDefault : NoForced : No

Text #7ID : 12Format : UTF-8Codec ID : S_TEXT/UTF8Codec ID/Info : UTF-8 Plain TextTitle : ИтальянскиеLanguage : ItalianDefault : NoForced : No

Text #8ID : 13Format : UTF-8Codec ID : S_TEXT/UTF8Codec ID/Info : UTF-8 Plain TextTitle : ЧешскиеLanguage : CzechDefault : NoForced : No

Text #9ID : 14Format : UTF-8Codec ID : S_TEXT/UTF8Codec ID/Info : UTF-8 Plain TextTitle : НемецкиеLanguage : GermanDefault : NoForced : No

Text #10ID : 15Format : UTF-8Codec ID : S_TEXT/UTF8Codec ID/Info : UTF-8 Plain TextTitle : БолгарскиеLanguage : BulgarianDefault : NoForced : No

Text #11ID : 16Format : UTF-8Codec ID : S_TEXT/UTF8Codec ID/Info : UTF-8 Plain TextTitle : ВенгерскиеLanguage : HungarianDefault : NoForced : No

Text #12ID : 17Format : UTF-8Codec ID : S_TEXT/UTF8Codec ID/Info : UTF-8 Plain TextTitle : ГолландскиеLanguage : DutchDefault : NoForced : No

Text #13ID : 18Format : UTF-8Codec ID : S_TEXT/UTF8Codec ID/Info : UTF-8 Plain TextTitle : СловацкиеLanguage : SlovakDefault : NoForced : No

Text #14ID : 19Format : UTF-8Codec ID : S_TEXT/UTF8Codec ID/Info : UTF-8 Plain TextTitle : ПольскиеLanguage : PolishDefault : NoForced : No

Text #15ID : 20Format : UTF-8Codec ID : S_TEXT/UTF8Codec ID/Info : UTF-8 Plain TextTitle : Португальские (Вариант 1)Language : PortugueseDefault : NoForced : No

Text #16ID : 21Format : UTF-8Codec ID : S_TEXT/UTF8Codec ID/Info : UTF-8 Plain TextTitle : Португальские (Вариант 2)Language : PortugueseDefault : NoForced : No

Text #17ID : 22Format : UTF-8Codec ID : S_TEXT/UTF8Codec ID/Info : UTF-8 Plain TextTitle : Китайские (Вариант 1)Language : ChineseDefault : NoForced : No

Text #18ID : 23Format : UTF-8Codec ID : S_TEXT/UTF8Codec ID/Info : UTF-8 Plain TextTitle : Китайские (Вариант 2)Language : ChineseDefault : NoForced : No

Text #19ID : 24Format : UTF-8Codec ID : S_TEXT/UTF8Codec ID/Info : UTF-8 Plain TextTitle : СловенскиеLanguage : SlovenianDefault : NoForced : No

Text #20ID : 25Format : UTF-8Codec ID : S_TEXT/UTF8Codec ID/Info : UTF-8 Plain TextTitle : ТайскиеLanguage : ThaiDefault : NoForced : No

Text #21ID : 26Format : UTF-8Codec ID : S_TEXT/UTF8Codec ID/Info : UTF-8 Plain TextTitle : ИвритскиеLanguage : HebrewDefault : NoForced : No

Menu00:00:00.000 : :Chapter 0100:05:16.024 : :Chapter 0200:12:16.736 : :Chapter 0300:17:36.722 : :Chapter 0400:23:33.995 : :Chapter 0500:29:34.271 : :Chapter 0600:36:26.599 : :Chapter 0700:44:18.696 : :Chapter 0800:48:23.357 : :Chapter 0900:53:29.913 : :Chapter 1001:00:02.388 : :Chapter 1101:06:43.789 : :Chapter 1201:12:27.048 : :Chapter 1301:18:00.256 : :Chapter 1401:24:03.369 : :Chapter 1501:33:50.789 : :Chapter 16

piratbit.ru

Скачать торрент Пробуждение Зодиака / Awakening the Zodiac (2017) WEB-DL 1080p

Производство: Канада, Bunk 11 Pictures, TAJJ MediaЖанр: Триллер

Режиссер: Джонатан Райт Актеры: Шейн Уэст, Лесли Бибб, Мэтт Крэйвен, Стивен МакХэтти, Николас Кэмпбелл, Кеннет Уэлш, Джейсон Хук, Джон Брегар, Ева Линк

Описание: Молодая девушка пытается спасти себя и своих друзей от древнего зла, которое нападает на свои жертвы во время так называемого «сонного паралича»

Дата мировой премьеры: 9 июня 2017Дата российской премьеры: НеизвестноПродолжительность: 01:40:00Качество видео: WEB-DLПеревод: Любительский, одноголосый [Хихикающий доктор] Субтитры: Русские, английскиеРеклама: перед фильмом голосовая реклама.

Скрытый текст

Видео: AVC/H.264, 1908х976, ~4457 KbpsАудио 1: Русский (АС3, 6 ch, 384 Кбит/с)Аудио 2: Английский (AC3, 6 ch, 384 Кбит/с)

Семпл

Mediainfo:

Общее Уникальный идентификатор : 176659233076529307123151305882406368121 (0x84E754A8538F999A944F8192352E3379) Полное имя : E:MMMMAwakening.the.Zodiac.2017.1080p.WEB-DL.h364.mkv Формат : Matroska Версия формата : Version 4 / Version 2 Размер файла : 3,72 Гбайт Продолжительность : 1 ч. 40 м. Общий поток : 5331 Кбит/сек Название фильма : Awakening.the.Zodiac.2017 Дата кодирования : UTC 2017-05-16 18:21:56 Программа кодирования : mkvmerge v6.9.1 ('Blue Panther') 64bit built on Apr 18 2014 18:23:38 Библиотека кодирования : libebml v1.3.0 + libmatroska v1.4.1 Обложка : Yes Attachments : small_cover.jpg / small_cover_land.jpg / cover.jpg / cover_land.jpg

Видео Идентификатор : 1 Формат : AVC Формат/Информация : Advanced Video Codec Профиль формата : [email protected] Параметр CABAC формата : Да Параметр ReFrames формата : 5 кадров Идентификатор кодека : V_MPEG4/ISO/AVC Продолжительность : 1 ч. 40 м. Битрейт : 4457 Кбит/сек Ширина : 1920 пикселей Высота : 796 пикселей Соотношение сторон : 2,40:1 Режим частоты кадров : Постоянный Частота кадров : 23,976 (24000/1001) кадра/сек Цветовое пространство : YUV Субдискретизация насыщенности : 4:2:0 Битовая глубина : 8 бит Тип развёртки : Прогрессивная Бит/(Пиксели*Кадры) : 0.122 Размер потока : 3,11 Гбайт (84%) Заголовок : Awakening.the.Zodiac.2017 Язык : English Default : Да Forced : Нет Цветовой диапазон : Limited Основные цвета : BT.709 Характеристики трансфера : BT.709 Коэффициенты матрицы : BT.709

Аудио #1 Идентификатор : 2 Формат : AC-3 Формат/Информация : Audio Coding 3 Расширение режима : CM (complete main) Параметр Endianness формата : Big Идентификатор кодека : A_AC3 Продолжительность : 1 ч. 40 м. Вид битрейта : Постоянный Битрейт : 384 Кбит/сек Каналы : 6 каналов Расположение каналов : Front: L C R, Side: L R, LFE Частота : 48,0 КГц Частота кадров : 31,250 кадров/сек (1536 spf) Метод сжатия : С потерями Размер потока : 275 Мбайт (7%) Заголовок : xixidoktor Язык : Russian Default : Да Forced : Нет

Аудио #2 Идентификатор : 3 Формат : AC-3 Формат/Информация : Audio Coding 3 Расширение режима : CM (complete main) Параметр Endianness формата : Big Идентификатор кодека : A_AC3 Продолжительность : 1 ч. 40 м. Вид битрейта : Постоянный Битрейт : 384 Кбит/сек Каналы : 6 каналов Расположение каналов : Front: L C R, Side: L R, LFE Частота : 48,0 КГц Частота кадров : 31,250 кадров/сек (1536 spf) Метод сжатия : С потерями Размер потока : 275 Мбайт (7%) Заголовок : original Язык : English Default : Нет Forced : Нет

Текст #1 Идентификатор : 4 Формат : UTF-8 Идентификатор кодека : S_TEXT/UTF8 Идентификатор кодека/Информация : UTF-8 Plain Text Язык : Russian Default : Нет Forced : Нет

Текст #2 Идентификатор : 5 Формат : UTF-8 Идентификатор кодека : S_TEXT/UTF8 Идентификатор кодека/Информация : UTF-8 Plain Text Язык : English Default : Нет Forced : Нет

Меню 00:00:00.000 : en:1 00:05:16.024 : en:2 00:12:16.736 : en:3 00:17:36.722 : en:4 00:23:33.995 : en:5 00:29:34.271 : en:6 00:36:26.599 : en:7 00:44:18.696 : en:8 00:48:23.357 : en:9 00:53:29.913 : en:10 01:00:02.388 : en:11 01:06:43.789 : en:12 01:12:27.048 : en:13 01:18:00.256 : en:14 01:24:03.369 : en:15 01:33:50.789 : en:16

Рецензия, отзыв:

Фильм с двумя дорогами и русскими субтитрами. Наслаждайтесь. Отзыв от Хихидока. Тема про маньяка-Зодиака не дает покоя режиссерам. Новый фильм пытается размотать клубок по новому, куда делся убийца, которого так и не поймали.По большей части, это детектив, События развиваются постепенно и достигают апогея после часа расследования. Муж и жена решают раскрыть тайну Зодиака и задно получить награду за указание его местонахождения. Вместе с другом, эта троица, огребает по полной программе. Понравились диалоги, постоянная пикировка между мужем и женой разбавляет неспешный сюжет. Дам 6 балов из 10

krutor.org

/ Awakening the Zodiac (2017) WEB-DL 1080p

General Unique ID : 239953617807601475611612663309201233008 (0xB48562C279E6E0D083044691C766D470) Complete name : Awakening.the.Zodiac.2017.WEB.DL.1080p.P.mkv Format : Matroska Format version : Version 2 File size : 3.90 GiB Duration : 1h 40mn Overall bit rate : 5 581 Kbps Encoded date : UTC 2017-08-31 11:48:35 Writing application : mkvmerge v5.6.0 ('Kenya Kane') built on May 27 2012 16:44:04 Writing library : libebml v1.2.3 + libmatroska v1.3.0 Attachements : CoverRUS.jpg / CoverENG.jpg

Video ID : 1 Format : AVC Format/Info : Advanced Video Codec Format profile : [email protected] Format settings, CABAC : Yes Format settings, ReFrames : 5 frames Codec ID : V_MPEG4/ISO/AVC Duration : 1h 40mn Bit rate : 4 472 Kbps Width : 1 920 pixels Height : 796 pixels Display aspect ratio : 2.40:1 Frame rate mode : Constant Frame rate : 23.976 fps Color space : YUV Chroma subsampling : 4:2:0 Bit depth : 8 bits Scan type : Progressive Bits/(Pixel*Frame) : 0.122 Stream size : 3.12 GiB (98%) Language : English Default : Yes Forced : No Color primaries : BT.709 Transfer characteristics : BT.709 Matrix coefficients : BT.709 Color range : Limited

Audio #1 ID : 2 Format : AAC Format/Info : Advanced Audio Codec Format profile : HE-AAC / LC Codec ID : A_AAC Duration : 1h 40mn Channel(s) : 2 channels Channel positions : Front: L R Sampling rate : 88.2 KHz / 44.1 KHz Compression mode : Lossy Title : 2.0 (iTunes Russia) Language : Russian Default : Yes Forced : No

Audio #2 ID : 3 Format : AC-3 Format/Info : Audio Coding 3 Mode extension : CM (complete main) Format settings, Endianness : Big Codec ID : A_AC3 Duration : 1h 40mn Bit rate mode : Constant Bit rate : 384 Kbps Channel(s) : 6 channels Channel positions : Front: L C R, Side: L R, LFE Sampling rate : 48.0 KHz Bit depth : 16 bits Compression mode : Lossy Stream size : 275 MiB (7%) Title : 5.1 (iTunes Russia) Language : Russian Default : No Forced : No

Audio #3 ID : 4 Format : AAC Format/Info : Advanced Audio Codec Format profile : HE-AAC / LC Codec ID : A_AAC Duration : 1h 40mn Channel(s) : 2 channels Channel positions : Front: L R Sampling rate : 88.2 KHz / 44.1 KHz Compression mode : Lossy Title : 2.0 () Language : English Default : No Forced : No

Audio #4 ID : 5 Format : AC-3 Format/Info : Audio Coding 3 Mode extension : CM (complete main) Format settings, Endianness : Big Codec ID : A_AC3 Duration : 1h 40mn Bit rate mode : Constant Bit rate : 384 Kbps Channel(s) : 6 channels Channel positions : Front: L C R, Side: L R, LFE Sampling rate : 48.0 KHz Bit depth : 16 bits Compression mode : Lossy Stream size : 275 MiB (7%) Title : 5.1 () Language : English Default : No Forced : No

Text #1 ID : 6 Format : UTF-8 Codec ID : S_TEXT/UTF8 Codec ID/Info : UTF-8 Plain Text Title : Language : Russian Default : No Forced : No

Text #2 ID : 7 Format : UTF-8 Codec ID : S_TEXT/UTF8 Codec ID/Info : UTF-8 Plain Text Title : Language : Ukrainian Default : No Forced : No

Text #3 ID : 8 Format : UTF-8 Codec ID : S_TEXT/UTF8 Codec ID/Info : UTF-8 Plain Text Title : ( 1) Language : English Default : No Forced : No

Text #4 ID : 9 Format : UTF-8 Codec ID : S_TEXT/UTF8 Codec ID/Info : UTF-8 Plain Text Title : ( 2) Language : English Default : No Forced : No

Text #5 ID : 10 Format : UTF-8 Codec ID : S_TEXT/UTF8 Codec ID/Info : UTF-8 Plain Text Title : Language : French Default : No Forced : No

Text #6 ID : 11 Format : UTF-8 Codec ID : S_TEXT/UTF8 Codec ID/Info : UTF-8 Plain Text Title : Language : Spanish Default : No Forced : No

Text #7 ID : 12 Format : UTF-8 Codec ID : S_TEXT/UTF8 Codec ID/Info : UTF-8 Plain Text Title : Language : Italian Default : No Forced : No

Text #8 ID : 13 Format : UTF-8 Codec ID : S_TEXT/UTF8 Codec ID/Info : UTF-8 Plain Text Title : Language : Czech Default : No Forced : No

Text #9 ID : 14 Format : UTF-8 Codec ID : S_TEXT/UTF8 Codec ID/Info : UTF-8 Plain Text Title : Language : German Default : No Forced : No

Text #10 ID : 15 Format : UTF-8 Codec ID : S_TEXT/UTF8 Codec ID/Info : UTF-8 Plain Text Title : Language : Bulgarian Default : No Forced : No

Text #11 ID : 16 Format : UTF-8 Codec ID : S_TEXT/UTF8 Codec ID/Info : UTF-8 Plain Text Title : Language : Hungarian Default : No Forced : No

Text #12 ID : 17 Format : UTF-8 Codec ID : S_TEXT/UTF8 Codec ID/Info : UTF-8 Plain Text Title : Language : Dutch Default : No Forced : No

Text #13 ID : 18 Format : UTF-8 Codec ID : S_TEXT/UTF8 Codec ID/Info : UTF-8 Plain Text Title : Language : Slovak Default : No Forced : No

Text #14 ID : 19 Format : UTF-8 Codec ID : S_TEXT/UTF8 Codec ID/Info : UTF-8 Plain Text Title : Language : Polish Default : No Forced : No

Text #15 ID : 20 Format : UTF-8 Codec ID : S_TEXT/UTF8 Codec ID/Info : UTF-8 Plain Text Title : ( 1) Language : Portuguese Default : No Forced : No

Text #16 ID : 21 Format : UTF-8 Codec ID : S_TEXT/UTF8 Codec ID/Info : UTF-8 Plain Text Title : ( 2) Language : Portuguese Default : No Forced : No

Text #17 ID : 22 Format : UTF-8 Codec ID : S_TEXT/UTF8 Codec ID/Info : UTF-8 Plain Text Title : ( 1) Language : Chinese Default : No Forced : No

Text #18 ID : 23 Format : UTF-8 Codec ID : S_TEXT/UTF8 Codec ID/Info : UTF-8 Plain Text Title : ( 2) Language : Chinese Default : No Forced : No

Text #19 ID : 24 Format : UTF-8 Codec ID : S_TEXT/UTF8 Codec ID/Info : UTF-8 Plain Text Title : Language : Slovenian Default : No Forced : No

Text #20 ID : 25 Format : UTF-8 Codec ID : S_TEXT/UTF8 Codec ID/Info : UTF-8 Plain Text Title : Language : Thai Default : No Forced : No

Text #21 ID : 26 Format : UTF-8 Codec ID : S_TEXT/UTF8 Codec ID/Info : UTF-8 Plain Text Title : Language : Hebrew Default : No Forced : No

Menu 00:00:00.000 : :Chapter 01 00:05:16.024 : :Chapter 02 00:12:16.736 : :Chapter 03 00:17:36.722 : :Chapter 04 00:23:33.995 : :Chapter 05 00:29:34.271 : :Chapter 06 00:36:26.599 : :Chapter 07 00:44:18.696 : :Chapter 08 00:48:23.357 : :Chapter 09 00:53:29.913 : :Chapter 10 01:00:02.388 : :Chapter 11 01:06:43.789 : :Chapter 12 01:12:27.048 : :Chapter 13 01:18:00.256 : :Chapter 14 01:24:03.369 : :Chapter 15 01:33:50.789 : :Chapter 16

megapeer.org

Скачать фильм Пробуждение Зодиака (2017) бесплатно в хорошем качестве HD 1080

Скачал сам?! Дай скачать другим, не уходи с раздачи!!!

Производство: Канада, Bunk 11 Pictures, TAJJ MediaЖанр: Триллер

Режиссер: Джонатан Райт Актеры: Шейн Уэст, Лесли Бибб, Мэтт Крэйвен, Стивен МакХэтти, Николас Кэмпбелл, Кеннет Уэлш, Джейсон Хук, Джон Брегар, Ева Линк

Описание:Пробуждение Зодиака - в центре сюжета семейная пара, Мик и Зои, у которых крайне плохое бюджетное состояние, им приходится жить в трейлере на деньги от случайных подработок Мика. Как-то раз к ним в руки попали крайне загадочные видеозаписи, которые были сделаны известным серийным убийцей по прозвищу Зодиак. Он навел не мало шороху в шестидесятые года в Сан-Франциско и так и не был пойман полицией. Награда за его голову составляет 100000 долларов и они решили, с помощью этих пленок, вычислить убийцу самостоятельно.

Дата мировой премьеры: 9 июня 2017Дата российской премьеры: НеизвестноПродолжительность: 01:40:00Качество видео: WEB-DLПеревод: Любительский, одноголосый [Хихикающий доктор] Субтитры: Русские, английскиеРеклама: перед фильмом голосовая реклама.

Видео: AVC/H.264, 1908х976, ~4457 KbpsАудио 1: Русский (АС3, 6 ch, 384 Кбит/с)Аудио 2: Английский (AC3, 6 ch, 384 Кбит/с)

ОбщееУникальный идентификатор : 176659233076529307123151305882406368121 (0x84E754A8538F999A944F8192352E3379)Полное имя : E:MMMMAwakening.the.Zodiac.2017.1080p.WEB-DL.h364.mkvФормат : MatroskaВерсия формата : Version 4 / Version 2Размер файла : 3,72 ГбайтПродолжительность : 1 ч. 40 м.Общий поток : 5331 Кбит/секНазвание фильма : Awakening.the.Zodiac.2017Дата кодирования : UTC 2017-05-16 18:21:56Программа кодирования : mkvmerge v6.9.1 ('Blue Panther') 64bit built on Apr 18 2014 18:23:38Библиотека кодирования : libebml v1.3.0 + libmatroska v1.4.1Обложка : YesAttachments : small_cover.jpg / small_cover_land.jpg / cover.jpg / cover_land.jpg

ВидеоИдентификатор : 1Формат : AVCФормат/Информация : Advanced Video CodecПрофиль формата : [email protected]Параметр CABAC формата : ДаПараметр ReFrames формата : 5 кадровИдентификатор кодека : V_MPEG4/ISO/AVCПродолжительность : 1 ч. 40 м.Битрейт : 4457 Кбит/секШирина : 1920 пикселейВысота : 796 пикселейСоотношение сторон : 2,40:1Режим частоты кадров : ПостоянныйЧастота кадров : 23,976 (24000/1001) кадра/секЦветовое пространство : YUVСубдискретизация насыщенности : 4:2:0Битовая глубина : 8 битТип развёртки : ПрогрессивнаяБит/(Пиксели*Кадры) : 0.122Размер потока : 3,11 Гбайт (84%)Заголовок : Awakening.the.Zodiac.2017Язык : EnglishDefault : ДаForced : НетЦветовой диапазон : LimitedОсновные цвета : BT.709Характеристики трансфера : BT.709Коэффициенты матрицы : BT.709

Аудио #1Идентификатор : 2Формат : AC-3Формат/Информация : Audio Coding 3Расширение режима : CM (complete main)Параметр Endianness формата : BigИдентификатор кодека : A_AC3Продолжительность : 1 ч. 40 м.Вид битрейта : ПостоянныйБитрейт : 384 Кбит/секКаналы : 6 каналовРасположение каналов : Front: L C R, Side: L R, LFEЧастота : 48,0 КГцЧастота кадров : 31,250 кадров/сек (1536 spf)Метод сжатия : С потерямиРазмер потока : 275 Мбайт (7%)Заголовок : xixidoktorЯзык : RussianDefault : ДаForced : Нет

Аудио #2Идентификатор : 3Формат : AC-3Формат/Информация : Audio Coding 3Расширение режима : CM (complete main)Параметр Endianness формата : BigИдентификатор кодека : A_AC3Продолжительность : 1 ч. 40 м.Вид битрейта : ПостоянныйБитрейт : 384 Кбит/секКаналы : 6 каналовРасположение каналов : Front: L C R, Side: L R, LFEЧастота : 48,0 КГцЧастота кадров : 31,250 кадров/сек (1536 spf)Метод сжатия : С потерямиРазмер потока : 275 Мбайт (7%)Заголовок : originalЯзык : EnglishDefault : НетForced : Нет

Текст #1Идентификатор : 4Формат : UTF-8Идентификатор кодека : S_TEXT/UTF8Идентификатор кодека/Информация : UTF-8 Plain TextЯзык : RussianDefault : НетForced : Нет

Текст #2Идентификатор : 5Формат : UTF-8Идентификатор кодека : S_TEXT/UTF8Идентификатор кодека/Информация : UTF-8 Plain TextЯзык : EnglishDefault : НетForced : Нет

Меню00:00:00.000 : en:100:05:16.024 : en:200:12:16.736 : en:300:17:36.722 : en:400:23:33.995 : en:500:29:34.271 : en:600:36:26.599 : en:700:44:18.696 : en:800:48:23.357 : en:900:53:29.913 : en:1001:00:02.388 : en:1101:06:43.789 : en:1201:12:27.048 : en:1301:18:00.256 : en:1401:24:03.369 : en:1501:33:50.789 : en:16

Поиск торрент раздач, пожалуйста подождите!

ufreetorrent.ru


Смотрите также