Принцесса лебедь принцесса или пират скачать торрент в хорошем качестве


Скачать фильм Принцесса Лебедь: Пират или принцесса? через торрент в хорошем качестве бесплатно Принцесса Лебедь: Пират или принцесса? / The Swan Princess: Princess Tomorrow

Размер: 1.37 GB | Добавлен: 1 год назад | Торрент скачан:234 раза
Реклама Дарим 3000 рублей за регистрацию, не упусти свой шанс получить шикарный бонус!!!

16-10-2016 06:29 Принцесса Лебедь: Пират или принцесса? Скачать торрент  

Принцесса Лебедь: Пират или принцесса? / The Swan Princess: Princess Tomorrow Pirate Today!

Год выпуска: 2016Страна: СШАЖанр: Мультфильм, семейныйПродолжительность: 01:18:56Перевод: Профессиональный (многоголосый закадровый) [iTunes] Субтитры: отсутствуют

Режиссер: Ричард Рич

В ролях:

Лора Бэйли, Максин Блу, Grant Durazzo, Келлен Гофф, Jayden Isabel, Гарднер Джаэс, Клэйтон Джеймс, Катрин Лавин

Описание:

Когда родители уезжают на лето, юная любительница приключений принцесса Алиса остается под присмотром королевы Уберты, которая пытается воспитывать ее в лучших монарших традициях. Но принцесса скучает и мечтает сдать удалым пиратом. Вместе с лордом Роджерсом, лягушонком Джин-Бобом и черепашкой Спедом она отправляется в полное удивительных приключений, опасностей и открытий путешествие к дальним морям. После кораблекрушения, которое выносит отважных моряков на берег таинственного дикого острова, они встречают Лукаса – мальчика, живущего затворником. Теперь друзья должны вместе придумать, как спастись с острова, кишащего свирепыми голодными чудовищами.

Качество: WEB-DLRipФормат: AVIВидео кодек: XviDАудио кодек: AC3

Видео: 720x400 (16:9), 23,976 fps, XviD build 67 ~2086 kbps avg, 0.302 bit/pixelАудио#1: 48 kHz, AC3 Dolby Digital, 2/0 (L,R) ch, ~384 kbps

Скачать Принцесса Лебедь: Пират или принцесса? через торрент http://pic1.pb.wtf/images/10/o6qqh.jpg Скачать фильм Принцесса Лебедь: Пират или принцесса? через торрент бесплантно в хорошем качестве Описание: Когда родители уезжают на лето, юная любительница приключений принцесса Алиса остается под присмотром королевы Уберты, которая ... 2016-10-16 06:29 10 10 9

Loading...

Loading...

Рекламный пират

17-10-2016 06:26 Принцесса Лебедь: Пират или принцесса? Скачать торрент  

Всем приятного просмотра)

Дорогой пользователь! Огромная просьба, поблагодарите релизера, оцените раздачу и оставьте свои комментарий, если Вы скачали Принцесса Лебедь: Пират или принцесса? через торрент бесплатно! Внесите свою лепту в развитие PiratBit!

Комментировать посты могут только пользователи прошедшие не сложную регистрацию

Принцесса Лебедь: Пират или принцесса? через торрент Скачать бесплатно Принцесса Лебедь: Пират или принцесса? Принцесса Лебедь: Пират или принцесса? скачать торрент Принцесса Лебедь: Пират или принцесса? смотреть онлайн Cкачать фильм Принцесса Лебедь: Пират или принцесса? бесплатно Принцесса Лебедь: Пират или принцесса? скачать торрент в хорошем качестве Принцесса Лебедь: Пират или принцесса? смотреть онлайн бесплатно в хорошем качестве

Вы не можете начинать темыВы не можете отвечать на сообщенияВы не можете редактировать свои сообщенияВы не можете удалять свои сообщенияВы не можете голосовать в опросахВы не можете прикреплять файлы к сообщениямВы можете скачивать файлы

piratbit.ru

2016 : ? HDRip

HDRip

HDRip

HDRip

HDRip

HDRip

HDRip

HDRip

HDRip

HDRip

HDRip

HDRip

HDRip

HDRip

HDRip

HDRip

HDRip

HDRip

DVDRip

HDRip

HDRip

HDRip

HDRip

HDRip

HDRip

HDRip

HDRip

:HDRip :2016 : 1.37 GB

:

: Nest Family Entertainment

: 01:18:56 

: (, )[iTunes]

: ,

:

: , , Grant Durazzo, , Jayden Isabel, , ,

:  , , . . , - , . , , , . , , .

dle 11.0
, ! , 1. !2. , ! 3. !torrentum.org - , : ? , ! , , . , , .

torrentum.org

Скачать торрент Принцесса Лебедь: Пират или принцесса? / The Swan Princess: Princess Tomorrow, Pirate Today! (2016) WEB-DL 720p

Информация о фильмеНазвание: Принцесса Лебедь: Пират или принцесса?Оригинальное название: The Swan Princess: Princess Tomorrow, Pirate Today!Год выхода: 2016Жанр: Мультфильм, семейныйРежиссер: Ричард РичВ ролях: Лора Бэйли, Максин Блу, Grant Durazzo, Келлен Гофф, Jayden Isabel, Гарднер Джаэс, Клэйтон Джеймс, Катрин Лавин

О фильме: Когда родители уезжают на лето, юная любительница приключений принцесса Алиса остается под присмотром королевы Уберты, которая пытается воспитывать ее в лучших монарших традициях. Но принцесса скучает и мечтает сдать удалым пиратом. Вместе с лордом Роджерсом, лягушонком Джин-Бобом и черепашкой Спедом она отправляется в полное удивительных приключений, опасностей и открытий путешествие к дальним морям. После кораблекрушения, которое выносит отважных моряков на берег таинственного дикого острова, они встречают Лукаса – мальчика, живущего затворником. Теперь друзья должны вместе придумать, как спастись с острова, кишащего свирепыми голодными чудовищами.

Страна: СШАСтудия: Nest Family EntertainmentПродолжительность: 01:18:56 Перевод: Профессиональный (многоголосый, закадровый)[iTunes]

ФайлКачество: WEB-DL 720рФормат: MKVКодек: MPEG-4 AVCВидео: 1280x720 (16:9), 23,976 fps, MPEG-4 AVC ~4004 kbps avg, 0,181 bit/pixelАудио: AAC-LC, 48 kHz, 2 ch, ~160.00 kbps avg | русский | Профессиональный (многоголосый, закадровый)[iTunes]Аудио: AC3, 48 kHz, 6 ch, ~384.00 kbps avg | английский | Оригинал Субтитры: Русские, украинские, английскиеСемпл

Инфо-файл

Общее Уникальный идентификатор : 211244710821560488929424757195019602080 (0x9EEC405CD45D996A8EC59017A7D348A0) Полное имя : D:The.Swan.Princess.Princess.Tomorrow.Pirate.Today.2016.720p.WEB-DL.Rus.Eng.HDCLUB.mkv Формат : Matroska Версия формата : Version 2 Размер файла : 2,51 Гбайт Продолжительность : 1 ч. 18 м. Общий поток : 4547 Кбит/сек Название фильма : The Swan Princess: Princess Tomorrow, Pirate Today! (2016) - Release for HDCLUB Дата кодирования : UTC 2016-10-15 10:23:07 Программа кодирования : mkvmerge v3.4.0 ('Rapunzel') built on May 15 2010 09:38:20 Библиотека кодирования : libebml v0.8.0 + libmatroska v0.9.0

Видео Идентификатор : 1 Формат : AVC Формат/Информация : Advanced Video Codec Профиль формата : [email protected] Параметр CABAC формата : Нет Параметр ReFrames формата : 2 кадра Идентификатор кодека : V_MPEG4/ISO/AVC Продолжительность : 1 ч. 18 м. Ширина : 1280 пикселей Высота : 720 пикселей Соотношение сторон : 16:9 Режим частоты кадров : Постоянный Частота кадров : 23,976 кадра/сек Цветовое пространство : YUV Субдискретизация насыщенности : 4:2:0 Битовая глубина : 8 бит Тип развёртки : Прогрессивная Заголовок : The Swan Princess: Princess Tomorrow, Pirate Today! (2016) - Release for HDCLUB Язык : English Default : Да Forced : Нет Цветовой диапазон : Limited Основные цвета : BT.709 Характеристики трансфера : BT.709 Коэффициенты матрицы : BT.709

Аудио #1 Идентификатор : 2 Формат : AAC Формат/Информация : Advanced Audio Codec Профиль формата : LC Идентификатор кодека : A_AAC Продолжительность : 1 ч. 18 м. Каналы : 2 канала Расположение каналов : Front: L R Частота : 48,0 КГц Метод сжатия : С потерями Заголовок : AAC 2.0 @ 160 kbps - MVO, iTunes Язык : Russian Default : Да Forced : Нет

Аудио #2 Идентификатор : 3 Формат : AC-3 Формат/Информация : Audio Coding 3 Расширение режима : CM (complete main) Параметр Endianness формата : Big Идентификатор кодека : A_AC3 Продолжительность : 1 ч. 18 м. Вид битрейта : Постоянный Битрейт : 384 Кбит/сек Каналы : 6 каналов Расположение каналов : Front: L C R, Side: L R, LFE Частота : 48,0 КГц Метод сжатия : С потерями Размер потока : 217 Мбайт (8%) Заголовок : AC3 5.1 @ 384 kbps Язык : English Default : Нет Forced : Нет

Текст #1 Идентификатор : 4 Формат : UTF-8 Идентификатор кодека : S_TEXT/UTF8 Идентификатор кодека/Информация : UTF-8 Plain Text Заголовок : Forced, iTunes Язык : Russian Default : Да Forced : Нет

Текст #2 Идентификатор : 5 Формат : UTF-8 Идентификатор кодека : S_TEXT/UTF8 Идентификатор кодека/Информация : UTF-8 Plain Text Заголовок : iTunes Язык : Russian Default : Нет Forced : Нет

Текст #3 Идентификатор : 6 Формат : UTF-8 Идентификатор кодека : S_TEXT/UTF8 Идентификатор кодека/Информация : UTF-8 Plain Text Заголовок : iTunes Язык : Ukrainian Default : Нет Forced : Нет

Текст #4 Идентификатор : 7 Формат : UTF-8 Идентификатор кодека : S_TEXT/UTF8 Идентификатор кодека/Информация : UTF-8 Plain Text Заголовок : iTunes Язык : English Default : Нет Forced : Нет

Меню 00:00:00.000 : en:1 00:05:21.279 : en:2 00:08:46.734 : en:3 00:14:02.925 : en:4 00:18:19.848 : en:5 00:22:29.430 : en:6 00:28:18.362 : en:7 00:32:57.599 : en:8 00:37:13.104 : en:9 00:40:55.201 : en:10 00:45:04.825 : en:11 00:51:50.355 : en:12 00:56:07.278 : en:13 01:00:27.371 : en:14 01:06:47.334 : en:15 01:11:16.227 : en:16

Релиз от:

krutor.org

Скачать торрент Принцесса Лебедь: Пират или принцесса? / The Swan Princess: Princess Tomorrow, Pirate Today! (2016) WEB-DLRip

Информация о фильмеНазвание: Принцесса Лебедь: Пират или принцесса?Оригинальное название: The Swan Princess: Princess Tomorrow, Pirate Today!Год выхода: 2016Жанр: Мультфильм, семейныйРежиссер: Ричард РичВ ролях: Лора Бэйли, Максин Блу, Grant Durazzo, Келлен Гофф, Jayden Isabel, Гарднер Джаэс, Клэйтон Джеймс, Катрин Лавин

О фильме: Когда родители уезжают на лето, юная любительница приключений принцесса Алиса остается под присмотром королевы Уберты, которая пытается воспитывать ее в лучших монарших традициях. Но принцесса скучает и мечтает сдать удалым пиратом. Вместе с лордом Роджерсом, лягушонком Джин-Бобом и черепашкой Спедом она отправляется в полное удивительных приключений, опасностей и открытий путешествие к дальним морям. После кораблекрушения, которое выносит отважных моряков на берег таинственного дикого острова, они встречают Лукаса – мальчика, живущего затворником. Теперь друзья должны вместе придумать, как спастись с острова, кишащего свирепыми голодными чудовищами.

Страна: СШАСтудия: Nest Family EntertainmentПродолжительность: 01:18:56 Перевод: Профессиональный (многоголосый, закадровый)[iTunes]

ФайлКачество: WEB-DLRipФормат: AVIКодек: XviDВидео: 720x400 (16:9), 23,976 fps, XviD ~2086 kbps avg, 0.302 bit/pixelАудио: AC3, 48 kHz, 2 ch, ~384.00 kbps avg | русский | Профессиональный (многоголосый, закадровый)[iTunes] Субтитры: ОтсутствуютСемпл

Инфо-файл

Общее Полное имя : D:The.Swan.Princess.2O16.P.WEB-DLRip.14OOMB.avi Формат : AVI Формат/Информация : Audio Video Interleave Размер файла : 1,37 Гбайт Продолжительность : 1 ч. 18 м. Общий поток : 2479 Кбит/сек Программа кодирования : VirtualDubMod 1.5.10.2 (build 2540/release) Библиотека кодирования : VirtualDubMod build 2540/release

Видео Идентификатор : 0 Формат : MPEG-4 Visual Профиль формата : Advanced [email protected] Параметр BVOP формата : 2 Параметр QPel формата : Нет Параметр GMC формата : Без точки перехода Параметр матрицы формата : Default (MPEG) Идентификатор кодека : XVID Идентификатор кодека/Подсказка : XviD Продолжительность : 1 ч. 18 м. Битрейт : 2086 Кбит/сек Ширина : 720 пикселей Высота : 400 пикселей Соотношение сторон : 16:9 Частота кадров : 23,976 кадра/сек Цветовое пространство : YUV Субдискретизация насыщенности : 4:2:0 Битовая глубина : 8 бит Тип развёртки : Прогрессивная Метод сжатия : С потерями Бит/(Пиксели*Кадры) : 0.302 Размер потока : 1,15 Гбайт (84%) Библиотека кодирования : XviD 1.2.1 (UTC 2008-12-04)

Аудио Идентификатор : 1 Формат : AC-3 Формат/Информация : Audio Coding 3 Расширение режима : CM (complete main) Параметр Endianness формата : Big Идентификатор кодека : 2000 Продолжительность : 1 ч. 18 м. Вид битрейта : Постоянный Битрейт : 384 Кбит/сек Каналы : 2 канала Расположение каналов : Front: L R Частота : 48,0 КГц Метод сжатия : С потерями Размер потока : 217 Мбайт (15%) Выравнивание : Разделение по промежуткам Продолжительность промежутка : 42 мс. (1,00 видеокадр) Время предзагрузки промежутка : 500 мс.

krutor.org

Скачать торрент Принцесса Лебедь: Пират или принцесса? / The Swan Princess: Princess Tomorrow, Pirate Today! (2016) WEB-DLRip

Информация о фильмеНазвание: Принцесса Лебедь: Пират или принцесса?Оригинальное название: The Swan Princess: Princess Tomorrow, Pirate Today!Год выхода: 2016Жанр: Мультфильм, семейныйРежиссер: Ричард РичВ ролях: Лора Бэйли, Максин Блу, Grant Durazzo, Келлен Гофф, Jayden Isabel, Гарднер Джаэс, Клэйтон Джеймс, Катрин Лавин

О фильме: Когда родители уезжают на лето, юная любительница приключений принцесса Алиса остается под присмотром королевы Уберты, которая пытается воспитывать ее в лучших монарших традициях. Но принцесса скучает и мечтает сдать удалым пиратом. Вместе с лордом Роджерсом, лягушонком Джин-Бобом и черепашкой Спедом она отправляется в полное удивительных приключений, опасностей и открытий путешествие к дальним морям. После кораблекрушения, которое выносит отважных моряков на берег таинственного дикого острова, они встречают Лукаса – мальчика, живущего затворником. Теперь друзья должны вместе придумать, как спастись с острова, кишащего свирепыми голодными чудовищами.

Страна: СШАСтудия: Nest Family EntertainmentПродолжительность: 01:18:56 Перевод: Профессиональный (многоголосый, закадровый)[iTunes]

ФайлКачество: WEB-DLRipФормат: AVIКодек: XviDВидео: 720x400 (16:9), 23,976 fps, XviD ~2086 kbps avg, 0.302 bit/pixelАудио: AC3, 48 kHz, 2 ch, ~384.00 kbps avg | русский | Профессиональный (многоголосый, закадровый)[iTunes] Субтитры: ОтсутствуютСемпл

Инфо-файл

Общее Полное имя : D:The.Swan.Princess.2O16.P.WEB-DLRip.14OOMB.avi Формат : AVI Формат/Информация : Audio Video Interleave Размер файла : 1,37 Гбайт Продолжительность : 1 ч. 18 м. Общий поток : 2479 Кбит/сек Программа кодирования : VirtualDubMod 1.5.10.2 (build 2540/release) Библиотека кодирования : VirtualDubMod build 2540/release

Видео Идентификатор : 0 Формат : MPEG-4 Visual Профиль формата : Advanced [email protected] Параметр BVOP формата : 2 Параметр QPel формата : Нет Параметр GMC формата : Без точки перехода Параметр матрицы формата : Default (MPEG) Идентификатор кодека : XVID Идентификатор кодека/Подсказка : XviD Продолжительность : 1 ч. 18 м. Битрейт : 2086 Кбит/сек Ширина : 720 пикселей Высота : 400 пикселей Соотношение сторон : 16:9 Частота кадров : 23,976 кадра/сек Цветовое пространство : YUV Субдискретизация насыщенности : 4:2:0 Битовая глубина : 8 бит Тип развёртки : Прогрессивная Метод сжатия : С потерями Бит/(Пиксели*Кадры) : 0.302 Размер потока : 1,15 Гбайт (84%) Библиотека кодирования : XviD 1.2.1 (UTC 2008-12-04)

Аудио Идентификатор : 1 Формат : AC-3 Формат/Информация : Audio Coding 3 Расширение режима : CM (complete main) Параметр Endianness формата : Big Идентификатор кодека : 2000 Продолжительность : 1 ч. 18 м. Вид битрейта : Постоянный Битрейт : 384 Кбит/сек Каналы : 2 канала Расположение каналов : Front: L R Частота : 48,0 КГц Метод сжатия : С потерями Размер потока : 217 Мбайт (15%) Выравнивание : Разделение по промежуткам Продолжительность промежутка : 42 мс. (1,00 видеокадр) Время предзагрузки промежутка : 500 мс.

mrutor.org


Смотрите также