Принц персии пески времени скачать торрент в хорошем качестве hd 1080


Пески времени через торрент в хорошем качестве бесплатно 1080p

ОбщееУникальный идентификатор : 252188048281207622935794241095538792785 (0xBDB9A6C0D939D6F0B535B9009B975951)Полное имя : D:Принц Персии Пески времени.2010.1080p..mkvФормат : MatroskaВерсия формата : Version 1Размер файла : 13,1 ГбайтПродолжительность : 1 ч. 55 м.Общий поток : 16,2 Мбит/секДата кодирования : UTC 2010-08-29 20:22:30Программа кодирования : mkvmerge v2.4.2 ('Oh My God') built on Jan 18 2009 17:30:28Библиотека кодирования : libebml v0.7.7 + libmatroska v0.8.1

ВидеоИдентификатор : 1Формат : AVCФормат/Информация : Advanced Video CodecПрофиль формата : [email protected]Параметр CABAC формата : ДаПараметр ReFrames формата : 5 кадровИдентификатор кодека : V_MPEG4/ISO/AVCПродолжительность : 1 ч. 55 м.Битрейт : 14,1 Мбит/секШирина : 1920 пикселейВысота : 800 пикселейСоотношение сторон : 2,40:1Режим частоты кадров : ПостоянныйЧастота кадров : 23,976 кадра/секЦветовое пространство : YUVСубдискретизация насыщенности : 4:2:0Битовая глубина : 8 битТип развёртки : ПрогрессивнаяБит/(Пиксели*Кадры) : 0.382Размер потока : 11,1 Гбайт (85%)Библиотека кодирования : x264 core 104 r1698 c41b8f0Настройки программы : cabac=1 / ref=5 / deblock=1:-3:-3 / analyse=0x3:0x113 / me=umh / subme=10 / psy=1 / psy_rd=1.10:0.10 / mixed_ref=1 / me_range=48 / chroma_me=1 / trellis=2 / 8x8dct=1 / cqm=0 / deadzone=21,11 / fast_pskip=0 / chroma_qp_offset=-5 / threads=24 / sliced_threads=0 / nr=0 / decimate=0 / interlaced=0 / constrained_intra=0 / bframes=6 / b_pyramid=2 / b_adapt=2 / b_bias=0 / direct=3 / weightb=1 / open_gop=0 / weightp=2 / keyint=250 / keyint_min=23 / scenecut=40 / intra_refresh=0 / rc_lookahead=50 / rc=2pass / mbtree=1 / bitrate=14060 / ratetol=1.0 / qcomp=0.60 / qpmin=10 / qpmax=51 / qpstep=4 / cplxblur=20.0 / qblur=0.5 / vbv_maxrate=40000 / vbv_bufsize=40000 / ip_ratio=1.40 / aq=1:0.80 / nal_hrd=noneЯзык : EnglishDefault : ДаForced : Нет

Аудио #1Идентификатор : 2Формат : AC-3Формат/Информация : Audio Coding 3Расширение режима : CM (complete main)Параметр Endianness формата : BigИдентификатор кодека : A_AC3Продолжительность : 1 ч. 55 м.Вид битрейта : ПостоянныйБитрейт : 640 Кбит/секКаналы : 6 каналовРасположение каналов : Front: L C R, Side: L R, LFEЧастота : 48,0 КГцБитовая глубина : 16 битМетод сжатия : С потерямиРазмер потока : 531 Мбайт (4%)Default : НетForced : Нет

Аудио #2Идентификатор : 3Формат : DTSФормат/Информация : Digital Theater SystemsРежим : 16Параметр Endianness формата : BigИдентификатор кодека : A_DTSПродолжительность : 1 ч. 55 м.Вид битрейта : ПостоянныйБитрейт : 1509 Кбит/секКаналы : 6 каналовРасположение каналов : Front: L C R, Side: L R, LFEЧастота : 48,0 КГцБитовая глубина : 24 битМетод сжатия : С потерямиРазмер потока : 1,22 Гбайт (9%)Заголовок : English DTS 5.1 CH @ 1510 kbpsЯзык : EnglishDefault : ДаForced : Нет

Текст #1Идентификатор : 4Формат : UTF-8Идентификатор кодека : S_TEXT/UTF8Идентификатор кодека/Информация : UTF-8 Plain TextDefault : ДаForced : Нет

Текст #2Идентификатор : 5Формат : UTF-8Идентификатор кодека : S_TEXT/UTF8Идентификатор кодека/Информация : UTF-8 Plain TextDefault : НетForced : Нет

piratbit.ru

Пески времени (2010) через торрент

25 декабря 2015 08:50 Принц Персии: Пески времени / Prince of Persia: The Sands of Time (2010) BDRip 720p от HQ-ViDEO | D | Лицензия .torrent   [Информация о файле (нажмите для просмотра)] Перевод: Русский дублированный (Лицензия) + Украинский дублированный (Лицензия) + Оригинальная, английская дорожкаКодек: MKV, H.264Качество: BDRip 720p (SourceBlu-ray Disc)Видео: 6545 kbps; 0.398 bit/pixel; 1280 x 536; 2.35:1; 23.976 fpsЗвук #1: AC3 Dolby Digital; 448.00 kbps, 6 Ch - RUS DUBЗвук #2: AC3 Dolby Digital; 448.00 kbps, 6 Ch - UKR DUBЗвук #3: AC3 Dolby Digital; 448.00 kbps, 6 Ch - ENGСубтитры: Русские, Английские. 6,52 Gb 57 5 25 декабря 2015 08:50 Принц Персии: Пески времени / Prince of Persia: The Sands of Time (2010) BDRip | Гаврилов, Сербин .torrent   [Информация о файле (нажмите для просмотра)] Перевод: Авторский (одноголосый,закадровый) А.Гаврилов, Авторский (одноголосый,закадровый) Ю.СербинСубтитры: отсутствуютКачество: BDRipФормат: AVIВидео: XviD, 1934 Кбит/с, 720x304, 23.976 кадр/сАудио 1: АС3, 6 ch, 448 Кбит/с - Авторский (одноголосый,закадровый)А.ГавриловАудио 2: АС3, 6 ch, 448 Кбит/с - Авторский (одноголосый,закадровый)Ю.Сербин 2,3 Gb 30 6 25 декабря 2015 08:50 Принц Персии: Пески времени / Prince of Persia: The Sands of Time (2010) BDRip 720p от Leonardo and Scarabey | Лицензия .torrent   [Информация о файле (нажмите для просмотра)] Перевод: Профессиональный (полное дублирование) Лицензия | BD CEEФормат: MKVВидео кодек: MPEG-4 AVC Аудио кодек: AC3Видео: AVC, 1280x534 (2.40:1) at 23.976 fps, AVC at 6575 kbps avg, 0.393 bit/pixelАудио: Russian: 48 kHz; AC3 5.1; 640.00 kbps avg; профессиональный, полное дублированиеСубтитры: Русские, английские 5,84 Gb 49 7 25 декабря 2015 08:49 Принц Персии: Пески времени / Prince of Persia: The Sands of Time (2010) BDRip 1080p от denis 100 .torrent   [Информация о файле (нажмите для просмотра)] Перевод: Дублированный, АвторскийКачество: BDRip 1080p (исходник Blu-ray)Видео: 1920x800, 11700 Кбит/сек, 23,976 кадр/сек, AVC, x264, [email protected], 0.318 Бит/[Пиксели*Кадры], 2passАудио 1: AC-3, 640 Кбит/сек, 6 канала(ов), 48,0 КГц - ДублированныйАудио 2: AC-3, 640 Кбит/сек, 6 канала(ов), 48,0 КГц - Авторский одноголосый, ГавриловАудио 3: AC-3, 640 Кбит/сек, 6 канала(ов), 48,0 КГц - Авторский одноголосый, СербинАудио 4: AC-3, 640 Кбит/сек, 6 канала(ов), 48,0 КГц - EnglishСубтитры: Русские (форсированные), Русские, English, English, SDH 11,55 Gb 41 4 25 декабря 2015 08:49 Принц Персии: Пески времени / Prince of Persia: The Sands of Time (2010) HDRip от Youtracker | КПК .torrent   [Информация о файле (нажмите для просмотра)] Перевод: Профессиональный (дублированный)Качество: HDRipФормат: MP4Видео: MPEG-4 Visual at 1080 Кбит/сек; 640 x 272 (2.353) at 23.949 fpsАудио: AAC at 128 Кбит/сек; 2 канала, 48,0 КГц 1003,12 Mb 4 1 25 декабря 2015 08:49 Принц Персии: Пески времени / Prince of Persia: The Sands of Time (2010) BDRip-AVC | D .torrent   [Информация о файле (нажмите для просмотра)] Перевод: Профессиональный (дублированный)Кодек: H.264Качество: BDRip-AVC[Blu-ray 1080p]Видео: 768x320 (2.40:1), 23.976 fps,~835 kbps avg, 0.142 bit/pixelЗвук: 48 kHz, AAC-HE, 2ch, ~64 kbps avgСубтитры: Отсутствуют 745,64 Mb 46 4 25 декабря 2015 08:49 Принц Персии: Пески времени / Prince of Persia: The Sands of Time (2010) BDRip-AVC от potroks | D .torrent   [Информация о файле (нажмите для просмотра)] Перевод: Профессиональный (полное дублирование)Субтитры: Русские (полные + форс.), английские, английские (SDH) |отключаемые|Качество: BDRip-AVC [Blu-Ray Remux]Формат: MKVВидео: H.264, 912x380 (2.40:1), 23,976 fps, 1932 Кbps, 0.233 bit/pixelАудио#1: 48 kHz, AC3 Dolby Digital, 3/2 (L,C,R,l,r) + LFE ch, ~384.00 kbps avg |RUSАудио#2: 48 kHz, AC3 Dolby Digital, 3/2 (L,C,R,l,r) + LFE ch, ~384.00 kbps avg |ENG 2,19 Gb 218 11 25 декабря 2015 08:49 Принц Персии: Пески времени / Prince of Persia: The Sands of Time (2010) BDRip 720p от NoLimits-Team .torrent   [Информация о файле (нажмите для просмотра)] Перевод: ДублированныйСубтитры: Русские | ПолныеКачество: BDRip 720p (DVD5) (Исходник BDRemux)Видео: 1280x534, 4754 Кбит/сек, 23,976 кадр/сек, AVC, x264, [email protected], 2.40:1, 0.290 Бит/[Пиксели*Кадры], 2passАудио: AC-3, 640 Кбит/сек, 6 канала(ов), 48,0 КГц 4,37 Gb 94 11 25 декабря 2015 08:49 Принц Персии: Пески времени / Prince of Persia: The Sands of Time (2010) BDRip 1080p .torrent   [Информация о файле (нажмите для просмотра)] Перевод: Дублированный + ОригиналКодек: x264Качество: BDRip 1080pВидео: 1920x800, 8308 Kbps, 23.976 fpsАудио #1: AC-3, 6 ch, 640 kbps (Rus)Аудио #2: AC-3, 6 ch, 640 kbps (Eng)Видео: Идентификатор : 1 Формат : AVC Формат/Информация : Advanced Video Codec Профиль формата : [email protected] Параметр CABAC формата : Да Параметр ReFrames формата : 5 кадров Идентификатор кодека : V_MPEG4/ISO/AVC Продолжительность : 1 ч. 55 м. Битрейт : 8308 Кбит/сек Ширина : 1920 пикселей Высота : 800 пикселей Соотношение сторон : 2,40:1 Режим частоты кадров : Постоянный Частота кадров : 23,976 кадра/сек Цветовое пространство : YUV Субдискретизация насыщенности : 4:2:0 Битовая глубина : 8 бит Тип развёртки : Прогрессивная Бит/(Пиксели*Кадры) : 0.226 Размер потока : 6,57 Гбайт (85%) Заголовок : Rip by Boriy Библиотека кодирования : x264 core 129 r2230 1cffe9f Настройки программы : cabac=1 / ref=5 / deblock=1:0:0 / analyse=0x3:0x113 / me=umh / subme=10 / psy=1 / psy_rd=1.00:0.10 / mixed_ref=1 / me_range=32 / chroma_me=1 / trellis=2 / 8x8dct=1 / cqm=0 / deadzone=21,11 / fast_pskip=0 / chroma_qp_offset=-3 / threads=12 / lookahead_threads=2 / sliced_threads=0 / nr=0 / decimate=0 / interlaced=0 / bluray_compat=0 / constrained_intra=0 / bframes=5 / b_pyramid=2 / b_adapt=2 / b_bias=0 / direct=3 / weightb=1 / open_gop=0 / weightp=2 / keyint=240 / keyint_min=23 / scenecut=40 / intra_refresh=0 / rc=2pass / mbtree=0 / bitrate=8308 / ratetol=1.0 / qcomp=0.60 / qpmin=0 / qpmax=69 / qpstep=4 / cplxblur=20.0 / qblur=0.5 / ip_ratio=1.40 / pb_ratio=1.30 / aq=1:0.80 Язык : English Default : Да Forced : НетАудио #1: Идентификатор : 2 Формат : AC-3 Формат/Информация : Audio Coding 3 Расширение режима : CM (complete main) Параметр Endianness формата : Big Идентификатор кодека : A_AC3 Продолжительность : 1 ч. 55 м. Вид битрейта : Постоянный Битрейт : 640 Кбит/сек Каналы : 6 каналов Расположение каналов : Front: L C R, Side: L R, LFE Частота : 48,0 КГц Битовая глубина : 16 бит Метод сжатия : С потерями Размер потока : 531 Мбайт (7%) Заголовок : Дубляж Язык : Russian Default : Да Forced : НетАудио #2: Идентификатор : 3 Формат : AC-3 Формат/Информация : Audio Coding 3 Расширение режима : CM (complete main) Параметр Endianness формата : Big Идентификатор кодека : A_AC3 Продолжительность : 1 ч. 55 м. Вид битрейта : Постоянный Битрейт : 640 Кбит/сек Каналы : 6 каналов Расположение каналов : Front: L C R, Side: L R, LFE Частота : 48,0 КГц Битовая глубина : 16 бит Метод сжатия : С потерями Размер потока : 531 Мбайт (7%) Заголовок : Оригинал Язык : English Default : Нет Forced : Нет 7,76 Gb 97 12 25 декабря 2015 08:49 Принц Персии: Пески времени / Prince of Persia: The Sands of Time (2010) HDRip | КПК от Generalfilm .torrent   [Информация о файле (нажмите для просмотра)] Качество: HDRip | КПКВидео: кодеккодек: x264,формат: mp4,размер кадра: 480х200, битрейт: 350 кб/сАудио: языкрусский, перевод: Дублированный (дубляж), 399,04 Mb 20 2 25 декабря 2015 08:49 Принц Персии: Пески времени / Prince of Persia: The Sands of Time (2010) HDRip-AVC .torrent   [Информация о файле (нажмите для просмотра)] Перевод: Дублированный | ЛицензияФормат: MP4Качество: HDRipВидео: 720x304, 1417 Kb/sЗвук: AAC, 2ch, 192 Kb/s | РусскийЗвук: AAC, 2ch, 192 Kb/s | АнглийскийСубтитры: English / Russian (Внешние) 1,46 Gb 553 29 25 декабря 2015 08:49 Принц Персии: Пески времени / Prince of Persia: The Sands of Time Edition (2010) BDRemux | Collector Edition .torrent   [Информация о файле (нажмите для просмотра)] Перевод: ДублированныйКодек: MKVКачество: BDRemux | Collector EditionВидео: MPEG-4 AVC, 20.18 Mbit / s, 1920x1080, 23.976 frame / sЗвук: Russian (AC3, 6 ch, 640 kbit / s - dubbing), Russian (AC3, 6 ch, 448 kbit / s - Gavrilov, zamez), Ukrainian (AC3, 6 ch, 640 kbit / s - dub) English (DTS-HD MA, 6 ch, 4197 kbit / s)Субтитры: Russian, Ukrainian, English 20,24 Gb 18 8 25 декабря 2015 08:49 Принц Персии: Пески времени / Prince of Persia: The Sands of Time (2010) BDRip от HAZARDA .torrent   [Информация о файле (нажмите для просмотра)] Перевод: Профессиональный (полное дублирование)Кодек: x264Качество: BDRipВидео: x264, 1280x536, 23.976 кадр/сек, AVC ~ 3073 kbps avg, 0.187 bit/pixelЗвук: Русский - AC-3, 6 канала(ов), 48 kHz, 448 kbpsСубтитры: Нет 2,85 Gb 11 6 25 декабря 2015 08:49 Принц Персии: Пески времени / Prince of Persia: The Sands of Time (2010) BDRip (1080p) от HD-Zona-X .torrent   [Информация о файле (нажмите для просмотра)] Перевод: Дублированный, авторский (одноголосый) (А.Гаврилов)Кодек: H.264,Качество: BDRip (1080p)Видео: 1920 x 800 (2.40:1), 23,976 кадр/сек, H.264, 13.0 Мбит/секЗвук: Русский (AC3, 6 ch, 640 Кбит/с), украинский (AC3, 6 ch, 640 Кбит/с), авторский одноголосый А.Гаврилов (DTS, 6 ch, 1510 Кбит/с), английский (DTS, 6 ch, 1510 Кбит/с)Субтитры: Нет 14 Gb 7 6 25 декабря 2015 08:49 Принц Персии: Пески времени / Prince of Persia: The Sands of Time (2010) DVD5 by Allep | Cжатый .torrent   [Информация о файле (нажмите для просмотра)] Перевод: Качество: DVD5 (Сжатый). Переработанная лицензия R5Видео: PAL 16:9 (720x576) VBR (typical bitrates ~ 4 235 Kbрs)Аудио: 1. Russian (Dolby AC3, 6 ch) 448 kbps; 2. English (Dolby AC3, 6 ch) 448 kbps.Субтитры: Русские, Английские, Русские (форсированные)Видео: Идентификатор : 224 (0xE0) Формат : MPEG Video Версия формата : Version 2 Профайл формата : [email protected] Параметры матрицы формата : По умолчанию Продолжительность : 25 м. Вид битрейта : Переменный Битрейт : 4502 Кбит/сек Номинальный битрейт : 7865 Кбит/сек Ширина : 720 пикс. Высота : 576 пикс. Соотношение кадра : 16:9 Частота кадров : 25,000 кадр/сек Стандарт вещания : PAL Колориметрия : 4:2:0 Тип развёртки : Прогрессивная Порядок развёртки : Верхнее поле первое Бит/(Пиксели*Кадры) : 0.434 Размер потока : 820 Мегабайт (80%)Аудио #1: Идентификатор : 128 (0x80) Формат : AC-3 Формат/Информация : Audio Coding 3 Продолжительность : 25 м. Вид битрейта : Постоянный Битрейт : 448 Кбит/сек Канал(ы) : 6 канала(ов) Расположение каналов : Front: L C R, Surround: L R, LFE Частота : 48,0 КГц Задержка видео : -360 мс. Размер потока : 81,6 Мегабайт (8%)Аудио #2: Идентификатор : 130 (0x82) Формат : AC-3 Формат/Информация : Audio Coding 3 Продолжительность : 25 м. Вид битрейта : Постоянный Битрейт : 448 Кбит/сек Канал(ы) : 6 канала(ов) Расположение каналов : Front: L C R, Surround: L R, LFE Частота : 48,0 КГц Задержка видео : -392 мс. Размер потока : 81,6 Мегабайт (8%) 4,35 Gb 1 2 25 декабря 2015 08:49 Принц Персии: Пески времени / Prince of Persia: The Sands of Time (2010) BDRip от HELLYWOOD .torrent   [Информация о файле (нажмите для просмотра)] Перевод: Профессиональный (полное дублирование) + Оригинальная звуковая дорожкаСубтитры: Русские, русские (форсированные), английские внешние .srtФормат: AVIКачество: BDRipВидео: 720x304 (2.37:1), 23.976 fps, XviD build 50 ~1911 kbps avg, 0.36 bit/pixelАудио #1: 48 kHz, AC3 Dolby Digital, 3/2 (L,C,R,l,r) + LFE ch, ~384 kbpsАудио #2: 48 kHz, AC3 Dolby Digital, 3/2 (L,C,R,l,r) + LFE ch, ~384 kbps 2,18 Gb 17 2 25 декабря 2015 08:49 Принц Персии: Пески времени / Prince of Persia: The Sands of Time (2010) Blu-Ray .torrent   [Информация о файле (нажмите для просмотра)] Перевод: Профессиональный (полное дублирование) [Лицензия]Качество: Blu-Ray 1080pКонтейнер: BDMVВидео: AVC Video, 20.2 Mбит/с, 1920х1080, 23,976 fps, 16:9, High Profile 4.1Аудио 1: English, DTS-HD Master Audio, 6 ch, 48000 Hz, 4155 kbps, 24-bit (DTS Core: 5.1 / 48 kHz / 1536 kbps / 24-bit)Аудио 2: French, DTS, 6 ch, 48000 Hz, 1536 kbps, 24-bitАудио 3: English, AC3, 6 ch, 48000 Hz, 640 kbpsАудио 4: Русский, AC3, 6 ch, 48000 Hz, 640 kbpsАудио 5: Украинский, AC3, 6 ch, 48000 Hz, 640 kbps 44,69 Gb 3 4 25 декабря 2015 08:49 Принц Персии: Пески времени / Prince of Persia: The Sands of Time (2010) BDRip от SMALL-RiP .torrent   [Информация о файле (нажмите для просмотра)] Перевод: Профессиональный (полное дублирование) + Оригинальная (отдельно)|Лицензия|Формат: AVI ///СОВМЕСТИМО С БЫТОВЫМИ ПЛЕЕРАМИ///Размер 1/3 DVDВидео: 720x304 (2.37:1), 25 fps, XviD build 50 ~1423 kbps avg, 0.26 bit/pixel 1,46 Gb 69 2 25 декабря 2015 08:49 Принц Персии: Пески времени / Prince of Persia: The Sands of Time (2010) 720p BDRip от HQCLUB .torrent   [Информация о файле (нажмите для просмотра)] Перевод: Профессиональный (дублированный) + ОригиналСубтитры: русские (forced), русские, английскиеФормат: MKVКачество: 720p BDRip (источник: BIT-HDTV / Blu-ray Disc / 1080p)Видео: 1280x534 (2.40:1), 23.976 fps, ~5369 kbps avgАудио #1: 48 kHz, AC3 Dolby Digital 5.1 @ 640 kbps (6 channels)|Russian|Аудио #2: 48 kHz/24-bit, DTS 5.1 @ 1536 kbps (6 channels)|English| 6,21 Gb 12 2 25 декабря 2015 08:49 Принц Персии: Пески времени / Prince of Persia: The Sands of Time (2010) HDRip | Лицензия .torrent   [Информация о файле (нажмите для просмотра)] Перевод: Профессиональный (полное дублирование)Кодек: XviDКачество: HDRipВидео: 688x288 (2.39:1), 23.976 fps, XviD build 50 ~761 kbps avg, 0.16 bit/pixelЗвук: 48 kHz, MPEG Layer 3, 2 ch, ~128.00 kbps avg 745,13 Mb 38 3 25 декабря 2015 08:49 Принц Персии: Пески времени / Prince of Persia: The Sands of Time (2010) BDRip от HQCLUB .torrent   [Информация о файле (нажмите для просмотра)] Перевод: Профессиональный (дублированный) + ОригиналСубтитры: русские, русские (форсированные), английские (внешние srt/ass)Формат: AVIКачество: BDRip (источник: BIT-HDTV / Blu-ray Disc / 1080p)Видео: 720x304 (2.37:1), 23.976 fps, XviD build 50 ~1861 kbps avg, 0.35 bit/pixelАудио #1: 48 kHz, AC3 Dolby Digital 5.1 @ 448 kbps (6 channels)|Russian|Аудио #2: 48 kHz, AC3 Dolby Digital 5.1 @ 384 kbps (6 channels)|English| 2,19 Gb 20 2 25 декабря 2015 08:49 Принц Персии: Пески времени / Prince of Persia: The Sands of Time (2010) BDRip от HQ-ViDEO .torrent   2,49 Gb 10 3 25 декабря 2015 08:49 Принц Персии: Пески времени / Prince of Persia: The Sands of Time (2010) DVD5 от vadi .torrent   [Информация о файле (нажмите для просмотра)] Перевод: профессиональный (дублированный)Качество: DVD5 (сжатый vadi)Контейнер: DVD-VideoВидео: PAL 16:9 (720x576) VBRАудио: Русский (Dolby AC3, 6 ch, 448Kbps)Аудио 2: Английский (Dolby AC3, 6 ch, 448Kbps) - оригинальная звуковая дорожкаВидео: Идентификатор : 224 (0xE0) Формат : MPEG Video Версия формата : Version 2 Профайл формата : [email protected] Параметры BVOP формата : Да Параметры матрицы формата : По умолчанию Продолжительность : 25 м. Вид битрейта : Переменный Битрейт : 4714 Кбит/сек Ширина : 720 пикс. Высота : 576 пикс. Соотношение кадра : 16:9 Частота кадров : 25,000 кадр/сек Стандарт вещания : PAL Разрешение : 8 бит Колориметрия : 4:2:0 Бит/(Пиксели*Кадры) : 0.455 Размер потока : 843 МиБ (82%) Библиотека кодирования : TMPGEnc 2.524.63.181Аудио #1: Идентификатор : 128 (0x80) Формат : AC-3 Формат/Информация : Audio Coding 3 Format_Settings_ModeExtension : CM (complete main) Продолжительность : 25 м. Вид битрейта : Постоянный Битрейт : 448 Кбит/сек Канал(ы) : 6 канала(ов) Расположение каналов : Front: L C R, Side: L R, LFE Частота : 48,0 КГц Задержка видео : 59 мс. Размер потока : 80,1 МиБ (8%)Аудио #2: Идентификатор : 130 (0x82) Формат : AC-3 Формат/Информация : Audio Coding 3 Format_Settings_ModeExtension : CM (complete main) Продолжительность : 25 м. Вид битрейта : Постоянный Битрейт : 448 Кбит/сек Канал(ы) : 6 канала(ов) Расположение каналов : Front: L C R, Side: L R, LFE Частота : 48,0 КГц Задержка видео : 59 мс. Размер потока : 80,1 МиБ (8%) 4,36 Gb 1 2

gig-torrent.net

Пески времени через торрент в хорошем качестве бесплатно BDRip

GeneralComplete name                            : C:\Users\1\Pictures\Prinz.Persii.Peski.Vremeni.2010.DUAL.BDRip.XviD.AC3.-HQCLUB.aviFormat                                   : AVIFormat/Info                              : Audio Video InterleaveFormat profile                           : OpenDMLFile size                                : 2.19 GiBDuration                                 : 1h 55mnOverall bit rate                         : 2 700 KbpsMovie name                               : Принц Персии: Пески времени / Prince of Persia: The Sands of Time (2010)Director                                 : DaniLchGenre                                    : Action/Adventure/FantasyWriting application                      : VirtualDubMod 1.5.10.2 (build 2542/release)Copyright                                : http://hqclub.net/Comment                                  : R.G. HQCLUB

VideoID                                       : 0Format                                   : MPEG-4 VisualFormat profile                           : Advanced [email protected] settings, BVOP                    : 1Format settings, QPel                    : NoFormat settings, GMC                     : No warppointsFormat settings, Matrix                  : CustomCodec ID                                 : XVIDCodec ID/Hint                            : XviDDuration                                 : 1h 55mnBit rate                                 : 1 850 KbpsWidth                                    : 720 pixelsHeight                                   : 304 pixelsDisplay aspect ratio                     : 2.35:1Frame rate                               : 23.976 fpsColor space                              : YUVChroma subsampling                       : 4:2:0Bit depth                                : 8 bitsScan type                                : ProgressiveCompression mode                         : LossyBits/(Pixel*Frame)                       : 0.353Stream size                              : 1.50 GiB (69%)Writing library                          : XviD 1.2.1 (UTC 2008-12-04)

Audio #1ID                                       : 1Format                                   : AC-3Format/Info                              : Audio Coding 3Mode extension                           : CM (complete main)Codec ID                                 : 2000Duration                                 : 1h 55mnBit rate mode                            : ConstantBit rate                                 : 448 KbpsChannel(s)                               : 6 channelsChannel positions                        : Front: L C R, Side: L R, LFESampling rate                            : 48.0 KHzBit depth                                : 16 bitsCompression mode                         : LossyStream size                              : 371 MiB (17%)Alignment                                : Split accross interleavesInterleave, duration                     : 42 ms (1.00 video frame)Interleave, preload duration             : 500 ms

Audio #2ID                                       : 2Format                                   : AC-3Format/Info                              : Audio Coding 3Mode extension                           : CM (complete main)Codec ID                                 : 2000Duration                                 : 1h 55mnBit rate mode                            : ConstantBit rate                                 : 384 KbpsChannel(s)                               : 6 channelsChannel positions                        : Front: L C R, Side: L R, LFESampling rate                            : 48.0 KHzBit depth                                : 16 bitsCompression mode                         : LossyStream size                              : 318 MiB (14%)Alignment                                : Split accross interleavesInterleave, duration                     : 42 ms (1.00 video frame)Interleave, preload duration             : 500 ms

piratbit.ru

Пески времени (2010) » The-Cinema.NET – лучший кинотеатр для просмотра онлайн-фильмов бесплатно.

В подборке: Путешествие во времени,Короли и королевы,Магия и волшебство,Древний Восток,Экранизации видеоигр

Информация о фильме:Жанр: БоевикСтрана: США, Walt Disney PicturesГод выпуска: 2010Режиссер: Майк НьюэллПродолжительность: 115 мин.В ролях: Стив Туссэн, Рис Ричи, Гисли Орн Гардарссон, Бен Кингсли, Джемма Артертон, Рональд Пикап, Ричард Койл, Альфред Молина, Джейк Джилленхол, Тоби КеббеллОписание фильма: Известный герой Дастан - приемный сын Персии в нашумевшей компьютерной игре. Дастин отличился в бою за город, где скрывались изменники. Именно тогда он находит странный магический камень. Дастан смел, честен и отважен в честном открытом бою, но не распознает коварные планы царедворца и потеряет доверенное ему королевство вместе с артифаком. Единственный путь исправить свои ошибки - это вернуться в тот день, а для этого Дастану нужен артефакт, имеющего мощную магическую силу. Для возращения своей власти над королевством главному герою культового фильма "Принц Персии: Пески времени" надо отыскать философский камень, и побороться за него с недругами. Для этого Дастин потребуется не только умение профессионально обращаться с холодным оружием, но и иметь немалые способности к гимнастике, эквилибристике и акробатике. @ The-Cinema.net

Оценки зрителей: Также советуем к онлайн просмотру:

9.5

Занимательность:

9.6

Игра актеров: Зарегистрируйтесь, если не хотите видеть этот баннер!

Смотреть Принц Персии: Пески времени онлайн:

Или:

  Скачать торрент "Принц Персии: Пески времени" бесплатно:

Торрент №1

Торрент №2 | BDRip 1080p

Качество: BDRip (Что такое BDRip или DVDRip?)Видео: 1920 x 800 (2.40:1), 23,976 кадр/сек, H.264, 13.0 Мбит/секАудио: Audio1: Русский (AC3, 6 ch, 640 Кбит/с), Audio2: украинский (AC3, 6 ch, 640 Кбит/с), Audio3: авторский одноголосый А.Гаврилов (DTS, 6 ch, 1510 Кбит/с), Audio4: английский (DTS, 6 ch, 1510 Кбит/с)Размер: 14.0 ГБПеревод: Проф. (полное дублирование) Качество: BDRip 1080p (Что такое BDRip или DVDRip?)Видео: 1920x800, 8308 Kbps, 23.976 fpsАудио: AC-3, 6 ch, 640 kbpsРазмер: 7.76 ГБПеревод: Дублированный

Пропустила этот фильм, когда он был на экранах. Совершенно случайно наткнувшись на него, тут же решила пересмотреть. Все потому, что я без ума от Джека Джилленхола. Тут же хочу отметить, что этот безумно талантливый актер великолепно вжился в свою роль, не могу даже представить кого-то другого, кто бы также исполнил ее. Его хитрющие улыбки достойный отдельной похвалы, смотреть на него было одно удовольствие.Сам фильм поставлен на пятерочку. Зрелищный, яркий, сказочный, на протяжении всего просмотра меня не покидало особое волшебное чувство пересечения реальности и волшебства. Думаю, что все ценители «Мумии» также смогут оценить фильм по достоинству.Если кто-то также пропустил его ранее, обязательно рекомендую посмотреть, хотя и во второй раз пересмотреть уверена, что будет очень интересно!

ИнформацияПосетители, находящиеся в группе Гости, не могут оставлять комментарии к данной публикации.

the-cinema.net


Смотрите также