Прибытие торрент в хорошем качестве hd 1080


Скачать торрент Прибытие / Arrival (2016) BDRip 1080p HEVC

mrutor.org

Название: ПрибытиеОригинальное название: ArrivalГод выпуска: 2016Страна: СШАЖанр: фантастика, триллер, драма, детективПродолжительность: 01:56:22Перевод: Дублированный [Лицензия]Субтитры: русские, английскиеВ ролях: Эми Адамс, Джереми Реннер, Майкл Стулбарг, Форест Уитакер, Сангита Патель, Ци Ма, Эбигейл Пнёвски, Марк О’Брайэн, Рут Чианг, Джейдин МэлоунРежиссёр: Дени ВильнёвОписание: Неожиданное появление неопознанных летающих объектов в разных точках планеты повергает мир в трепет. Намерения пришельцев не ясны - вооруженные силы всего мира приведены в полную боевую готовность, а лучшие умы человечества пытаются понять, как разговаривать с непрошенными гостями. Правительство обращается за помощью к лингвисту Луизе Бэнкс и физику Яну Доннели, чтобы предотвратить глобальную катастрофу и найти общий язык с пришельцами. Отныне судьба человечества находится в их руках.Качество: BDRip 1080pФормат: MKVВидео кодек: [email protected]Аудио кодек: AC3, DTSВидео: 1920x804, 23,976 fps, HEVC, ~4057 kbps, 10bitАудио: Rus, 48 kHz/16-bit, AC3 5.1, ~640 kbps | ДубляжАудио: Eng, 48 kHz/24-bit, DTS 5.1, ~1509 kbps | ОригиналНавигация по главам: ПрисутствуетАвтор рипа: Alex_A

Внимание!

- H.265/HEVC (High Efficiency Video Coding) - это новый стандарт кодирования видео. - Стандарт H.265/HEVC является логическим продолжением стандарта H.264/AVC (Advanced Video Coding), и характеризуется более эффективными алгоритмами сжатия, а также поддержкой высокого разрешения вплоть до 8K UHD (8192x4320). Первая версия стандарта H.265 была опубликована в начале 2013 года. - Рипы в фомате HEVC поддерживается не всеми аппаратными проигрывателями. - Для корректного воспроизведения может потребоваться обновление ПО. - Владельцам несовместимого железа просьба не беспокоить, есть альтернативные релизы.

Медиаинфо

Общее Уникальный идентификатор : 184890176439945202073315916958348244350 (0x8B188D7F3F073CE5BE7C5B1A4FA2757E) Полное имя : F:HEVCArrival (2016)Arrival.2016.1080p_HEVCCLUB.mkv Формат : Matroska Версия формата : Version 4 / Version 2 Размер файла : 5,05 Гбайт Продолжительность : 1 ч. 56 м. Общий поток : 6205 Кбит/сек Название фильма : Arrival (2016) - HEVC.CLUB Дата кодирования : UTC 2017-03-04 11:37:00 Программа кодирования : mkvmerge v9.5.0 ('Quiet Fire') 64bit Библиотека кодирования : libebml v1.3.4 + libmatroska v1.4.5 Обложка : Yes Attachments : cover.jpg

Видео Идентификатор : 1 Формат : HEVC Формат/Информация : High Efficiency Video Coding Профиль формата : Main [email protected]@High Идентификатор кодека : V_MPEGH/ISO/HEVC Продолжительность : 1 ч. 56 м. Битрейт : 4057 Кбит/сек Ширина : 1920 пикселей Высота : 804 пикселя Соотношение сторон : 2,40:1 Режим частоты кадров : Постоянный Частота кадров : 23,976 (24000/1001) кадра/сек Цветовое пространство : YUV Субдискретизация насыщенности : 4:2:0 Битовая глубина : 10 бит Бит/(Пиксели*Кадры) : 0.110 Размер потока : 3,30 Гбайт (65%) Заголовок : HEVC.CLUB Библиотека кодирования : x265 2.2+22-20217c8af8ac:[Windows][GCC 6.2.0][64 bit] 10bit Настройки программы : cpuid=1173503 / frame-threads=3 / numa-pools=8 / wpp / no-pmode / no-pme / no-psnr / ssim / log-level=2 / input-csp=1 / input-res=1920x804 / interlace=0 / total-frames=0 / level-idc=41 / high-tier=1 / uhd-bd=0 / ref=5 / no-allow-non-conformance / repeat-headers / annexb / aud / hrd / info / hash=0 / no-temporal-layers / open-gop / min-keyint=23 / keyint=250 / bframes=8 / b-adapt=2 / b-pyramid / bframe-bias=0 / rc-lookahead=60 / lookahead-slices=1 / scenecut=40 / no-intra-refresh / ctu=64 / min-cu-size=8 / no-rect / no-amp / max-tu-size=32 / tu-inter-depth=3 / tu-intra-depth=3 / limit-tu=0 / rdoq-level=1 / signhide / no-tskip / nr-intra=0 / nr-inter=0 / no-constrained-intra / no-strong-intra-smoothing / max-merge=2 / limit-refs=3 / no-limit-modes / me=1 / subme=4 / merange=64 / temporal-mvp / weightp / weightb / no-analyze-src-pics / deblock=-3:-3 / no-sao / no-sao-non-deblock / rd=4 / no-early-skip / no-rskip / no-fast-intra / no-tskip-fast / no-cu-lossless / no-b-intra / rdpenalty=0 / psy-rd=1.60 / psy-rdoq=2.30 / no-rd-refine / analysis-mode=0 / no-lossless / cbqpoffs=0 / crqpoffs=0 / rc=crf / crf=22.0 / qcomp=0.90 / qpstep=6 / stats-write=0 / stats-read=0 / vbv-maxrate=50000 / vbv-bufsize=50000 / vbv-init=0.9 / crf-max=0.0 / crf-min=0.0 / ipratio=1.50 / pbratio=1.00 / aq-mode=1 / aq-strength=1.20 / no-cutree / zone-count=0 / no-strict-cbr / qg-size=32 / no-rc-grain / qpmax=69 / qpmin=0 / sar=1 / overscan=0 / videoformat=5 / range=0 / colorprim=1 / transfer=1 / colormatrix=1 / chromaloc=0 / display-window=0 / max-cll=0,0 / min-luma=0 / max-luma=1023 / log2-max-poc-lsb=8 / vui-timing-info / vui-hrd-info / slices=1 / opt-qp-pps / opt-ref-list-length-pps / no-multi-pass-opt-rps / scenecut-bias=0.05 / no-opt-cu-delta-qp / no-aq-motion Default : Да Forced : Да Цветовой диапазон : Limited Основные цвета : BT.709 Характеристики трансфера : BT.709 Коэффициенты матрицы : BT.709

Аудио #1 Идентификатор : 2 Формат : AC-3 Формат/Информация : Audio Coding 3 Расширение режима : CM (complete main) Параметр Endianness формата : Big Идентификатор кодека : A_AC3 Продолжительность : 1 ч. 56 м. Вид битрейта : Постоянный Битрейт : 640 Кбит/сек Каналы : 6 каналов Расположение каналов : Front: L C R, Side: L R, LFE Частота : 48,0 КГц Частота кадров : 31,250 кадров/сек (1536 spf) Метод сжатия : С потерями Размер потока : 533 Мбайт (10%) Заголовок : Dub Язык : Russian Default : Да Forced : Нет

Аудио #2 Идентификатор : 3 Формат : DTS Формат/Информация : Digital Theater Systems Режим : 16 Параметр Endianness формата : Big Идентификатор кодека : A_DTS Продолжительность : 1 ч. 56 м. Вид битрейта : Постоянный Битрейт : 1509 Кбит/сек Каналы : 6 каналов Расположение каналов : Front: L C R, Side: L R, LFE Частота : 48,0 КГц Частота кадров : 93,750 кадра/сек (512 spf) Битовая глубина : 24 бит Метод сжатия : С потерями Размер потока : 1,23 Гбайт (24%) Заголовок : Original Язык : English Default : Нет Forced : Нет

Текст #1 Идентификатор : 4 Формат : UTF-8 Идентификатор кодека : S_TEXT/UTF8 Идентификатор кодека/Информация : UTF-8 Plain Text Продолжительность : 40 м. 3 с. Битрейт : 1 бит/сек Count of elements : 13 Размер потока : 552 байт (0%) Заголовок : Forced Язык : Russian Default : Да Forced : Нет

Текст #2 Идентификатор : 5 Формат : UTF-8 Идентификатор кодека : S_TEXT/UTF8 Идентификатор кодека/Информация : UTF-8 Plain Text Продолжительность : 1 ч. 49 м. Битрейт : 72 бит/сек Count of elements : 759 Размер потока : 57,7 Кбайт (0%) Заголовок : Full Язык : Russian Default : Нет Forced : Нет

Текст #3 Идентификатор : 6 Формат : UTF-8 Идентификатор кодека : S_TEXT/UTF8 Идентификатор кодека/Информация : UTF-8 Plain Text Продолжительность : 1 ч. 48 м. Битрейт : 53 бит/сек Count of elements : 1219 Размер потока : 42,8 Кбайт (0%) Заголовок : Full Язык : English Default : Нет Forced : Нет

Меню 00:00:00.000 : en:00:00:00.000 00:09:49.923 : en:00:09:49.923 00:17:33.552 : en:00:17:33.552 00:23:28.282 : en:00:23:28.282 00:33:54.157 : en:00:33:54.157 00:41:01.709 : en:00:41:01.709 00:52:26.101 : en:00:52:26.101 00:57:34.576 : en:00:57:34.576 01:03:06.449 : en:01:03:06.449 01:09:29.207 : en:01:09:29.207 01:16:09.398 : en:01:16:09.398 01:25:21.825 : en:01:25:21.825 01:35:37.065 : en:01:35:37.065 01:45:26.695 : en:01:45:26.695

Скачать торрент Прибытие / Arrival (2016) Blu-Ray EUR 1080p

mrutor.org

«Why are they here?»

Информация о фильмеНазвание: Прибытие Оригинальное название: Arrival Год выхода: 2016Жанр: Фантастика, триллер, драма, детективРежиссер: Дени ВильнёвВ ролях: Эми Адамс, Джереми Реннер, Майкл Стулбарг, Форест Уитакер, Сангита Патель, Марк О’Брайэн, Эбигейл Пнёвски, Ци Ма, Натали Тибо, Рут Чианг, Анана Ридвальд, Расселл Юэнь, Фрэнк Фиола, Ларри Дэй, Пэт Кили, Джо Кобден, Джулиан Кэйси, Эндрю Шэйвер, Макс Уолкер, Кристиан Джада, Женевьева Сироис, Мустафа Хайдари, Кэтлин Ставерт, Шон Кэмпбелл

О фильме: Неожиданное появление неопознанных летающих объектов в разных точках планеты повергает мир в трепет. Намерения пришельцев не ясны — вооруженные силы всего мира приведены в полную боевую готовность, а лучшие умы человечества пытаются понять, как разговаривать с непрошенными гостями. Правительство обращается за помощью к лингвисту Луизе Бэнкс и физику Яну Доннели, чтобы предотвратить глобальную катастрофу и найти общий язык с пришельцами. Отныне судьба человечества находится в их руках.

Страна: СШАСтудия: 21 Laps Entertainment, FilmNation Entertainment, Lava Bear FilmsПродолжительность: 01:56:31Перевод: Профессиональный (полное дублирование)

ФайлКачество: Blu Ray 1080pФормат: BDMVКодек: MPEG-4 AVC VideoВидео: 1920x1080 (16:9), 23,976 fps, MPEG-4 AVC Video ~ 24913 kbps avg, High Profile 4.1 Аудио#1: DTS-HD Master Audio English 2525 kbps 7.1 / 48 kHz / 2525 kbps / 16-bit (DTS Core: 5.1 / 48 kHz / 1509 kbps / 16-bit)Аудио#2:DTS-HD Master Audio German 2129 kbps 5.1 / 48 kHz / 2129 kbps / 16-bit (DTS Core: 5.1 / 48 kHz / 1509 kbps / 16-bit)Аудио#3:Dolby Digital Audio Russian 640 kbps 5.1 / 48 kHz / 640 kbps / Профессиональный (полное дублирование)Аудио#4:DTS-HD Master Audio Spanish 2126 kbps 5.1 / 48 kHz / 2126 kbps / 16-bit (DTS Core: 5.1 / 48 kHz / 1509 kbps / 16-bit)

Субтитры: Русские, английские, украинские, датские, эстонские, финские, немецкие, латышские, литовские, норвежские, испанские, шведские, турецкие (PGS)

Дополнительно:

• Ксенолингвистика: Осознание прибытия • Постоянное повторение: Счет • Акустические образы: Звуковой дизайн • Непрямолинейное мышление: Процесс редактирования • Принципы времени, памяти и языка

BDInfo Report

DISC INFO:

Disc Title: ARRIVAL_2016_HDCLUB Disc Size: 43 223 442 876 bytes Protection: AACS BD-Java: Yes BDInfo: 0.5.8

PLAYLIST REPORT:

Name: 00001.MPLS Length: 1:56:31.985 (h:m:s.ms) Size: 30 597 427 200 bytes Total Bitrate: 35,01 Mbps

VIDEO:

Codec Bitrate Deion ----- ------- ----------- MPEG-4 AVC Video 24913 kbps 1080p / 23,976 fps / 16:9 / High Profile 4.1

AUDIO:

Codec Language Bitrate Deion ----- -------- ------- ----------- DTS-HD Master Audio English 2525 kbps 7.1 / 48 kHz / 2525 kbps / 16-bit (DTS Core: 5.1 / 48 kHz / 1509 kbps / 16-bit) DTS-HD Master Audio German 2129 kbps 5.1 / 48 kHz / 2129 kbps / 16-bit (DTS Core: 5.1 / 48 kHz / 1509 kbps / 16-bit) Dolby Digital Audio Russian 640 kbps 5.1 / 48 kHz / 640 kbps DTS-HD Master Audio Spanish 2126 kbps 5.1 / 48 kHz / 2126 kbps / 16-bit (DTS Core: 5.1 / 48 kHz / 1509 kbps / 16-bit)

SUBTITLES:

Codec Language Bitrate Deion ----- -------- ------- ----------- Presentation Graphics English 30,845 kbps Presentation Graphics Danish 25,409 kbps Presentation Graphics Estonian 24,452 kbps Presentation Graphics Finnish 25,406 kbps Presentation Graphics German 30,676 kbps Presentation Graphics Latvian 24,289 kbps Presentation Graphics Lithuanian 27,189 kbps Presentation Graphics Norwegian 23,254 kbps Presentation Graphics Russian 32,632 kbps Presentation Graphics Spanish 25,149 kbps Presentation Graphics Swedish 23,530 kbps Presentation Graphics Turkish 31,325 kbps Presentation Graphics Ukrainian 30,893 kbps

Скачать фильм Прибытие через торрент в хорошем качестве бесплатно 1080p

piratbit.ru

Раздают: 6 [ 0 KB/s ]
Размер: 4.47 GB | Добавлен: 8 мес. назад | Торрент скачан:799 раз
Реклама Дарим 3000 рублей за регистрацию, не упусти свой шанс получить шикарный бонус!!!

31-01-2017 19:28 Прибытие Скачать торрент  

Прибытие / Arrival

Год выпуска: 2016Страна: СШАЖанр: фантастика, триллер, драма, детективПродолжительность: 01:56:35Перевод: Дубляж - [Чистый звук] Субтитры: отсутствуют

Режиссер: Дени Вильнёв

В ролях:

Эми Адамс, Джереми Реннер, Майкл Стулбарг, Форест Уитакер, Сангита Патель, Ци Ма, Эбигейл Пнёвски, Марк О’Брайэн, Рут Чианг, Джейдин Мэлоун

Описание: Неожиданное появление неопознанных летающих объектов в разных точках планеты повергает мир в трепет. Намерения пришельцев не ясны — вооруженные силы всего мира приведены в полную боевую готовность, а лучшие умы человечества пытаются понять, как разговаривать с непрошенными гостями. Правительство обращается за помощью к лингвисту Луизе Бэнкс и физику Яну Доннели, чтобы предотвратить глобальную катастрофу и найти общий язык с пришельцами. Отныне судьба человечества находится в их руках.

Качество: WEB-DL 1080pФормат: MKVВидео кодек: H.264Аудио кодек: AC3

Видео: 1916x800p (2.40:1), 23.976 fps, AVC MPEG-4 (H.264), [email protected] ~5082 kbps, 0.139 bit/pixelАудио#1: Русский: 48 kHz, AC3 Dolby Digital, 2 ch, ~384 kbps [Профессиональный (полное дублирование)]

Формат : Matroska Версия формата : Version 4 / Version 2 Размер файла : 4,47 Гбайт Продолжительность : 1 ч. 56 м. Общий поток : 5466 Кбит/сек Дата кодирования : UTC 2017-01-31 11:08:07 Программа кодирования : mkvmerge v9.8.0 ('Kuglblids') 64bit Библиотека кодирования : libebml v1.3.4 + libmatroska v1.4.5

Видео Идентификатор : 1 Формат : AVC Формат/Информация : Advanced Video Codec Профиль формата : [email protected] Параметр CABAC формата : Да Параметр ReFrames формата : 5 кадров Идентификатор кодека : V_MPEG4/ISO/AVC Продолжительность : 1 ч. 56 м. Битрейт : 5082 Кбит/сек Ширина : 1916 пикселей Высота : 800 пикселей Соотношение сторон : 2,40:1 Режим частоты кадров : Постоянный Частота кадров : 23,976 кадра/сек Цветовое пространство : YUV Субдискретизация насыщенности : 4:2:0 Битовая глубина : 8 бит Тип развёртки : Прогрессивная Бит/(Пиксели*Кадры) : 0.139 Размер потока : 4,16 Гбайт (93%) Заголовок : Arrival (2016) Язык : English Default : Да Forced : Нет Цветовой диапазон : Limited Основные цвета : BT.709 Характеристики трансфера : BT.709 Коэффициенты матрицы : BT.709

Аудио Идентификатор : 2 Формат : AC-3 Формат/Информация : Audio Coding 3 Расширение режима : CM (complete main) Параметр Endianness формата : Big Идентификатор кодека : A_AC3 Продолжительность : 1 ч. 56 м. Вид битрейта : Постоянный Битрейт : 384 Кбит/сек Каналы : 2 канала Расположение каналов : Front: L R Частота : 48,0 КГц Частота кадров : 31,250 кадров/сек (1536 spf) Битовая глубина : 16 бит Метод сжатия : С потерями Размер потока : 319 Мбайт (7%) Язык : Russian Default : Да Forced : Нет

Меню 00:00:00.000 : en:Chapter 01 00:09:48.000 : en:Chapter 02 00:17:32.000 : en:Chapter 03 00:23:27.000 : en:Chapter 04 00:33:53.000 : en:Chapter 05 00:41:00.000 : en:Chapter 06 00:52:25.000 : en:Chapter 07 00:57:33.000 : en:Chapter 08 01:03:05.000 : en:Chapter 09 01:09:28.000 : en:Chapter 10 01:16:08.000 : en:Chapter 11 01:25:20.000 : en:Chapter 12 01:35:36.000 : en:Chapter 13 01:45:25.000 : en:Chapter 14

KВорон писал(а):

сэмпл д с ави , для оценки звука.

Скачать Прибытие через торрент http://i2.imageban.ru/out/2017/01/31/89a4ec445421773293fd98072d338d6c.png Скачать фильм Прибытие через торрент бесплантно в хорошем качестве Описание: Неожиданное появление неопознанных летающих объектов в разных точках планеты повергает мир в трепет. Намерения пришельцев не ясны ... 2017-01-31 19:28 9.3 10 34

Loading...

Loading...

% Раздел Тема Автор DL S | L
Ultra HD (UHD: 2K, 4K, 8K) — видео сверхвысокой чёткости [ 51.04 GB ] Прибытие / Arrival [2016 UHD BDRemux 2160p] DUB+2xAVO [] bober100 Скачать
Фильмы [HD 720p, 1080p] (Хороший звук DUB, MVO) [ 8.03 GB ] Прибытие / Arrival [2016 BDRip 720p от _denis_100 | NNNB] DUB + 6xAVO + Original + Sub _denis_100 Скачать
Фильмы с авторской озвучкой [ 1.46 GB ] Прибытие / Arrival [2016 BDRip] [AVO] killermax2013 Скачать
Фильмы 2016 [DVDrip, WEB-DLRip, HDrip] (DUB, MVO) [ 2.19 GB ] Прибытие / Arrival [2016 BDRip] - [] Twi7ter Скачать
Фильмы [HD 720p, 1080p] (Хороший звук DUB, MVO) [ 6.87 GB ] Прибытие / Arrival [2016 BDRip 720p] - sheker187 Скачать
Фильмы [HD 720p, 1080p] (Хороший звук DUB, MVO) [ 12.14 GB ] Прибытие / Arrival [2016 BDRip 1080p] 2x + 3x[Sub] killermax2013 Скачать
R.G.Resident - Фильмы, Видео [ 1.91 GB ] Прибытие / Arrival [2016 BDRip-AVC] - R.G.Resident schultz Скачать

Последний раз редактировалось: bober100 (2017-01-31 19:55), всего редактировалось 1 раз

Рекламный пират

31-01-2017 20:32 Прибытие Скачать торрент  

Раздающему спасибо. Но фильм - откровенное говно. Как всегда хорошие америкосы и плохие китайцы и русские....и очень нудный и скучный.

31-01-2017 21:10 Прибытие Скачать торрент  

lrvxxl писал(а):

Раздающему спасибо. Но фильм - откровенное говно. Как всегда хорошие америкосы и плохие китайцы и русские....и очень нудный и скучный.

Видимо кому как - на Кинопоиске все в восторге, даже профессиональные кинокритики отлично оценили... и куча десяток от рядовых зрителей в оценках (максимальная оценка)...

31-01-2017 23:02 Прибытие Скачать торрент  

5 из 10 филм! конец НИОЧЕМ. интрига а потом полный облом инопланетянин в полный рост крут но НОЛЬ дизайна тела

01-02-2017 16:36 Прибытие Скачать торрент  

lrvxxl писал(а):

Раздающему спасибо. Но фильм - откровенное говно. Как всегда хорошие америкосы и плохие китайцы и русские....и очень нудный и скучный.

Всегда удивляли подобные комментарии. Ну что мешает нашим снять хороший фильм, где русские будут героями, а американцы и европейцы плохими? Кто деньги платит, тот и музыку заказывает.

01-02-2017 18:05 Прибытие Скачать торрент  

Денди писал(а):

lrvxxl писал(а):

Раздающему спасибо. Но фильм - откровенное говно. Как всегда хорошие америкосы и плохие китайцы и русские....и очень нудный и скучный.

Видимо кому как - на Кинопоиске все в восторге, даже профессиональные кинокритики отлично оценили... и куча десяток от рядовых зрителей в оценках (максимальная оценка)...Беру свои слова назад...фильм хоть и отлично оценили на Кинопоиске, но я сам посмотрел от начала до конца - ожидал лучшего..реально фильм ни о чём, да и нудноват..блин, а какая реклама была! Как я его ждал..и такой облом.. Что фильм смотрел, что радио слушал... даже вспомнить толком и нечего. Стираю его с жёсткого диска и даже не жалею.

02-02-2017 19:08 Прибытие Скачать торрент  

jiggajigga писал(а):

Кто деньги платит, тот и музыку заказывает.

Скорее кто их не пилит тот и кинцо норм снимает.

Дорогой пользователь! Огромная просьба, поблагодарите релизера, оцените раздачу и оставьте свои комментарий, если Вы скачали Прибытие через торрент бесплатно! Внесите свою лепту в развитие PiratBit!

Комментировать посты могут только пользователи прошедшие не сложную регистрацию

Прибытие через торрент Скачать бесплатно Прибытие Прибытие скачать торрент Прибытие смотреть онлайн Cкачать фильм Прибытие бесплатно Прибытие скачать торрент в хорошем качестве Прибытие смотреть онлайн бесплатно в хорошем качестве

Вы можете начинать темыВы можете отвечать на сообщенияВы не можете редактировать свои сообщенияВы не можете удалять свои сообщенияВы не можете голосовать в опросахВы не можете прикреплять файлы к сообщениямВы можете скачивать файлы

Прибытие торрент скачать | Скачать торренты в BDRip и HDRip качестве

Прибытие / Arrival / 2016 / ПМ / HDRip / 1.45 ГБ1.45 GBПрибытие / Arrival / 2016 / ДБ, СТ / BDRip (1080p) / 10.07 ГБ10.07 GBПрибытие / Arrival (Дени Вильнёв / Denis Villeneuve) [2016, США, фантастика, триллер, драма, BDRip-AVC] Dub (iTunes) + Sub (rus)1.48 GBПрибытие / Arrival (Дени Вильнёв / Denis Villeneuve) [2016, США, фантастика, триллер, драма, BDRip-AVC] Dub + Original + Sub (rus, eng)2.72 GBПрибытие / Arrival (2016) WEB-DL [H.264/1080p-LQ]4.28 GBПрибытие / Arrival (Дени Вильнёв / Denis Villeneuve) [2016, США, фантастика, триллер, драма, BDRip 1080p] Dub + 2x VO (Матвеев, Есарев) + Original (Eng) + Sub (Rus, Eng)9.86 GBПрибытие / Arrival (Дени Вильнёв / Denis Villeneuve) [2016 г., фантастика, триллер, драма, детектив, BDRip 1080p] Dub + Original (Eng) + Sub (Rus, Eng) + hardsub (Rus)7.75 GBПрибытие / Arrival (2016) HDRip [H.264/720p-LQ]2.18 GBПрибытие / Arrival (2016) DVDScr | Звук с CAMRip1.45 GBПрибытие / Arrival (Дени Вильнёв / Denis Villeneuve) [2016, США, Фантастика, триллер, драма, детектив, экранизация, HDRip] Dub (iTunes)1.45 GBПрибытие / Arrival (Дени Вильнёв / Denis Villeneuve) [2016, США, фантастика, триллер, драма, BDRip] Dub (iTunes) + Original + Sub (rus, eng)2.15 GBПрибытие / Arrival (Дени Вильнёв / Denis Villeneuve) [2016 г., фантастика, триллер, драма, детектив, WEB-DLRip] MVO (Paradox & Omskbird records)1.39 GBПрибытие / Arrival (2016) HDRip | iTunes1.46 GBПрибытие / Arrival / 2016 / ДБ / BDRip / 2.19 ГБ2.19 GBПрибытие / Arrival / 2016 / ДБ, СТ / BDRip (1080p) / 9.75 ГБ9.75 GBПрибытие / Arrival (Дени Вильнёв / Denis Villeneuve) [2016, США, фантастика, триллер, драма, детектив, BDRip] AVO (Гаврилов) + Sub Rus (forced)1.46 GBПрибытие / Arrival (Дени Вильнёв / Denis Villeneuve) [2016, США, Фантастика, триллер, драма, детектив, BDRip 720p] Dub + Sub Rus, Eng + Original Eng5.07 GBПрибытие / Arrival (2016) BDRip2.19 GBПрибытие / Arrival (Дени Вильнёв / Denis Villeneuve) [2016, США, фантастика, триллер, драма, детектив, BDRip-AVC] Dub (iTunes)744.8 MBПрибытие / Arrival (2016) BDRip [H.264/1080p-LQ]4.31 GBПрибытие / Arrival (2016) WEB-DLRip | Paradox&OMSKBIRD1.39 GBПрибытие / Arrival (Дени Вильнёв / Denis Villeneuve) [2016 г., фантастика, триллер, драма, детектив, BDRip 1080p] MVO (Paradox & Omskbird records) + Original (Eng) + Sub (Rus, Eng)9.42 GBПрибытие / Arrival / 2016 / ДБ, СТ / BDRip (AVC) / 1.91 ГБ1.91 GBПрибытие / Arrival (Дени Вильнёв / Denis Villeneuve) [2016 г., фантастика, триллер, драма, детектив, BDRip] Dub + Sub (Rus)1.46 GBПрибытие / Arrival (2016) BDRip [H.264/1080p]9.42 GBПрибытие / Arrival (2016) BDRip [H.264]2.13 GBПрибытие / Arrival (2016) BDRip [H.264/1080p-LQ]4.31 GBПрибытие / Arrival / 2016 / ДБ, СТ / Blu-Ray Remux (1080p) / 26.17 ГБ26.17 GBПрибытие / Arrival (2016) HDRip [H.264]1.62 GBПрибытие / Arrival (2016) BDRip [H.265/1080p-LQ]5.05 GBПрибытие / Arrival (Дени Вильнёв / Denis Villeneuve) [2016 г., фантастика, триллер, драма, детектив, WEB-DL 1080p] MVO (Paradox & Omskbird records) + Original (Eng) + Sub (Eng)4.28 GBПрибытие / Arrival (Дени Вильнёв / Denis Villeneuve) [2016, США, фантастика, триллер, драма, детектив, BDRemux 1080p] [Hybrid] Dub + 2x VO (Есарев, Матвеев) + MVO + Ukr + Original (Eng) + Sub (Rus, Ukr, Eng)33.52 GB(Score) Прибытие / Arrival (Johann Johannsson) - 2016, MP3, 320 kbps130.1 MBПрибытие / Arrival (2016) BDRip [H.264]2.13 GBПрибытие / Arrival (2016) WEB-DL [H.264/1080p-LQ] [Line]4.45 GBПрибытие / Arrival (Дени Вильнёв / Denis Villeneuve) [2016 г., фантастика, триллер, драма, детектив, HDRip] MVO (Paradox & Omskbird records)1.46 GBПрибытие / Arrival (2016) BDRip [H.264]2.13 GBПрибытие / Arrival (Дени Вильнёв / Denis Villeneuve) [2016, США, фантастика, триллер, драма, BDRip 720p] Dub + Original + Sub (rus, eng)5.2 GBПрибытие / Arrival (Дени Вильнёв / Denis Villeneuve) [2016 г., фантастика, триллер, драма, детектив, BDRip-AVC] Dub + Sub (Rus)1.46 GBПрибытие / Arrival (Дени Вильнёв / Denis Villeneuve) [2016 г., фантастика, триллер, драма, детектив, BDRip 1080p] Dub + 2xAVO (Матвеева, Есарев) + Original (Eng) + Sub (Rus, Eng)9.86 GBПрибытие / Arrival / 2016 / ДБ, ПМ, АП (Матвеев, Есарев, Дасевич), СТ / Hybrid / BDRip (1080p) / 13.88 ГБ13.88 GBПрибытие / Arrival (2016) CAMRip | D1.46 GBПрибытие / Arrival (2016) HDRip от Scarabey | iTunes792.75 MBПрибытие / Arrival (2016) BDRip 1080p | L9.42 GBПрибытие / Arrival (Дени Вильнёв / Denis Villeneuve) [2016, США, Фантастика, триллер, драма, детектив, экранизация, HDRip] Dub (iTunes) + Sub Rus745.6 MBПрибытие / Arrival (Дени Вильнёв / Denis Villeneuve) [2016 г., фантастика, триллер, драма, детектив, HDRip] AVO (Матвеев)1.46 GBПрибытие / Arrival / 2016 / ДБ, СТ / BDRip (720p) / 7.08 ГБ7.08 GB(Score) Прибытие / Arrival (Johann Johannsson) - 2016, FLAC (tracks+.cue), lossless239.6 MBПрибытие / The Arrival / 1996 / ПМ / DVDRip / 1.76 ГБ1.76 GB[ATV3] Прибытие / Arrival (Дени Вильнёв / Denis Villeneuve ) [2016, США, Фантастика, триллер, драма, детектив, WEB-DL, HD (1080p)] DUB + Original + sub (rus, eng, ukr)4.71 GB tparser.org – торрент поисковик по популярным торрент трекерам. Находить и скачивать новинки кино в HDRip и BDRip качестве через tparser намного проще! Добро пожаловать на крупный торрент архив фильмов и игр tparser.org. Вам больше не придется искать торренты на основных торрент трекерах в поисках нужной раздачи – мы предлагаем найти и скачать фильмы в хорошем качестве прямо на нашем сайте. Наш сервис поиска торрентов в реальном времени собирает информацию с крупных торрент трекеров и сортирует полученные результаты в удобную таблицу. Скачивайте торренты без ограничений и без всяких регистраций на трекерах. Начните скачивать торрент Прибытие прямо сейчас!

tparser.org

Скачать фильм Прибытие через торрент в хорошем качестве бесплатно 1080p

ОбщееУникальный идентификатор : 171058910832062829888959019614369682374 (0x80B0BF73EBEF78FA938E9653242313C6)Полное имя : D:\KinoZal2\Arrival\Arrival.2016.WEB-DL.(1080p)_ParadoxOMSKBIRD.mkvФормат : MatroskaВерсия формата : Version 4 / Version 2Размер файла : 4,28 ГбайтПродолжительность : 1 ч. 56 м.Общий поток : 5250 Кбит/секНазвание фильма : Arrival (2016)Дата кодирования : UTC 2017-01-31 09:21:17Программа кодирования : mkvmerge v6.9.1 ('Blue Panther') 64bit built on Apr 18 2014 18:23:38Библиотека кодирования : libebml v1.3.0 + libmatroska v1.4.1Attachements : small_cover.jpg / small_cover_land.jpg / cover.jpg / cover_land.jpg

ВидеоИдентификатор : 1Формат : AVCФормат/Информация : Advanced Video CodecПрофиль формата : [email protected]Параметр CABAC формата : ДаПараметр ReFrames формата : 5 кадровИдентификатор кодека : V_MPEG4/ISO/AVCПродолжительность : 1 ч. 56 м.Битрейт : 4442 Кбит/секШирина : 1916 пикселейВысота : 800 пикселейСоотношение сторон : 2,40:1Режим частоты кадров : ПостоянныйЧастота кадров : 24,000 кадра/секЦветовое пространство : YUVСубдискретизация насыщенности : 4:2:0Битовая глубина : 8 битТип развёртки : ПрогрессивнаяБит/(Пиксели*Кадры) : 0.121Размер потока : 3,62 Гбайт (85%)Заголовок : Arrival (2016)Язык : EnglishDefault : ДаForced : НетColor range : LimitedОсновные цвета : BT.709Характеристики трансфера : BT.709Коэффициенты матрицы : BT.709

Аудио #1Идентификатор : 2Формат : AC-3Формат/Информация : Audio Coding 3Расширение режима : CM (complete main)Параметр Endianness формата : BigИдентификатор кодека : A_AC3Продолжительность : 1 ч. 56 м.Вид битрейта : ПостоянныйБитрейт : 320 Кбит/секКаналы : 2 каналаРасположение каналов : Front: L RЧастота : 48,0 КГцМетод сжатия : С потерямиРазмер потока : 267 Мбайт (6%)Заголовок : AC3, 2 ch, 320 Kbps, MVO, Paradox & OMSKBIRDЯзык : RussianDefault : ДаForced : Нет

Аудио #2Идентификатор : 3Формат : AC-3Формат/Информация : Audio Coding 3Расширение режима : CM (complete main)Параметр Endianness формата : BigИдентификатор кодека : A_AC3Продолжительность : 1 ч. 56 м.Вид битрейта : ПостоянныйБитрейт : 384 Кбит/секКаналы : 6 каналовРасположение каналов : Front: L C R, Side: L R, LFEЧастота : 48,0 КГцМетод сжатия : С потерямиРазмер потока : 320 Мбайт (7%)Заголовок : AC3, 6 ch, 384 Kbps, OriginalЯзык : EnglishDefault : НетForced : Нет

ТекстИдентификатор : 4Формат : UTF-8Идентификатор кодека : S_TEXT/UTF8Идентификатор кодека/Информация : UTF-8 Plain TextDefault : НетForced : Нет

Меню00:00:00.000 : en:Chapter 0100:09:48.000 : en:Chapter 0200:17:32.000 : en:Chapter 0300:23:27.000 : en:Chapter 0400:33:53.000 : en:Chapter 0500:41:00.000 : en:Chapter 0600:52:25.000 : en:Chapter 0700:57:33.000 : en:Chapter 0801:03:05.000 : en:Chapter 0901:09:28.000 : en:Chapter 1001:16:08.000 : en:Chapter 1101:25:20.000 : en:Chapter 1201:35:36.000 : en:Chapter 1301:45:25.000 : en:Chapter 14

piratbit.ru

Скачать фильм Прибытие через торрент в хорошем качестве бесплатно HDRip

piratbit.ru

Раздают: 5 [ 0 KB/s ]
Размер: 2.21 GB | Добавлен: 8 мес. назад | Торрент скачан:1214 раз
Реклама Дарим 3000 рублей за регистрацию, не упусти свой шанс получить шикарный бонус!!!

02-02-2017 20:00 Прибытие Скачать торрент  

Прибытие / Arrival Год выпуска: 2016Жанр: Фантастика, триллер, драма, детективВыпущено: США, 21 Laps Entertainment, FilmNation Entertainment, Lava Bear FilmsПродолжительность: 01:56:22Перевод: Дублированный [Лицензия / iTunes]Субтитры: нет

Режиссер: Дени Вильнёв

В ролях: Эми Адамс, Джереми Реннер, Майкл Стулбарг, Форест Уитакер, Сангита Патель, Марк О’Брайэн, Эбигейл Пнёвски, Ци Ма, Натали Тибо, Рут Чианг

О фильме: Неожиданное появление неопознанных летающих объектов в разных точках планеты повергает мир в трепет. Намерения пришельцев не ясны — вооруженные силы всего мира приведены в полную боевую готовность, а лучшие умы человечества пытаются понять, как разговаривать с непрошенными гостями. Правительство обращается за помощью к лингвисту Луизе Бэнкс и физику Яну Доннели, чтобы предотвратить глобальную катастрофу и найти общий язык с пришельцами. Отныне судьба человечества находится в их руках.

Качество: HDRipФормат: AVIВидео: 720x304 (2.37:1), 23.976 fps, XviD build 73 ~1901 kbps avg, 0.36 bit/pixelАудио: 48 kHz, AC3 Dolby Digital, 3/2 (L,C,R,l,r) + LFE ch, ~384.00 kbps avg [DUB]Аудио: 48 kHz, AC3 Dolby Digital, 3/2 (L,C,R,l,r) + LFE ch, ~384.00 kbps avg [ENG]

Скачать Прибытие через торрент http://i90.fastpic.ru/big/2017/0202/0e/dd5cc7b6478574a65be54155ae19890e.jpg Скачать фильм Прибытие через торрент бесплантно в хорошем качестве О фильме: Неожиданное появление неопознанных летающих объектов в разных точках планеты повергает мир в трепет. Намерения пришельцев не ... 2017-02-02 21:05 8.4 10 22

Loading...

Loading...

% Раздел Тема Автор DL S | L
Ultra HD (UHD: 2K, 4K, 8K) — видео сверхвысокой чёткости [ 51.04 GB ] Прибытие / Arrival [2016 UHD BDRemux 2160p] DUB+2xAVO [] bober100 Скачать
Фильмы [HD 720p, 1080p] (Хороший звук DUB, MVO) [ 8.03 GB ] Прибытие / Arrival [2016 BDRip 720p от _denis_100 | NNNB] DUB + 6xAVO + Original + Sub _denis_100 Скачать
Фильмы с авторской озвучкой [ 1.46 GB ] Прибытие / Arrival [2016 BDRip] [AVO] killermax2013 Скачать
Фильмы 2016 [DVDrip, WEB-DLRip, HDrip] (DUB, MVO) [ 2.19 GB ] Прибытие / Arrival [2016 BDRip] - [] Twi7ter Скачать
Фильмы [HD 720p, 1080p] (Хороший звук DUB, MVO) [ 6.87 GB ] Прибытие / Arrival [2016 BDRip 720p] - sheker187 Скачать
Фильмы [HD 720p, 1080p] (Хороший звук DUB, MVO) [ 12.14 GB ] Прибытие / Arrival [2016 BDRip 1080p] 2x + 3x[Sub] killermax2013 Скачать
R.G.Resident - Фильмы, Видео [ 1.91 GB ] Прибытие / Arrival [2016 BDRip-AVC] - R.G.Resident schultz Скачать

Последний раз редактировалось: killermax2013 (2017-02-02 21:05), всего редактировалось 2 раз(а)

Рекламный пират

02-02-2017 20:18 Прибытие Скачать торрент  

Нукась, чё за чудо?))

02-02-2017 20:47 Прибытие Скачать торрент  

Звук отстает от картинки!

02-02-2017 20:58 Прибытие Скачать торрент  

Торент перезалит! Убран рассинхрон

Последний раз редактировалось: killermax2013 (2017-02-02 21:06), всего редактировалось 1 раз

02-02-2017 21:03 Прибытие Скачать торрент  

killermax2013, перезалей уже есть без!

04-02-2017 00:07 Прибытие Скачать торрент  

так и не понял на кой чёрт прилетали эти пришельцы... Печаль

04-02-2017 07:40 Прибытие Скачать торрент  

Фильм... печаль (. На разок

04-02-2017 09:59 Прибытие Скачать торрент  

Я тоже не понял, но пересматривать не буду....

04-02-2017 18:55 Прибытие Скачать торрент  

Ворон писал(а):

Я тоже не понял, но пересматривать не буду....

они прилетели научить нас своему языку, т.к. им понадобится помощь через 2000 лет(они видят будущие)

Pекламный агент PB

05-02-2017 10:23 Прибытие Скачать торрент  

Wlad123 писал(а):

Ворон писал(а):

Я тоже не понял, но пересматривать не буду....

они прилетели научить нас своему языку, т.к. им понадобится помощь через 2000 лет(они видят будущие)вообщето вроде через 3000 лет ну а фильм длятех кто любит драмы и мелодрамы

05-02-2017 14:46 Прибытие Скачать торрент  

Не смог через неделю вспомнить , а фильм то про что и чем закончился ?

05-02-2017 17:14 Прибытие Скачать торрент  

Фильм на один раз, смотрел с девушкой, концовка фигня(

06-02-2017 16:06 Прибытие Скачать торрент  

Я очень терпеливый зритель!!! Но это просто жуткая муть!!!

28-02-2017 11:46 Прибытие Скачать торрент  

Редкая чушь!!!!!! Не тратьте время. В помойку.

Дорогой пользователь! Огромная просьба, поблагодарите релизера, оцените раздачу и оставьте свои комментарий, если Вы скачали Прибытие через торрент бесплатно! Внесите свою лепту в развитие PiratBit!

Комментировать посты могут только пользователи прошедшие не сложную регистрацию

Прибытие через торрент Скачать бесплатно Прибытие Прибытие скачать торрент Прибытие смотреть онлайн Cкачать фильм Прибытие бесплатно Прибытие скачать торрент в хорошем качестве Прибытие смотреть онлайн бесплатно в хорошем качестве

Вы можете начинать темыВы можете отвечать на сообщенияВы не можете редактировать свои сообщенияВы не можете удалять свои сообщенияВы не можете голосовать в опросахВы не можете прикреплять файлы к сообщениямВы можете скачивать файлы

Скачать фильм Прибытие через торрент в хорошем качестве бесплатно 1080p

ОбщееУникальный идентификатор : 246358299341435116576135462989201503047 (0xB956E1F06F627443AFA2279ED4117347)Полное имя : Arrival.2016.BDRip.1080p.mkvФормат : MatroskaВерсия формата : Version 4 / Version 2Размер файла : 15,1 ГбайтПродолжительность : 1 ч. 56 м.Общий поток : 18,6 Мбит/секДата кодирования : UTC 2017-03-04 02:17:12Программа кодирования : mkvmerge v9.9.0 ('Pick Up') 64bitБиблиотека кодирования : libebml v1.3.4 + libmatroska v1.4.5Обложка : YesAttachments : Cover.png

ВидеоИдентификатор : 1Формат : AVCФормат/Информация : Advanced Video CodecПрофиль формата : [email protected]Параметр CABAC формата : ДаПараметр ReFrames формата : 5 кадровИдентификатор кодека : V_MPEG4/ISO/AVCПродолжительность : 1 ч. 56 м.Битрейт : 13,4 Мбит/секШирина : 1920 пикселейВысота : 804 пикселяСоотношение сторон : 2,40:1Режим частоты кадров : ПостоянныйЧастота кадров : 23,976 (24000/1001) кадра/секЦветовое пространство : YUVСубдискретизация насыщенности : 4:2:0Битовая глубина : 8 битТип развёртки : ПрогрессивнаяБит/(Пиксели*Кадры) : 0.362Размер потока : 10,9 Гбайт (72%)Библиотека кодирования : x264 core 148 r2705+54 9f484c1 t_mod_Custom [[email protected] X86_64]Настройки программы : cabac=1 / ref=5 / deblock=1:-3:-3 / analyse=0x3:0x133 / me=umh / subme=11 / psy=1 / fade_compensate=0.00 / psy_rd=1.05:0.00 / mixed_ref=1 / me_range=32 / chroma_me=1 / trellis=2 / 8x8dct=1 / cqm=0 / deadzone=21,11 / fast_pskip=0 / chroma_qp_offset=-2 / threads=12 / lookahead_threads=2 / sliced_threads=0 / nr=0 / decimate=0 / interlaced=0 / bluray_compat=0 / constrained_intra=0 / fgo=0 / bframes=9 / b_pyramid=2 / b_adapt=2 / b_bias=0 / direct=3 / weightb=1 / open_gop=0 / weightp=2 / keyint=250 / keyint_min=23 / scenecut=40 / intra_refresh=0 / rc_lookahead=60 / rc=crf / mbtree=0 / crf=15.8000 / qcomp=0.65 / qpmin=0:0:0 / qpmax=69:69:69 / qpstep=4 / vbv_maxrate=62500 / vbv_bufsize=78125 / crf_max=0.0 / nal_hrd=none / filler=0 / ip_ratio=1.30 / pb_ratio=1.20 / aq=3:0.80 / aq-sensitivity=10.00 / aq-factor=1.00:1.00:1.00 / aq2=0 / aq3=0 / zones=510,805,crf=13/1030,1348,crf=13/20898,20983,crf=14.5/21470,21647,crf=13/21893,22796,crf=14.5/22797,22952,crf=14/22953,25259,crf=14.5/27897,27974,crf=14/28151,28268,crf=14/28867,29073,crf=14.5/33765,36584,crf=14/46392,46789,crf=14/47167,47244,crf=13/47362,47443,crf=13/53587,53827,crf=13/53925,54105,crf=15/54606,54687,crf=13/54717,54993,crf=13/55339,55619,crf=13/55819,56080,crf=15/64125,64238,crf=13/65519,65959,crf=14/66311,66702,crf=15/66790,66951,crf=15/67043,67211,crf=15/70252,70314,crf=13/75690,76132,crf=15/80337,82826,crf=15/84529,84679,crf=14/85276,85441,crf=14/85513,85662,crf=14/88866,90274,crf=15/95836,95908,crf=14/101375,101462,crf=13/103282,103434,crf=15/106745,106932,crf=14/108203,108274,crf=12/122800,123150,crf=13/123843,124029,crf=13/124442,124573,crf=14/124687,125169,crf=14/137942,138063,crf=14/138503,138618,crf=14/150062,150227,crf=14/150882,151183,crf=14Язык : EnglishDefault : ДаForced : НетЦветовой диапазон : LimitedКоэффициенты матрицы : BT.709

Аудио #1Идентификатор : 2Формат : AC-3Формат/Информация : Audio Coding 3Расширение режима : CM (complete main)Параметр Endianness формата : BigИдентификатор кодека : A_AC3Продолжительность : 1 ч. 56 м.Вид битрейта : ПостоянныйБитрейт : 640 Кбит/секКаналы : 6 каналовРасположение каналов : Front: L C R, Side: L R, LFEЧастота : 48,0 КГцЧастота кадров : 31,250 кадров/сек (1536 spf)Метод сжатия : С потерямиРазмер потока : 533 Мбайт (3%)Заголовок : BD CEEЯзык : RussianDefault : ДаForced : Нет

Аудио #2Идентификатор : 3Формат : DTSФормат/Информация : Digital Theater SystemsРежим : 16Параметр Endianness формата : BigИдентификатор кодека : A_DTSПродолжительность : 1 ч. 56 м.Вид битрейта : ПостоянныйБитрейт : 1509 Кбит/секКаналы : 6 каналовРасположение каналов : Front: L C R, Side: L R, LFEЧастота : 48,0 КГцЧастота кадров : 93,750 кадра/сек (512 spf)Битовая глубина : 24 битМетод сжатия : С потерямиРазмер потока : 1,23 Гбайт (8%)Заголовок : Д. ЕсаревЯзык : RussianDefault : НетForced : Нет

Аудио #3Идентификатор : 4Формат : DTSФормат/Информация : Digital Theater SystemsРежим : 16Параметр Endianness формата : BigИдентификатор кодека : A_DTSПродолжительность : 1 ч. 56 м.Вид битрейта : ПостоянныйБитрейт : 1509 Кбит/секКаналы : 6 каналовРасположение каналов : Front: L C R, Side: L R, LFEЧастота : 48,0 КГцЧастота кадров : 93,750 кадра/сек (512 spf)Битовая глубина : 24 битМетод сжатия : С потерямиРазмер потока : 1,23 Гбайт (8%)Заголовок : А. МатвеевЯзык : RussianDefault : НетForced : Нет

Аудио #4Идентификатор : 5Формат : DTSФормат/Информация : Digital Theater SystemsРежим : 16Параметр Endianness формата : BigИдентификатор кодека : A_DTSПродолжительность : 1 ч. 56 м.Вид битрейта : ПостоянныйБитрейт : 1509 Кбит/секКаналы : 6 каналовРасположение каналов : Front: L C R, Side: L R, LFEЧастота : 48,0 КГцЧастота кадров : 93,750 кадра/сек (512 spf)Битовая глубина : 24 битМетод сжатия : С потерямиРазмер потока : 1,23 Гбайт (8%)Язык : EnglishDefault : НетForced : Нет

Текст #1Идентификатор : 6Формат : UTF-8Идентификатор кодека : S_TEXT/UTF8Идентификатор кодека/Информация : UTF-8 Plain TextПродолжительность : 40 м.Битрейт : 1 бит/секCount of elements : 13Размер потока : 552 байт (0%)Заголовок : ForcedЯзык : RussianDefault : ДаForced : Нет

Текст #2Идентификатор : 7Формат : UTF-8Идентификатор кодека : S_TEXT/UTF8Идентификатор кодека/Информация : UTF-8 Plain TextПродолжительность : 1 ч. 49 м.Битрейт : 72 бит/секCount of elements : 759Размер потока : 57,7 Кбайт (0%)Язык : RussianDefault : НетForced : Нет

Текст #3Идентификатор : 8Формат : UTF-8Идентификатор кодека : S_TEXT/UTF8Идентификатор кодека/Информация : UTF-8 Plain TextПродолжительность : 1 ч. 48 м.Битрейт : 49 бит/секCount of elements : 1222Размер потока : 39,7 Кбайт (0%)Язык : EnglishDefault : НетForced : Нет

Текст #4Идентификатор : 9Формат : UTF-8Идентификатор кодека : S_TEXT/UTF8Идентификатор кодека/Информация : UTF-8 Plain TextПродолжительность : 1 ч. 48 м.Битрейт : 56 бит/секCount of elements : 1439Размер потока : 45,4 Кбайт (0%)Заголовок : SDHЯзык : EnglishDefault : НетForced : Нет

Меню00:00:00.000 : en:00:00:00.00000:09:49.923 : en:00:09:49.92300:17:33.552 : en:00:17:33.55200:23:28.282 : en:00:23:28.28200:33:54.157 : en:00:33:54.15700:41:01.709 : en:00:41:01.70900:52:26.101 : en:00:52:26.10100:57:34.576 : en:00:57:34.57601:03:06.449 : en:01:03:06.44901:09:29.207 : en:01:09:29.20701:16:09.398 : en:01:16:09.39801:25:21.825 : en:01:25:21.82501:35:37.065 : en:01:35:37.06501:45:26.695 : en:01:45:26.695

piratbit.ru


Смотрите также