Прежде чем я усну скачать торрент в хорошем качестве


Прежде чем я усну / Before I Go to Sleep скачать фильм торрент 2014 -

Коротко о фильме "Прежде чем я усну" - История о женщине, потерявшей память: каждое утро последние двадцать лет просто исчезают из ее воспоминаний, и каждое утро ей приходится по крупицам восстанавливать собственную жизнь.

Добавлено BDRip, HDRip, лицензия.

Прежде чем я усну

Оригинальное название Before I Go to Sleep
Фильм выпущен: 2014
Страна (кинокомпания): Великобритания, Франция, Швеция
Pежиссер: Роуэн Жоффе
Сценарий фильма: Роуэн Жоффе, С.Дж. Уотсон
Продюсер фильма: Марк Гилл, Ави Лернер, Лиза Маршалл
Оператор: Бен Дэвис
Композитор: Эд Ширмёр
Художники: Кейв Куинн, Тим Блейк, Марк Раггетт
Монтаж: Мелани Оливер
Жанр фильма: триллер, детектив, драма
Премьера (мир): 4 сентября 2014
премьера (Pоссия): 30 октября 2014, Парадиз
продолжительность92 мин
В главных ролях:
Флинн МакАртур
Гэбриел Стронг
Адам Леви
Энн-Мэри Дафф
Бен Кромптон
Марк Стронг
Колин Фёрт
Николь Кидман
и другие ...

Трейлер фильма:

 

Фильм Прежде чем я усну / Before I Go to Sleep скачать торрент - новинка кино 2014

Скачать файлы .torrent Прежде чем я усну (фильм)

на сайте Вы можете получить ссылку на торрент файлы или скачать сами торрент файлы, в которых находится информация о местонахождении фильмов, сериалов у пользователей.

В фильме "Прежде чем я усну" - женщина просыпается каждый день, ничего не помня о прошедшем времени, но, однажды, новые ужасающие истины вынуждают ее начать распрашивать всех вокруг нее



Параметры: 20.01.2015 BDRip от HQCLUB | UK Transfer | Лицензия, 1488 Мб

Формат: BDRip (источник: Talian70 / B, размер файла: 1488 МбВидео: 720x304, XviD - build 65 ~1806 Кбит/сАудио: Русский: AC3, 6 каналов, 448 Кбит/с::Украинский: AC3, 2 канала, 192 Кбит/с::English: AC3, 6 каналов, 448 Кбит/сПеревод (озвучивание): Профессиональный (полное дублирование)

Параметры: 09.01.2015 BDRip 720p | Лицензия, 7,65 Гб

Формат: BDRip 720p, MKV, AVC, DTS, размер файла: 7,65 ГбВидео: 1280x544, AVC - 9385 Кбит/сАудио: Русский: DTS, 6 каналов, 1510 Кбит/с / English: DTS, 6 каналов, 768 Кбит/сПеревод (озвучивание): Профессиональный (дублированный)

Параметры: 21.12.2014 HDRip от Scarabey | Лицензия, 1,45 Гб

Формат: HDRip, AVI, XviD, AC3, размер файла: 1,45 ГбВидео: 720x304, XviD - build 50 ~1887 Кбит/сАудио: AC3, 6 каналов, 448 Кбит/сПеревод (озвучивание): Профессиональный (полное дублирование) - Лицензия

Параметры: 21.12.2014 BDRip-AVC от HELLYWOOD | Лицензия, 1,46 Гб

Формат: BDRip-AVC, MKV, AC3, размер файла: 1,46 ГбВидео: 1032x432, H.264 -Аудио: AC3, 6 каналов, 448 Кбит/сПеревод (озвучивание): Профессиональный (полное дублирование) [лицензия BD RUS]

Параметры: 19.12.2014 BDRip-AVC от NNNB | RUS Transfer,

Формат: BDRip-AVC (исходник Blu-ray), MKV, AVC, AC3, размер файла: Видео: 1024x428, AVC - 1 891 Кбит/сАудио: Русский: AC3, 6 каналов, 448 Кбит/сПеревод (озвучивание): Дублированный

Параметры: 19.12.2014 BDRip 1080p от NNNB | RUS Transfer, 5,76 Гб

Формат: BDRip 1080p (исходник Blu-ray), MKV, AVC, AC3, размер файла: 5,76 ГбВидео: 1920x804, AVC - 8701 Кбит/сАудио: Русский: AC3, 6 каналов, 640 Кбит/сПеревод (озвучивание): Дублированный

Параметры: 18.12.2014 HDRip, 1,46 Гб -

Формат: HDRip, XviD, AC3, размер файла: 1,46 ГбВидео: 720x304, XviD - 1911 Кбит/сАудио: Русский: AC3, 6 каналов, 448 Кбит/сПеревод (озвучивание): Дублированный [Лицензия]

Параметры: 18.11.2014 WEBRip, 700 Мб -

Формат: WEBRip, XviD, AC3, размер файла: 700 МбВидео: 720x304, XviD - 1146 Кбит/сАудио: Русский: AC3, 2 канала, 192 Кбит/сПеревод (озвучивание): Дублированный [чистый звук] Официальный

Параметры: 18.11.2014 WEBRip | Чистый звук, 700 Мб

Формат: WEBRip, AVI, XviD, AC3, размер файла: 700 МбВидео: 720x304, XviD - 1 132 Кбит/сАудио: AC3, 2 канала, 128 Кбит/сПеревод (озвучивание): Дублированное [Line]

Скачать Прежде чем я усну, Before I Go to Sleep, фильм бесплатно скачать торрент, триллер, детектив, драма, новинка кино

 

hokit.ru

Скачать фильм Прежде чем я усну через торрент в хорошем качестве бесплатно BDRip-AVC

Format                                   : MatroskaFormat version                           : Version 2File size                                : 1.44 GiBDuration                                 : 1h 28mnOverall bit rate                         : 2 336 KbpsMovie name                               : Prezhde chem ja usnu.(2014).BDRip-AVC.[denis100]Encoded date                             : UTC 2014-12-19 09:17:36Writing application                      : mkvmerge v5.8.0 ('No Sleep / Pillow') built on Sep  2 2012 15:37:04Writing library                          : libebml v1.2.3 + libmatroska v1.3.0

VideoID                                       : 1Format                                   : AVCFormat/Info                              : Advanced Video CodecFormat profile                           : [email protected] settings, CABAC                   : YesFormat settings, ReFrames                : 11 framesCodec ID                                 : V_MPEG4/ISO/AVCDuration                                 : 1h 28mnBit rate                                 : 1 891 KbpsWidth                                    : 1 024 pixelsHeight                                   : 428 pixelsDisplay aspect ratio                     : 2.40:1Frame rate mode                          : ConstantFrame rate                               : 25.000 fpsColor space                              : YUVChroma subsampling                       : 4:2:0Bit depth                                : 8 bitsScan type                                : ProgressiveBits/(Pixel*Frame)                       : 0.173Stream size                              : 1.14 GiB (79%)Title                                    : Prezhde chem ja usnu.(2014).BDRip-AVC.[denis100].RUS TransferWriting library                          : x264 core 142 r2491 24e4fedEncoding settings                        : cabac=1 / ref=11 / deblock=1:-3:-3 / analyse=0x3:0x133 / me=umh / subme=11 / psy=1 / psy_rd=1.00:0.10 / mixed_ref=1 / me_range=32 / chroma_me=1 / trellis=2 / 8x8dct=1 / cqm=0 / deadzone=21,11 / fast_pskip=0 / chroma_qp_offset=-3 / threads=6 / lookahead_threads=1 / sliced_threads=0 / nr=0 / decimate=1 / interlaced=0 / bluray_compat=0 / constrained_intra=0 / bframes=8 / b_pyramid=2 / b_adapt=2 / b_bias=0 / direct=3 / weightb=1 / open_gop=0 / weightp=2 / keyint=250 / keyint_min=24 / scenecut=40 / intra_refresh=0 / rc=2pass / mbtree=0 / bitrate=1891 / ratetol=1.0 / qcomp=0.60 / qpmin=0 / qpmax=69 / qpstep=4 / cplxblur=20.0 / qblur=0.5 / ip_ratio=1.40 / pb_ratio=1.30 / aq=1:1.00Language                                 : EnglishDefault                                  : YesForced                                   : No

AudioID                                       : 2Format                                   : AC-3Format/Info                              : Audio Coding 3Mode extension                           : CM (complete main)Format settings, Endianness              : BigCodec ID                                 : A_AC3Duration                                 : 1h 28mnBit rate mode                            : ConstantBit rate                                 : 448 KbpsChannel(s)                               : 6 channelsChannel positions                        : Front: L C R, Side: L R, LFESampling rate                            : 48.0 KHzBit depth                                : 16 bitsCompression mode                         : LossyStream size                              : 283 MiB (19%)Title                                    : ДублированныйLanguage                                 : RussianDefault                                  : YesForced                                   : No

Menu00:00:00.000                             : en:00:00:00.00000:08:17.840                             : en:00:08:17.84000:13:39.000                             : en:00:13:39.00000:21:28.000                             : en:00:21:28.00000:26:07.200                             : en:00:26:07.20000:32:57.600                             : en:00:32:57.60000:37:16.640                             : en:00:37:16.64000:45:38.080                             : en:00:45:38.08000:52:28.360                             : en:00:52:28.36001:01:47.880                             : en:01:01:47.88001:05:44.480                             : en:01:05:44.48001:15:51.320                             : en:01:15:51.320

piratbit.ru

Скачать фильм Прежде чем я усну (2013) через торрент

25 февраля 2016 08:28 Прежде чем я усну / Before I Go to Sleep (2014) Blu-Ray 1080i | Rus Transfer | Лицензия .torrent   [Информация о файле (нажмите для просмотра)] Перевод: Дублированный (Лицензия)Кодек: MPEG-4 AVCКачество: Blu-RayВидео: 1920x1080 ~ 22038 kbps / 25 fps / High Profile 4.1Аудио#1: RussianАудио#2: RussianСубтитры: Нет 16,32 Gb 25 4 25 февраля 2016 08:28 Прежде чем я усну / Before I Go to Sleep (2014) BDRip от HQCLUB | UK Transfer | Лицензия .torrent   [Информация о файле (нажмите для просмотра)] Перевод: Профессиональный (полное дублирование)Субтитры: английские (обычные, SDH, SDH-Colored)Формат: AVIКачество: BDRip (источник:Видео: 720x304 (2.37:1), 24 fps, XviD build 65 ~1806 kbps avg, 0.34 bit/pixelАудио #1: 48 kHz, AC3 Dolby Digital, 3/2 (L,C,R,l,r) + LFE ch, ~448 kbps avg (RUS)Аудио #2: 48 kHz, AC3 Dolby Digital, 2/0 (L,R) ch, ~192 kbps avg (UKR)(отдельно)Аудио #3: 48 kHz, AC3 Dolby Digital, 3/2 (L,C,R,l,r) + LFE ch, ~448 kbps avg (ENG)(отдельно) 1,45 Gb 88 6 25 февраля 2016 08:28 Прежде чем я усну / Before I Go to Sleep (2014) BDRip 720p | Лицензия .torrent   [Информация о файле (нажмите для просмотра)] Перевод: Профессиональный (дублированный)Кодек: x264Качество: BDRip 720pВидео: MPEG-4 AVC, 9385 Кбит/с, 1280x544, 24,000 fpsЗвук: Rus, DTS, 1510 kb/s (6 ch), 48 kHz Eng, DTS, 768 kb/s (6 ch), 48 kHzСубтитры: Eng 7,65 Gb 54 3 25 февраля 2016 08:28 Прежде чем я усну / Before I Go to Sleep (2014) BDRemux 1080p от NovaLan | Лицензия .torrent   [Информация о файле (нажмите для просмотра)] Перевод: Дублированный(Лицензия)Кодек: H.264Качество: Blu-Ray Remux 1080pВидео: MPEG-4 AVC, 29978 Кбит/с, 1920x1080, 24.000 кадр/сЗвук: Русский (DTS, 6 ch, 1509 Кбит/с), английский (DTS-HD MA, 6 ch, 2979 Кбит/с), (AC3, 2 ch, 224 Кбит/с)Субтитры: АнглийскиеВидео: Идентификатор : 1 Формат : AVC Формат/Информация : Advanced Video Codec Профиль формата : [email protected] Параметр CABAC формата : Да Параметр ReFrames формата : 3 кадра Идентификатор кодека : V_MPEG4/ISO/AVC Продолжительность : 1 ч. 31 м. Вид битрейта : Переменный Битрейт : 30,3 Мбит/сек Максимальный битрейт : 35,0 Мбит/сек Ширина : 1920 пикселей Высота : 1080 пикселей Соотношение сторон : 16:9 Частота кадров : 24,000 кадра/сек Стандарт вещания : NTSC Цветовое пространство : YUV Субдискретизация насыщенности : 4:2:0 Битовая глубина : 8 бит Тип развёртки : Прогрессивная Бит/(Пиксели*Кадры) : 0.610 Размер потока : 19,5 Гбайт (88%) Заголовок : Before I Go to Sleep 2014 - NovaLan Default : Да Forced : Нет Основные цвета : BT.709-5, BT.1361, IEC 61966-2-4, SMPTE RP177 Характеристики трансфера : BT.709-5, BT.1361 Коэффициенты матрицы : BT.709-5, BT.1361, IEC 61966-2-4 709, SMPTE RP177Аудио #1: Идентификатор : 2 Формат : DTS Формат/Информация : Digital Theater Systems Идентификатор кодека : A_DTS Продолжительность : 1 ч. 31 м. Вид битрейта : Постоянный Битрейт : 1510 Кбит/сек Каналы : 6 каналов Расположение каналов : Front: L C R, Side: L R, LFE Частота : 48,0 КГц Битовая глубина : 24 бит Метод сжатия : С потерями Размер потока : 993 Мбайт (4%) Язык : Russian Default : Да Forced : НетАудио #2: Идентификатор : 3 Формат : DTS Формат/Информация : Digital Theater Systems Профиль формата : MA / Core Идентификатор кодека : A_DTS Продолжительность : 1 ч. 31 м. Вид битрейта : Переменный Битрейт : 1886 Кбит/сек / 755 Кбит/сек Каналы : 6 каналов Расположение каналов : Front: L C R, Side: L R, LFE Частота : 48,0 КГц Битовая глубина : 24 бит Метод сжатия : Без потерь / Lossy Язык : English Default : Нет Forced : НетАудио #3: Идентификатор : 4 Формат : AC-3 Формат/Информация : Audio Coding 3 Расширение режима : CM (complete main) Параметр Endianness формата : Big Идентификатор кодека : A_AC3 Продолжительность : 1 ч. 31 м. Вид битрейта : Постоянный Битрейт : 224 Кбит/сек Каналы : 2 канала Расположение каналов : Front: L R Частота : 48,0 КГц Битовая глубина : 16 бит Метод сжатия : С потерями Размер потока : 147 Мбайт (1%) Язык : English Default : Нет Forced : Нет 22,26 Gb 10 1 25 февраля 2016 08:28 Прежде чем я усну / Before I Go to Sleep (2014) HDRip от Scarabey | Лицензия .torrent   [Информация о файле (нажмите для просмотра)] Перевод: Профессиональный (полное дублирование) - ЛицензияВидео: 720x304 (2.37:1), 25 fps, XviD build 50 ~1887 kbps avg, 0.34 bit/pixelАудио: 48 kHz, AC3 Dolby Digital, 3/2 (L,C,R,l,r) + LFE ch, ~448 kbps 1,45 Gb 175 5 25 февраля 2016 08:28 Прежде чем я усну / Before I Go to Sleep (2014) HDRip от Scarabey | Лицензия .torrent   [Информация о файле (нажмите для просмотра)] Перевод: Профессиональный (полное дублирование) - ЛицензияВидео: 688x288 (2.39:1), 25 fps, XviD build 50 ~1041 kbps avg, 0.21 bit/pixelАудио: 48 kHz, MPEG Layer 3, 2 ch, ~128.00 kbps avg 744,79 Mb 77 11 25 февраля 2016 08:28 Прежде чем я усну / Before I Go to Sleep BDRip (2014) BDRip-AVC от HELLYWOOD | Лицензия .torrent   [Информация о файле (нажмите для просмотра)] Перевод: Профессиональный (полное дублирование) [лицензия BD RUS]Субтитры: НетКачество: BDRip-AVCФормат: MKVВидео: х.264, 1032x432 (2,40:1), 25,000 fps, 1920 Кbps, 0.172 bit/pixelАудио: 48 kHz, AC3 Dolby Digital, 3/2 (L,C,R,l,r) + LFE ch, 448.00 kbps 1,46 Gb 4 6 25 февраля 2016 08:28 Прежде чем я усну / Before I Go to Sleep (2014) DVD5 от New-Team | D | Лицензия .torrent   [Информация о файле (нажмите для просмотра)] Перевод: Профессиональный (полное дублирование)Кодек: MPEG2Качество: DVD5Видео: PAL 16:9 (720x576) VBR ~ 6468.04 kbps avgЗвук: Русский DD 5.1 (448Kbps) 4,2 Gb 13 2 25 февраля 2016 08:28 Прежде чем я усну / Before I Go to Sleep (2014) BDRip 720p от Leonardo and Scarabey | Лицензия .torrent   [Информация о файле (нажмите для просмотра)] Перевод: Профессиональный (полное дублирование) ЛицензияФормат: MKVВидео кодек: MPEG-4 AVC Аудио кодек: AC3Видео: 1280x536 (2.40:1) at 25.000 fps, AVC at 4272 kbps avg, 0.249 bit/pixelАудио: 48 kHz, AC3 Dolby Digital, 3/2 (L,C,R,l,r) + LFE ch, ~640 kbps avg 3,09 Gb 21 7 25 февраля 2016 08:28 Прежде чем я усну / Before I Go to Sleep BDRip (2014) BDRip 720p от HELLYWOOD | Лицензия .torrent   [Информация о файле (нажмите для просмотра)] Перевод: Профессиональный (полное дублирование) [лицензия BD RUS]Субтитры: НетКачество: BDRip 720pФормат: MKVВидео: х.264, 1280x536 (2,40:1), 25,000 fps, 4825 Кbps, 0.281 bit/pixelАудио: 48 kHz, AC3 Dolby Digital, 3/2 (L,C,R,l,r) + LFE ch, 640.00 kbps 3,37 Gb 20 10 25 февраля 2016 08:28 Прежде чем я усну / Before I Go to Sleep (2014) BDRip-AVC от NNNB | RUS Transfer .torrent   [Информация о файле (нажмите для просмотра)] Перевод: ДублированныйКачество: BDRip-AVC (исходник Blu-ray)Формат: AVC (библиотека кодирования x.264)Видео: 1024x428 (2.40:1), 1 891 Кбит/сек, 25 кадр/сек, 0,173 Бит/[Пиксели*Кадры]Аудио: русский / AC3 / 5.1 / 48 kHz / 448 kbps / 16 bit|Дублированный - [Лицензия]| 1,44 Gb 581 13 25 февраля 2016 08:28 Прежде чем я усну / Before I Go to Sleep (2014) BDRip 1080p от NNNB | RUS Transfer | Лицензия .torrent   [Информация о файле (нажмите для просмотра)] Перевод: ДублированныйКачество: BDRip 1080p (исходник Blu-ray)Формат: AVC (библиотека кодирования x.264)Видео: 1920x804 (2.40:1), 8701 Кбит/сек, 25 кадр/сек, 0,225 Бит/[Пиксели*Кадры]Аудио: русский / AC3 / 5.1 / 48 kHz / 640 kbps / 16 bit|Дублированный - [Лицензия]| 5,76 Gb 56 12 25 февраля 2016 08:28 Прежде чем я усну / Before I Go to Sleep BDRip (2014) BDRip 720p | Лицензия .torrent   [Информация о файле (нажмите для просмотра)] Перевод: Дублированный (Лицензия)Кодек: MPEG-4 AVCКачество: BDRip 720pВидео: MPEG-4 AVC, 4300 Кбит/с, 1280x536Звук: Русский (DTS, 6 ch, 1510 Кбит/с)Субтитры: Отсутствуют 3,58 Gb 4 2 25 февраля 2016 08:28 Прежде чем я усну / Before I Go to Sleep (2014) HDRip | Лицензия .torrent   [Информация о файле (нажмите для просмотра)] Перевод: Дублированный (Лицензия)Кодек: XviDКачество: HDRip [рип с BDRip 720p]Видео: 1911 Кбит/с, 720x304Звук: Русский (AC3, 6 ch, 448 Кбит/с)Субтитры: Отсутствуют 1,46 Gb 122 2 25 февраля 2016 08:28 Прежде чем я усну / Before I Go to Sleep (2014) WEB-DL 720p | iTunes .torrent   [Информация о файле (нажмите для просмотра)] Формат: MKV (x264)Качество: WEB-DL 720pВидео: 4023 Кb/s, [email protected]Аудио: AC3, 384 Kb/s (6 ch) 2,77 Gb 36 14 25 февраля 2016 08:28 Прежде чем я усну / Before I Go to Sleep (2014) WEBRip | Чистый звук .torrent   [Информация о файле (нажмите для просмотра)] Формат: AVI (XviD)Качество: WEBRipВидео: XviD, 720x304 (2.35:1), 24.000 fps, 1 132 Kbps (0.215 bit/pixel)Аудио: AC-3, 48.0 KHz, 2 ch, 128 Kbps, CBR 699,57 Mb 24 6

gig-torrent.net

/ Before I Go to Sleep (2014) BDRip 720p |

: , : , .

: x264: BDRip 720p: MPEG-4 AVC, 9385 /, 1280x544, 24,000 fps: Rus, DTS, 1510 kb/s (6 ch), 48 kHzEng, DTS, 768 kb/s (6 ch), 48 kHz: Eng

x264 info: frame I:793 Avg QP:13.89 size:113499x264 info: frame P:23561 Avg QP:16.16 size: 63713x264 info: frame B:107935 Avg QP:16.70 size: 46746x264 info: kb/s:9632.29

Format : MatroskaFormat version : Version 4 / Version 2File size : 7.65 GiBDuration : 1h 31mnOverall bit rate : 11.9 MbpsMovie name : TonikEncoded date : UTC 2015-01-09 07:47:24Writing application : mkvmerge v7.1.0 ('Good Love') 64bit built on Jul 27 2014 13:06:55Writing library : libebml v1.3.0 + libmatroska v1.4.1_STATISTICS_WRITING_APP : mkvmerge v7.1.0 ('Good Love') 64bit built on Jul 27 2014 13:06:55_STATISTICS_WRITING_DATE_UTC : 2015-01-09 07:47:24_STATISTICS_TAGS : BPS DURATION NUMBER_OF_FRAMES NUMBER_OF_BYTESDURATION : 01:31:59.232000000NUMBER_OF_FRAMES : 517428NUMBER_OF_BYTES : 1041065136

VideoID : 1Format : AVCFormat/Info : Advanced Video CodecFormat profile : [email protected]Format settings, CABAC : YesFormat settings, ReFrames : 10 framesCodec ID : V_MPEG4/ISO/AVCDuration : 1h 31mnBit rate : 9 385 KbpsWidth : 1 280 pixelsHeight : 544 pixelsDisplay aspect ratio : 2.35:1Frame rate mode : ConstantFrame rate : 24.000 fpsColor space : YUVChroma subsampling : 4:2:0Bit depth : 8 bitsScan type : ProgressiveBits/(Pixel*Frame) : 0.562Stream size : 6.03 GiB (79%)Writing library : x264 core 142 r2431+42 c69a006 tMod [[email protected] X86_64]Encoding settings : cabac=1 / ref=10 / deblock=1:-3:-3 / analyse=0x3:0x133 / me=umh / subme=11 / psy=1 / fade_compensate=0.00 / psy_rd=1.05:0.00 / mixed_ref=1 / me_range=32 / chroma_me=1 / trellis=2 / 8x8dct=1 / cqm=0 / deadzone=21,11 / fast_pskip=0 / chroma_qp_offset=-2 / threads=24 / lookahead_threads=4 / sliced_threads=0 / nr=0 / decimate=0 / interlaced=0 / bluray_compat=0 / constrained_intra=0 / fgo=0 / bframes=10 / b_pyramid=2 / b_adapt=2 / b_bias=0 / direct=3 / weightb=1 / open_gop=0 / weightp=2 / keyint=250 / keyint_min=24 / scenecut=40 / intra_refresh=0 / rc_lookahead=60 / rc=crf / mbtree=0 / crf=17.4000 / qcomp=0.70 / qpmin=0:0:0 / qpmax=69:69:69 / qpstep=4 / vbv_maxrate=38000 / vbv_bufsize=30000 / crf_max=0.0 / nal_hrd=none / filler=0 / ip_ratio=1.30 / pb_ratio=1.10 / aq=4:0.90 / aq-sensitivity=10.00 / aq-factor=1.00:1.00:1.00 / aq2=0 / aq3=0Language : EnglishDefault : YesForced : NoMatrix coefficients : BT.709_STATISTICS_WRITING_APP : mkvmerge v7.1.0 ('Good Love') 64bit built on Jul 27 2014 13:06:55_STATISTICS_WRITING_DATE_UTC : 2015-01-09 07:47:24_STATISTICS_TAGS : BPS DURATION NUMBER_OF_FRAMES NUMBER_OF_BYTESDURATION : 01:31:52.042000000NUMBER_OF_FRAMES : 132289NUMBER_OF_BYTES : 6636699994

Audio #1ID : 2Format : DTSFormat/Info : Digital Theater SystemsMode : 16Format settings, Endianness : BigCodec ID : A_DTSDuration : 1h 31mnBit rate mode : ConstantBit rate : 1 509 KbpsChannel(s) : 6 channelsChannel positions : Front: L C R, Side: L R, LFESampling rate : 48.0 KHzBit depth : 24 bitsCompression mode : LossyStream size : 993 MiB (13%)Language : RussianDefault : YesForced : No

Audio #2ID : 3Format : DTSFormat/Info : Digital Theater SystemsMode : 16Format settings, Endianness : BigCodec ID : A_DTSDuration : 1h 31mnBit rate mode : ConstantBit rate : 768 KbpsChannel(s) : 6 channelsChannel positions : Front: L C R, Side: L R, LFESampling rate : 48.0 KHzBit depth : 24 bitsCompression mode : LossyStream size : 505 MiB (6%)Language : EnglishDefault : NoForced : No

TextID : 4Format : UTF-8Codec ID : S_TEXT/UTF8Codec ID/Info : UTF-8 Plain TextLanguage : EnglishDefault : NoForced : No

Menu00:00:00.000 : en:00:00:00.00000:08:30.500 : en:00:08:30.50000:14:14.458 : en:00:14:14.45800:21:55.542 : en:00:21:55.54200:28:16.458 : en:00:28:16.45800:34:40.083 : en:00:34:40.08300:41:49.042 : en:00:41:49.04200:49:32.875 : en:00:49:32.87500:57:15.542 : en:00:57:15.54201:04:23.333 : en:01:04:23.33301:09:27.458 : en:01:09:27.45801:18:11.250 : en:01:18:11.250

filmtor.net


Смотрите также