Почти 17 скачать торрент в хорошем качестве


Скачать фильм Почти семнадцать через торрент в хорошем качестве бесплатно 1080p

Раздают: 1 [ 0 KB/s ]
Размер: 3.95 GB | Добавлен: 8 мес. назад | Торрент скачан:223 раза
Реклама Дарим 3000 рублей за регистрацию, не упусти свой шанс получить шикарный бонус!!!

31-01-2017 17:42 Почти семнадцать Скачать торрент  

Почти семнадцать / The Edge of Seventeen Год выпуска: 2016Жанр: Драма, комедияВыпущено: СШАПродолжительность: 01:45:16Перевод: Любительский (многоголосый) [@[email protected]]

Режиссер: Келли Фрэмон

В ролях: Хейли Стайнфелд, Хейли Лу Ричардсон, Блейк Дженнер, Кира Седжвик, Вуди Харрельсон, Хейден Сзето, Александр Кэлверт, Эрик Кинлисайд, Неста Купер, Дэниэл Бэйкон

О фильме: Для Надин жизнь в школе становится еще более невыносимой, когда ее лучшая подруга Криста начинает встречаться с ее старшим братом.

Качество: WEB-DL 1080pФормат: MKVВидео: V_MPEG4/ISO/AVC, 1916x1032, 23.976 fps, ~4 879 kbps avgЗвук: 48 kHz, AC3 Dolby Digital, 2/0 (L,R) ch, ~384 kbps

GeneralUnique ID : 224038076361993014907284744506710912407 (0xA88C29FB90FB5F3F93E57B9AAB4B6D97)Complete name : E:\The.Edge.of.Seventeen.2016.P.WEB-DL.1O8Op.mkvFormat : MatroskaFormat version : Version 2File size : 3.95 GiBDuration : 1h 45mnOverall bit rate mode : VariableOverall bit rate : 5 370 KbpsEncoded date : UTC 2017-01-31 13:56:21Writing application : mkvmerge v8.3.0 ('Over the Horizon') 64bitWriting library : libebml v1.3.1 + libmatroska v1.4.2

VideoID : 1Format : AVCFormat/Info : Advanced Video CodecFormat profile : [email protected] settings, CABAC : YesFormat settings, ReFrames : 4 framesCodec ID : V_MPEG4/ISO/AVCDuration : 1h 45mnBit rate mode : VariableBit rate : 4 879 KbpsMaximum bit rate : 5 400 KbpsWidth : 1 916 pixelsHeight : 1 032 pixelsDisplay aspect ratio : 1.85:1Frame rate mode : ConstantFrame rate : 23.976 fpsStandard : ComponentColor space : YUVChroma subsampling : 4:2:0Bit depth : 8 bitsScan type : ProgressiveBits/(Pixel*Frame) : 0.103Stream size : 3.59 GiB (91%)Default : YesForced : NoColor range : LimitedColor primaries : BT.709Transfer characteristics : BT.709Matrix coefficients : BT.709

AudioID : 2Format : AC-3Format/Info : Audio Coding 3Mode extension : CM (complete main)Format settings, Endianness : BigCodec ID : A_AC3Duration : 1h 45mnBit rate mode : ConstantBit rate : 384 KbpsChannel(s) : 2 channelsChannel positions : Front: L RSampling rate : 48.0 KHzCompression mode : LossyStream size : 289 MiB (7%)Default : YesForced : No

Скачать Почти семнадцать через торрент http://i91.fastpic.ru/big/2017/0131/dc/e627ef2714aba57a9cbf0fff0d6ed7dc.jpg Скачать фильм Почти семнадцать через торрент бесплантно в хорошем качестве О фильме: Для Надин жизнь в школе становится еще более невыносимой, когда ее лучшая подруга Криста начинает встречаться с ее старшим ... 2017-01-31 17:42 10 10 6

Loading...

Loading...

% Раздел Тема Автор DL S | L
Фильмы 2016 [DVDrip, WEB-DLRip, HDrip] (DUB, MVO) [ 1.46 GB ] Почти семнадцать / The Edge of Seventeen [2016 BDRip] многоголосый [] Twi7ter Скачать
Фильмы 2016 [DVDrip, WEB-DLRip, HDrip] (DUB, MVO) [ 1.96 GB ] Почти семнадцать / The Edge of Seventeen [2016 BDRip-AVC] MVO [] - ExKinoRay Enigma2010 Скачать
Фильмы 2016 [DVDrip, WEB-DLRip, HDrip] (DUB, MVO) [ 2.03 GB ] Почти семнадцать / The Edge of Seventeen [2016 HDRip многоголосый закадровый ""] coc900 Скачать
Фильмы [HD 720p, 1080p] (Хороший звук DUB, MVO) [ 5.76 GB ] Почти семнадцать / The Edge of Seventeen [2016 BDRip 720p] MVO sheker187 Скачать
Фильмы [HD 720p, 1080p] (Хороший звук DUB, MVO) [ 7.57 GB ] Почти семнадцать / The Edge of Seventeen [2016 BDRip 1080p] MVO bober100 Скачать

Рекламный пират

Дорогой пользователь! Огромная просьба, поблагодарите релизера, оцените раздачу и оставьте свои комментарий, если Вы скачали Почти семнадцать через торрент бесплатно! Внесите свою лепту в развитие PiratBit!

Комментировать посты могут только пользователи прошедшие не сложную регистрацию

Почти семнадцать через торрент Скачать бесплатно Почти семнадцать Почти семнадцать скачать торрент Почти семнадцать смотреть онлайн Cкачать фильм Почти семнадцать бесплатно Почти семнадцать скачать торрент в хорошем качестве Почти семнадцать смотреть онлайн бесплатно в хорошем качестве

Вы можете начинать темыВы можете отвечать на сообщенияВы не можете редактировать свои сообщенияВы не можете удалять свои сообщенияВы не можете голосовать в опросахВы не можете прикреплять файлы к сообщениямВы можете скачивать файлы

piratbit.ru

Скачать фильм Почти семнадцать через торрент в хорошем качестве бесплатно BDRip от Twi7ter

Раздают: 34 [ 1024 KB/s ] Качают: 8 [ 2 MB/s ]
Размер: 1.46 GB | Добавлен: 2 мес. 22 д. назад | Торрент скачан:228 раз
Реклама Дарим 3000 рублей за регистрацию, не упусти свой шанс получить шикарный бонус!!!

03-08-2017 18:27 Почти семнадцать Скачать торрент  

Почти семнадцать / The Edge of Seventeen

«You're only young once... is it over yet?»

Год выпуска: 2016Страна: СШАЖанр: драма, комедияПродолжительность: 01:44:55Перевод: Профессиональный (многоголосый, закадровый) [Лицензия Blu-ray EUR]Субтитры: Русские форсированные (на надписи и прочее) - вшитыеРежиссер: Келли ФрэмонВ ролях: Хейли Стайнфелд (Nadine), Хейли Лу Ричардсон (Krista), Блейк Дженнер (Darian), Кира Седжвик (Mona), Вуди Харрельсон (Mr. Bruner), Хейден Сзето (Erwin), Александр Кэлверт (Nick Mossman), Эрик Кинлисайд (Tom), Неста Купер (Shannon), Дэниэл Бэйкон (M.C.), Лина Ренна (Little Nadine), Ава Грэйс Купер (Young Krista)Описание: С самого детства Надин считала, что её старшему брату всё даётся легко и просто, а сама она росла врединой и даже не могла завести друзей в начальной школе. Но однажды девочка Криста захотела дружить с ней, и они стали лучшими подругами. В свои 17 лет Надин всё так же ненавидит брата, и когда Криста начинает с ним встречаться, мир переворачивается с ног на голову.Рейтинг:

MPAA: R - Лицам до 17 лет обязательно присутствие взрослого

Качество: BDRip | исх. The Edge of Seventeen (2016) 1080p BD-Remux |Формат: AVIВидео кодек: XviDАудио кодек: AC3Видео: 688x368 (1.87:1), 23.976 fps, XviD build 73 ~1535 kbps avg, 0.25 bit/pixelАудио: 48 kHz, AC3 Dolby Digital, 3/2 (L,C,R,l,r) + LFE ch, ~448 kbps           

Релиз: &

Скачать Почти семнадцать через торрент http://s019.radikal.ru/i625/1704/17/0f13ac7b7781.png Скачать фильм Почти семнадцать через торрент бесплантно в хорошем качестве Описание: С самого детства Надин считала, что её старшему брату всё даётся легко и просто, а сама она росла врединой и даже не могла ... 2017-08-03 18:27 9.7 10 9

Loading...

Loading...

% Раздел Тема Автор DL S | L
Фильмы 2016 [DVDrip, WEB-DLRip, HDrip] (DUB, MVO) [ 1.96 GB ] Почти семнадцать / The Edge of Seventeen [2016 BDRip-AVC] MVO [] - ExKinoRay Enigma2010 Скачать
Фильмы 2016 [DVDrip, WEB-DLRip, HDrip] (DUB, MVO) [ 2.03 GB ] Почти семнадцать / The Edge of Seventeen [2016 HDRip многоголосый закадровый ""] coc900 Скачать
Фильмы [HD 720p, 1080p] (Хороший звук DUB, MVO) [ 5.76 GB ] Почти семнадцать / The Edge of Seventeen [2016 BDRip 720p] MVO sheker187 Скачать
Фильмы [HD 720p, 1080p] (Хороший звук DUB, MVO) [ 7.57 GB ] Почти семнадцать / The Edge of Seventeen [2016 BDRip 1080p] MVO bober100 Скачать

Рекламный пират

05-08-2017 13:58 Почти семнадцать Скачать торрент  

Однако не плохой фильм.

05-08-2017 20:48 Почти семнадцать Скачать торрент  

Если коротко - фильм не только о бардаке в головах тинейджеров, но и о родителях, слишком фиксированных на своих проблемах и неспособных найти взаимопонимание с такими взрослыми детьми. Посмотрел с удовольствием, есть над чем задуматься. Можно показать подросткам лет 15 и старше, но только если вы еще способны говорить со своими детьми "на одном языке".Twi7terу -

13-10-2017 04:52 Почти семнадцать Скачать торрент  

Zammed писал(а):

Если коротко - фильм не только о бардаке в головах тинейджеров, но и о родителях, слишком фиксированных на своих проблемах и неспособных найти взаимопонимание с такими взрослыми детьми. Посмотрел с удовольствием, есть над чем задуматься. Можно показать подросткам лет 15 и старше, но только если вы еще способны говорить со своими детьми "на одном языке".Twi7terу -

Дорогой пользователь! Огромная просьба, поблагодарите релизера, оцените раздачу и оставьте свои комментарий, если Вы скачали Почти семнадцать через торрент бесплатно! Внесите свою лепту в развитие PiratBit!

Комментировать посты могут только пользователи прошедшие не сложную регистрацию

Почти семнадцать через торрент Скачать бесплатно Почти семнадцать Почти семнадцать скачать торрент Почти семнадцать смотреть онлайн Cкачать фильм Почти семнадцать бесплатно Почти семнадцать скачать торрент в хорошем качестве Почти семнадцать смотреть онлайн бесплатно в хорошем качестве

Вы не можете начинать темыВы не можете отвечать на сообщенияВы не можете редактировать свои сообщенияВы не можете удалять свои сообщенияВы не можете голосовать в опросахВы не можете прикреплять файлы к сообщениямВы можете скачивать файлы

piratbit.ru

Скачать фильм Почти семнадцать через торрент в хорошем качестве бесплатно BDRip-AVC

GeneralUnique ID : 198453401981464956709804474520947195205 (0x954CBC254CF46B44A043A2E3915CFD45)Complete name : D:\The.Edge.of.Seventeen.2016.MVO.BDRip.AVC.ExKinoRay.mkvFormat : MatroskaFormat version : Version 2File size : 1.92 GiBDuration : 1 h 45 minOverall bit rate : 2 606 kb/sMovie name : The Edge of Seventeen (2016) from ExKinoRayEncoded date : UTC 2017-04-16 23:06:50Writing application : mkvmerge v5.8.0 ('No Sleep / Pillow') built on Sep 2 2012 15:37:04Writing library : libebml v1.2.3 + libmatroska v1.3.0

VideoID : 1Format : AVCFormat/Info : Advanced Video CodecFormat profile : [email protected] settings, CABAC : YesFormat settings, ReFrames : 12 framesCodec ID : V_MPEG4/ISO/AVCDuration : 1 h 45 minBit rate : 1 782 kb/sWidth : 1 024 pixelsHeight : 552 pixelsDisplay aspect ratio : 1.85:1Frame rate mode : ConstantFrame rate : 23.976 (24000/1001) FPSColor space : YUVChroma subsampling : 4:2:0Bit depth : 8 bitsScan type : ProgressiveBits/(Pixel*Frame) : 0.131Stream size : 1.27 GiB (66%)Title : EnigmaWriting library : x264 core 144 r2525 40bb568Encoding settings : cabac=1 / ref=12 / deblock=1:-2:-2 / analyse=0x3:0x113 / me=umh / subme=10 / psy=1 / psy_rd=1.05:0.10 / mixed_ref=1 / me_range=32 / chroma_me=1 / trellis=2 / 8x8dct=1 / cqm=0 / deadzone=21,11 / fast_pskip=1 / chroma_qp_offset=-3 / threads=12 / lookahead_threads=2 / sliced_threads=0 / nr=0 / decimate=0 / interlaced=0 / bluray_compat=0 / constrained_intra=0 / bframes=9 / b_pyramid=2 / b_adapt=2 / b_bias=0 / direct=3 / weightb=1 / open_gop=0 / weightp=2 / keyint=240 / keyint_min=23 / scenecut=40 / intra_refresh=0 / rc_lookahead=40 / rc=2pass / mbtree=0 / bitrate=1782 / ratetol=1.0 / qcomp=0.60 / qpmin=0 / qpmax=51 / qpstep=4 / cplxblur=20.0 / qblur=0.5 / vbv_maxrate=50000 / vbv_bufsize=62500 / nal_hrd=none / filler=0 / ip_ratio=1.40 / pb_ratio=1.30 / aq=1:1.00Language : EnglishDefault : YesForced : NoColor range : LimitedColor primaries : BT.709Transfer characteristics : BT.709Matrix coefficients : BT.709

Audio #1ID : 2Format : AC-3Format/Info : Audio Coding 3Mode extension : CM (complete main)Format settings, Endianness : BigCodec ID : A_AC3Duration : 1 h 45 minBit rate mode : ConstantBit rate : 384 kb/sChannel(s) : 6 channelsChannel positions : Front: L C R, Side: L R, LFESampling rate : 48.0 kHzFrame rate : 31.250 FPS (1536 spf)Compression mode : LossyStream size : 289 MiB (15%)Title : MVO (iTunes)Language : RussianDefault : YesForced : No

Audio #2ID : 3Format : AC-3Format/Info : Audio Coding 3Mode extension : CM (complete main)Format settings, Endianness : BigCodec ID : A_AC3Duration : 1 h 45 minBit rate mode : ConstantBit rate : 448 kb/sChannel(s) : 6 channelsChannel positions : Front: L C R, Side: L R, LFESampling rate : 48.0 kHzFrame rate : 31.250 FPS (1536 spf)Compression mode : LossyStream size : 338 MiB (17%)Language : EnglishDefault : NoForced : No

Text #1ID : 4Format : UTF-8Codec ID : S_TEXT/UTF8Codec ID/Info : UTF-8 Plain TextTitle : ForcedLanguage : RussianDefault : YesForced : No

Text #2ID : 5Format : UTF-8Codec ID : S_TEXT/UTF8Codec ID/Info : UTF-8 Plain TextTitle : FullLanguage : RussianDefault : NoForced : No

Text #3ID : 6Format : UTF-8Codec ID : S_TEXT/UTF8Codec ID/Info : UTF-8 Plain TextLanguage : UkrainianDefault : NoForced : No

Text #4ID : 7Format : UTF-8Codec ID : S_TEXT/UTF8Codec ID/Info : UTF-8 Plain TextLanguage : EnglishDefault : NoForced : No

Menu00:00:00.000 : en:00:00:00.00000:03:47.018 : en:00:03:47.01800:07:41.419 : en:00:07:41.41900:10:02.644 : en:00:10:02.64400:18:46.292 : en:00:18:46.29200:23:21.483 : en:00:23:21.48300:26:42.434 : en:00:26:42.43400:32:06.716 : en:00:32:06.71600:36:51.501 : en:00:36:51.50100:43:17.553 : en:00:43:17.55300:48:21.190 : en:00:48:21.19000:53:15.192 : en:00:53:15.19201:00:29.918 : en:01:00:29.91801:07:55.321 : en:01:07:55.32101:12:46.988 : en:01:12:46.98801:14:56.617 : en:01:14:56.61701:21:48.779 : en:01:21:48.77901:26:20.300 : en:01:26:20.30001:30:59.162 : en:01:30:59.16201:38:58.057 : en:01:38:58.057

piratbit.ru

Скачать фильм Почти семнадцать через торрент в хорошем качестве бесплатно BDRip

Раздают: 2 [ 0 KB/s ]
Размер: 1.41 GB | Добавлен: 6 мес. назад | Торрент скачан:189 раз
Реклама Дарим 3000 рублей за регистрацию, не упусти свой шанс получить шикарный бонус!!!

16-04-2017 21:13 Почти семнадцать Скачать торрент  

Почти семнадцать / The Edge of Seventeen

Год выпуска: 2016Страна: СШАЖанр: Драма, комедияПродолжительность: 01:44:55Перевод: Профессиональный многоголосый - [iTunes]Субтитры: Русские форсированные (отдельно)

Режиссер: Келли Фрэмон

В ролях:

Хейли Стайнфелд, Хейли Лу Ричардсон, Блейк Дженнер, Кира Седжвик, Вуди Харрельсон, Хейден Сзето, Александр Кэлверт, Эрик Кинлисайд, Неста Купер, Дэниэл Бэйкон

Описание:

Для Надин жизнь в школе становится еще более невыносимой, когда ее лучшая подруга Криста начинает встречаться с ее старшим братом

Качество: BDRipФормат: AVIВидео кодек: XviDАудио кодек: AC3

Видео: 688x368 (2.37:1), 23.976 fps, XviD build 73 ~1492 kbps avg, 0.28 bit/pixelАудио#1: 48 kHz, AC3 Dolby Digital, 3/2 (L,C,R,l,r) + LFE ch, ~384 kbps avg

Скачать Почти семнадцать через торрент http://rudb.org/img/2017_01/i588ff41733bb0.jpg Скачать фильм Почти семнадцать через торрент бесплантно в хорошем качестве Описание: Для Надин жизнь в школе становится еще более невыносимой, когда ее лучшая подруга Криста начинает встречаться с ее старшим ... 2017-04-16 21:13 10 10 11

Loading...

Loading...

% Раздел Тема Автор DL S | L
Фильмы 2016 [DVDrip, WEB-DLRip, HDrip] (DUB, MVO) [ 1.46 GB ] Почти семнадцать / The Edge of Seventeen [2016 BDRip] многоголосый [] Twi7ter Скачать
Фильмы 2016 [DVDrip, WEB-DLRip, HDrip] (DUB, MVO) [ 1.96 GB ] Почти семнадцать / The Edge of Seventeen [2016 BDRip-AVC] MVO [] - ExKinoRay Enigma2010 Скачать
Фильмы 2016 [DVDrip, WEB-DLRip, HDrip] (DUB, MVO) [ 2.03 GB ] Почти семнадцать / The Edge of Seventeen [2016 HDRip многоголосый закадровый ""] coc900 Скачать
Фильмы [HD 720p, 1080p] (Хороший звук DUB, MVO) [ 5.76 GB ] Почти семнадцать / The Edge of Seventeen [2016 BDRip 720p] MVO sheker187 Скачать
Фильмы [HD 720p, 1080p] (Хороший звук DUB, MVO) [ 7.57 GB ] Почти семнадцать / The Edge of Seventeen [2016 BDRip 1080p] MVO bober100 Скачать

Рекламный пират

03-08-2017 19:34 Почти семнадцать Скачать торрент  

Дорогой пользователь! Огромная просьба, поблагодарите релизера, оцените раздачу и оставьте свои комментарий, если Вы скачали Почти семнадцать через торрент бесплатно! Внесите свою лепту в развитие PiratBit!

Комментировать посты могут только пользователи прошедшие не сложную регистрацию

Почти семнадцать через торрент Скачать бесплатно Почти семнадцать Почти семнадцать скачать торрент Почти семнадцать смотреть онлайн Cкачать фильм Почти семнадцать бесплатно Почти семнадцать скачать торрент в хорошем качестве Почти семнадцать смотреть онлайн бесплатно в хорошем качестве

Вы можете начинать темыВы можете отвечать на сообщенияВы не можете редактировать свои сообщенияВы не можете удалять свои сообщенияВы не можете голосовать в опросахВы не можете прикреплять файлы к сообщениямВы можете скачивать файлы

piratbit.ru

Скачать фильм Почти семнадцать через торрент в хорошем качестве бесплатно BDRip-AVC

GeneralUnique ID : 200488613440994494889948151625309800742 (0x96D4B3D15E7D00FFAAABE96A38D0C926)Complete name : D:\The.Edge.of.Seventeen.2016.MVO.BDRip.AVC.ExKinoRay.mkvFormat : MatroskaFormat version : Version 2File size : 1.96 GiBDuration : 1 h 45 minOverall bit rate : 2 670 kb/sMovie name : The Edge of Seventeen (2016) from ExKinoRayEncoded date : UTC 2017-07-28 21:01:20Writing application : mkvmerge v5.6.0 ('Kenya Kane') built on May 27 2012 16:44:04Writing library : libebml v1.2.3 + libmatroska v1.3.0

VideoID : 1Format : AVCFormat/Info : Advanced Video CodecFormat profile : [email protected] settings, CABAC : YesFormat settings, ReFrames : 12 framesCodec ID : V_MPEG4/ISO/AVCDuration : 1 h 45 minBit rate : 1 782 kb/sWidth : 1 024 pixelsHeight : 552 pixelsDisplay aspect ratio : 1.85:1Frame rate mode : ConstantFrame rate : 23.976 (24000/1001) FPSColor space : YUVChroma subsampling : 4:2:0Bit depth : 8 bitsScan type : ProgressiveBits/(Pixel*Frame) : 0.131Stream size : 1.27 GiB (64%)Title : EnigmaWriting library : x264 core 144 r2525 40bb568Encoding settings : cabac=1 / ref=12 / deblock=1:-2:-2 / analyse=0x3:0x113 / me=umh / subme=10 / psy=1 / psy_rd=1.05:0.10 / mixed_ref=1 / me_range=32 / chroma_me=1 / trellis=2 / 8x8dct=1 / cqm=0 / deadzone=21,11 / fast_pskip=1 / chroma_qp_offset=-3 / threads=12 / lookahead_threads=2 / sliced_threads=0 / nr=0 / decimate=0 / interlaced=0 / bluray_compat=0 / constrained_intra=0 / bframes=9 / b_pyramid=2 / b_adapt=2 / b_bias=0 / direct=3 / weightb=1 / open_gop=0 / weightp=2 / keyint=240 / keyint_min=23 / scenecut=40 / intra_refresh=0 / rc_lookahead=40 / rc=2pass / mbtree=0 / bitrate=1782 / ratetol=1.0 / qcomp=0.60 / qpmin=0 / qpmax=51 / qpstep=4 / cplxblur=20.0 / qblur=0.5 / vbv_maxrate=50000 / vbv_bufsize=62500 / nal_hrd=none / filler=0 / ip_ratio=1.40 / pb_ratio=1.30 / aq=1:1.00Language : EnglishDefault : YesForced : NoColor range : LimitedColor primaries : BT.709Transfer characteristics : BT.709Matrix coefficients : BT.709

Audio #1ID : 2Format : AC-3Format/Info : Audio Coding 3Mode extension : CM (complete main)Format settings, Endianness : BigCodec ID : A_AC3Duration : 1 h 45 minBit rate mode : ConstantBit rate : 448 kb/sChannel(s) : 6 channelsChannel positions : Front: L C R, Side: L R, LFESampling rate : 48.0 kHzFrame rate : 31.250 FPS (1536 spf)Compression mode : LossyStream size : 337 MiB (17%)Title : MVO (Лицензия)Default : YesForced : No

Audio #2ID : 3Format : AC-3Format/Info : Audio Coding 3Mode extension : CM (complete main)Format settings, Endianness : BigCodec ID : A_AC3Duration : 1 h 45 minBit rate mode : ConstantBit rate : 448 kb/sChannel(s) : 6 channelsChannel positions : Front: L C R, Side: L R, LFESampling rate : 48.0 kHzFrame rate : 31.250 FPS (1536 spf)Compression mode : LossyStream size : 337 MiB (17%)Language : EnglishDefault : NoForced : No

Text #1ID : 4Format : UTF-8Codec ID : S_TEXT/UTF8Codec ID/Info : UTF-8 Plain TextTitle : ForcedLanguage : RussianDefault : YesForced : No

Text #2ID : 5Format : UTF-8Codec ID : S_TEXT/UTF8Codec ID/Info : UTF-8 Plain TextTitle : FullLanguage : RussianDefault : NoForced : No

Text #3ID : 6Format : UTF-8Codec ID : S_TEXT/UTF8Codec ID/Info : UTF-8 Plain TextLanguage : UkrainianDefault : NoForced : No

Text #4ID : 7Format : UTF-8Codec ID : S_TEXT/UTF8Codec ID/Info : UTF-8 Plain TextLanguage : EnglishDefault : NoForced : No

Menu00:00:00.000 : en:00:00:00.00000:03:47.018 : en:00:03:47.01800:07:41.419 : en:00:07:41.41900:10:02.644 : en:00:10:02.64400:18:46.292 : en:00:18:46.29200:23:21.483 : en:00:23:21.48300:26:42.434 : en:00:26:42.43400:32:06.716 : en:00:32:06.71600:36:51.501 : en:00:36:51.50100:43:17.553 : en:00:43:17.55300:48:21.190 : en:00:48:21.19000:53:15.192 : en:00:53:15.19201:00:29.918 : en:01:00:29.91801:07:55.321 : en:01:07:55.32101:12:46.988 : en:01:12:46.98801:14:56.617 : en:01:14:56.61701:21:48.779 : en:01:21:48.77901:26:20.300 : en:01:26:20.30001:30:59.162 : en:01:30:59.16201:38:58.057 : en:01:38:58.057

piratbit.ru


Смотрите также