Побеждая время скачать торрент в хорошем качестве


Побеждая время / Hours (фильм, 2013) скачать торрент - Фильм Побеждая время

Коротко о фильме "Побеждая время" - Новый Орлеан. Август 2005-го. Смертоносная «Катрина» сметает все на своем пути. Отец изо всех сил пытается спасти свою дочь. Он понимает, что справиться со стихией, остановить беспощадный ураган не в его силах. На спасение дочери остаются считаные часы…

Побеждая время

Оригинальное название Hours
Фильм выпущен: 2013
Страна (кинокомпания): США
Pежиссер: Эрик Хайссерер
Сценарий фильма: Эрик Хайссерер
Продюсер фильма: Питер Сафран, Брэндон Биртелл, Дэн Клифтон
Оператор: Яронь Пресан
Композитор: Бенджамин Уоллфисч
Художники: Уильям А. Эллиотт, Рэймонд Пумилия, Клер Бро
Монтаж: Сэм Бауэр
Жанр фильма: триллер, драма
Премьера (мир): 10 марта 2013
премьера (Pоссия):
продолжительность97 мин
В главных ролях:
Йоханс Майлс
Кеша Баллард
Лена Кларк
Тиджей Хассан
Наталия Ярожик
Шэйн Якобсен
Нэнси Нейв
Дженезис Родригез
Пол Уокер
и другие ...

Трейлер фильма:

 

Скачать фильм Побеждая время / Hours - новинка кино 2013

В фильме "Побеждая время" - отец изо всех сил пытается сохранить жизнь своей грудной дочери во время урагана Катрина

Скачать файлы .torrent Hours (фильм)

на сайте Вы можете получить ссылку на торрент файлы или скачать сами торрент файлы, в которых находится информация о местонахождении фильмов, сериалов у пользователей.

--> Всего 8

Параметры: 21.08.2014 BDRip-AVC от New-Team | P | Лицензия, 2,13 Гб

Формат: BDRip-AVC [BDRemux 1080p], MKV, AVC, AAC, размер файла: 2,13 ГбВидео: 1132x474, AVC - 2323 Кбит/сАудио: Русский: AAC, 6 каналов, 384 Кбит/с / English: AAC, 6 каналов, 448 Кбит/сПеревод (озвучивание): Профессиональный (многоголосый закадровый) [Лицензия R5]

Параметры: 19.08.2014 HDRip от Scarabey | Лицензия, 1,45 Гб

Формат: HDRip, AVI, XviD, AC3, размер файла: 1,45 ГбВидео: 720x304, XviD - build 73 ~1750 Кбит/сАудио: AC3, 6 каналов, 384 Кбит/сПеревод (озвучивание): Профессиональный (многоголосый, закадровый) - Лицензия

Параметры: 18.08.2014 BDRip-AVC от HELLYWOOD | Лицензия, 2,14 Гб

Формат: BDRip-AVC, MKV, AC3, размер файла: 2,14 ГбВидео: 1108x464, H.264 - 2322 Кбит/сАудио: Русский: AC3, 6 каналов, 384 Кбит/с / English: AC3, 6 каналов, 448 Кбит/сПеревод (озвучивание): Профессиональный (многоголосый закадровый) [лицензия R5]

Параметры: 16.08.2014 8,21 Гб -

Формат: BDRip (1080p), MKV, AVC, размер файла: 8,21 ГбВидео: 1920x804, AVC -Аудио: Русский / Английский: AC3, 6 каналов, 384 Кбит/сПеревод (озвучивание): Профессиональный многоголосый [лицензия]

Параметры: 16.08.2014 BDRip 1080p от New-Team | P | лицензия, 8,21 Гб

Формат: BDRip 1080p / Hours.2013.1080, размер файла: 8,21 ГбВидео: 1920x804, AVC -Аудио: Русский: , 6 каналов, 384 Кбит/с / EngПеревод (озвучивание): Профессиона

Параметры: 16.08.2014 BDRip 720p от New-Team | P | лицензия, 4,63 Гб

Формат: BDRip 720p / Hours.2013.720p., размер файла: 4,63 ГбВидео: 1280x536, AVC - AVC 4944 Кбит/сАудио: Русский: , 6 каналов, 384 Кбит/с / EngПеревод (озвучивание): Профессиона

Параметры: 16.08.2014 HDRip от New-Team | P | лицензия, 1,46 Гб

Формат: HDRip / Hours.2013.1080p.BluR, размер файла: 1,46 ГбВидео: 720x304, XviD - 1764 Кбит/сАудио: Русский: , 6 каналов, 448 Кбит/сПеревод (озвучивание): Профессиона

Параметры: 16.08.2014 1,45 Гб -

Формат: HDRip (AVC), MKV, AVC, AC3, размер файла: 1,45 ГбВидео: 1024x428, AVC - ~ 1763 Кбит/сАудио: AC3, 6 каналов, 384 Кбит/сПеревод (озвучивание): Профессиональный многоголосый

 

hotkit.ru

Побеждая время / Hours скачать фильм торрент 2013 -

Коротко о фильме "Побеждая время" - Новый Орлеан. Август 2005-го. Смертоносная «Катрина» сметает все на своем пути. Отец изо всех сил пытается спасти свою дочь. Он понимает, что справиться со стихией, остановить беспощадный ураган не в его силах. На спасение дочери остаются считаные часы…

Побеждая время

Оригинальное название Hours
Фильм выпущен: 2013
Страна (кинокомпания): США
Pежиссер: Эрик Хайссерер
Сценарий фильма: Эрик Хайссерер
Продюсер фильма: Питер Сафран, Брэндон Биртелл, Дэн Клифтон
Оператор: Яронь Пресан
Композитор: Бенджамин Уоллфисч
Художники: Уильям А. Эллиотт, Рэймонд Пумилия, Клер Бро
Монтаж: Сэм Бауэр
Жанр фильма: триллер, драма
Премьера (мир): 10 марта 2013
премьера (Pоссия):
продолжительность97 мин
В главных ролях:
Йоханс Майлс
Кеша Баллард
Лена Кларк
Тиджей Хассан
Наталия Ярожик
Шэйн Якобсен
Нэнси Нейв
Дженезис Родригез
Пол Уокер
и другие ...

Трейлер фильма:

 

Фильм Побеждая время / Hours скачать торрент - новинка кино 2013

Скачать файлы .torrent Побеждая время (фильм)

на сайте Вы можете получить ссылку на торрент файлы или скачать сами торрент файлы, в которых находится информация о местонахождении фильмов, сериалов у пользователей.

В фильме "Побеждая время" - отец изо всех сил пытается сохранить жизнь своей грудной дочери во время урагана Катрина



Параметры: 21.08.2014 BDRip-AVC от New-Team | P | Лицензия, 2,13 Гб

Формат: BDRip-AVC [BDRemux 1080p], MKV, AVC, AAC, размер файла: 2,13 ГбВидео: 1132x474, AVC - 2323 Кбит/сАудио: Русский: AAC, 6 каналов, 384 Кбит/с / English: AAC, 6 каналов, 448 Кбит/сПеревод (озвучивание): Профессиональный (многоголосый закадровый) [Лицензия R5]

Параметры: 19.08.2014 HDRip от Scarabey | Лицензия, 1,45 Гб

Формат: HDRip, AVI, XviD, AC3, размер файла: 1,45 ГбВидео: 720x304, XviD - build 73 ~1750 Кбит/сАудио: AC3, 6 каналов, 384 Кбит/сПеревод (озвучивание): Профессиональный (многоголосый, закадровый) - Лицензия

Параметры: 18.08.2014 BDRip-AVC от HELLYWOOD | Лицензия, 2,14 Гб

Формат: BDRip-AVC, MKV, AC3, размер файла: 2,14 ГбВидео: 1108x464, H.264 - 2322 Кбит/сАудио: Русский: AC3, 6 каналов, 384 Кбит/с / English: AC3, 6 каналов, 448 Кбит/сПеревод (озвучивание): Профессиональный (многоголосый закадровый) [лицензия R5]

Параметры: 16.08.2014 BDRip 1080p от New-Team | P | лицензия, 8,21 Гб

Формат: BDRip 1080p / Hours.2013.1080p.BluRay.DTS.x264-PublicHD + DVD5 R5 от "Paradise", MKV, AVC, размер файла: 8,21 ГбВидео: 1920x804, AVC -Аудио: Русский: , 6 каналов, 384 Кбит/с / English: DTS English 1536 kbps 5.1, 6 каналов, DTS English 1536 Кбит/сПеревод (озвучивание): Профессиональный (многоголосый)

Параметры: 16.08.2014 BDRip 720p от New-Team | P | лицензия, 4,63 Гб

Формат: BDRip 720p / Hours.2013.720p.BluRay.DTS.x264-PublicHD + DVD5 R5 от "Paradise", MKV, AVC, размер файла: 4,63 ГбВидео: 1280x536, AVC - AVC 4944 Кбит/сАудио: Русский: , 6 каналов, 384 Кбит/с / English: DTS English 1536 kbps 5.1, 6 каналов, DTS English 1536 Кбит/сПеревод (озвучивание): Профессиональный (многоголосый)

Параметры: 16.08.2014 HDRip от New-Team | P | лицензия, 1,46 Гб

Формат: HDRip / Hours.2013.1080p.BluRay.DTS.x264-PublicHD + DVD5 R5 от "Paradise", AVI, XviD, размер файла: 1,46 ГбВидео: 720x304, XviD - 1764 Кбит/сАудио: Русский: , 6 каналов, 448 Кбит/сПеревод (озвучивание): Профессиональный (многоголосый)

Параметры: 16.08.2014 8,21 Гб -

Формат: BDRip (1080p), MKV, AVC, размер файла: 8,21 ГбВидео: 1920x804, AVC -Аудио: Русский / Английский: AC3, 6 каналов, 384 Кбит/сПеревод (озвучивание): Профессиональный многоголосый [лицензия]

Параметры: 16.08.2014 1,45 Гб -

Формат: HDRip (AVC), MKV, AVC, AC3, размер файла: 1,45 ГбВидео: 1024x428, AVC - ~ 1763 Кбит/сАудио: AC3, 6 каналов, 384 Кбит/сПеревод (озвучивание): Профессиональный многоголосый [лицензия]

Скачать Побеждая время, Hours, фильм бесплатно скачать торрент, триллер, драма, новинка кино

 

hokit.ru

Скачать фильм Побеждая время через торрент в хорошем качестве бесплатно BDRip-AVC

ОбщееУникальный идентификатор : 189993934837283898259008549004133931636 (0x8EEF8036C18084F78DAD2E326D021A74)Полное имя : Pobezhdaya.Vremya.2013.DUAL.BDRip.x264.-HELLYWOOD.mkvФормат : MatroskaВерсия формата : Version 4 / Version 2Размер файла : 2,14 ГбайтПродолжительность : 1 ч. 37 м.Общий поток : 3153 Кбит/секНазвание фильма : Hours (2013) - HELLYWOODДата кодирования : UTC 2014-08-18 11:30:02Программа кодирования : mkvmerge v5.9.0 ('On The Loose') built on Dec 15 2012 16:39:58Библиотека кодирования : libebml v1.3.0 + libmatroska v1.4.0

ВидеоИдентификатор : 1Формат : AVCФормат/Информация : Advanced Video CodecПрофиль формата : [email protected]Параметр CABAC формата : ДаПараметр ReFrames формата : 12 кадровИдентификатор кодека : V_MPEG4/ISO/AVCПродолжительность : 1 ч. 37 м.Битрейт : 2322 Кбит/секШирина : 1108 пикселейВысота : 464 пикселяСоотношение сторон : 2,40:1Режим частоты кадров : ПостоянныйЧастота кадров : 23,976 кадра/секЦветовое пространство : YUVСубдискретизация насыщенности : 4:2:0Битовая глубина : 8 битТип развёртки : ПрогрессивнаяБит/(Пиксели*Кадры) : 0.188Размер потока : 1,53 Гбайт (72%)Заголовок : potroksБиблиотека кодирования : x264 core 130 r2273 b3065e6Настройки программы : cabac=1 / ref=12 / deblock=1:-3:-2 / analyse=0x3:0x133 / me=umh / subme=11 / psy=1 / psy_rd=1.01:0.00 / mixed_ref=1 / me_range=48 / chroma_me=1 / trellis=2 / 8x8dct=1 / cqm=0 / deadzone=21,11 / fast_pskip=0 / chroma_qp_offset=-2 / threads=9 / lookahead_threads=6 / sliced_threads=0 / nr=0 / decimate=0 / interlaced=0 / bluray_compat=0 / constrained_intra=0 / bframes=13 / b_pyramid=2 / b_adapt=2 / b_bias=0 / direct=3 / weightb=1 / open_gop=0 / weightp=2 / keyint=250 / keyint_min=23 / scenecut=40 / intra_refresh=0 / rc_lookahead=60 / rc=2pass / mbtree=0 / bitrate=2322 / ratetol=1.0 / qcomp=0.70 / qpmin=0 / qpmax=69 / qpstep=4 / cplxblur=20.0 / qblur=0.5 / vbv_maxrate=20000 / vbv_bufsize=20000 / nal_hrd=none / ip_ratio=1.35 / pb_ratio=1.25 / aq=1:0.70Язык : EnglishDefault : ДаForced : Нет

Аудио #1Идентификатор : 2Формат : AC-3Формат/Информация : Audio Coding 3Расширение режима : CM (complete main)Параметр Endianness формата : BigИдентификатор кодека : A_AC3Продолжительность : 1 ч. 37 м.Вид битрейта : ПостоянныйБитрейт : 384 Кбит/секКаналы : 6 каналовРасположение каналов : Front: L C R, Side: L R, LFEЧастота : 48,0 КГцБитовая глубина : 16 битМетод сжатия : С потерямиРазмер потока : 267 Мбайт (12%)Заголовок : MVO | DD 5.1 @ 384 kbps - R5Язык : RussianDefault : ДаForced : Нет

Аудио #2Идентификатор : 3Формат : AC-3Формат/Информация : Audio Coding 3Расширение режима : CM (complete main)Параметр Endianness формата : BigИдентификатор кодека : A_AC3Продолжительность : 1 ч. 37 м.Вид битрейта : ПостоянныйБитрейт : 448 Кбит/секКаналы : 6 каналовРасположение каналов : Front: L C R, Side: L R, LFEЧастота : 48,0 КГцБитовая глубина : 16 битМетод сжатия : С потерямиРазмер потока : 311 Мбайт (14%)Заголовок : Original | DD 5.1 @ 448 kbpsЯзык : EnglishDefault : НетForced : Нет

ТекстИдентификатор : 4Формат : UTF-8Идентификатор кодека : S_TEXT/UTF8Идентификатор кодека/Информация : UTF-8 Plain TextЯзык : EnglishDefault : НетForced : Нет

Меню00:00:00.000 : :Chapter 0100:07:04.590 : :Chapter 0200:15:39.229 : :Chapter 0300:23:37.165 : :Chapter 0400:32:11.429 : :Chapter 0500:40:26.424 : :Chapter 0600:49:04.524 : :Chapter 0700:56:11.368 : :Chapter 0801:04:57.268 : :Chapter 0901:14:31.925 : :Chapter 1001:23:40.432 : :Chapter 1101:32:41.138 : :Chapter 12

piratbit.ru

Скачать фильм Побеждая время через торрент в хорошем качестве бесплатно BDRip-AVC

ОбщееУникальный идентификатор : 177913464658184818106989587013178393163 (0x85D8E30C800CC222828F696FED7E824B)Полное имя : G:\Hours\Pobezhdaja.vremja.2013.BDRip-AVC.Dub.1.45Gb...stalkerok.new-team.mkvФормат : MatroskaРазмер файла : 1,46 ГбайтПродолжительность : 1 ч. 36 м.Общий поток : 2151 Кбит/секНазвание фильма : Hours 2013 (New-Team) (Rip by Stalker oK)Дата кодирования : UTC 2014-08-20 18:38:34Программа кодирования : mkvmerge v6.1.0 ('Old Devil') built on Mar 4 2013 09:10:42Библиотека кодирования : libebml v1.3.0 + libmatroska v1.4.0

ВидеоИдентификатор : 1Формат : AVCФормат/Информация : Advanced Video CodecПрофиль формата : [email protected]Параметр CABAC формата : ДаПараметр ReFrames формата : 11 кадрыПараметры GOP формата : M=14, N=27Идентификатор кодека : V_MPEG4/ISO/AVCПродолжительность : 1 ч. 36 м.Номинальный битрейт : 1645 Кбит/секШирина : 1046 пикс.Высота : 438 пикс.Соотношение сторон : 2,35:1Частота кадров : 23,976 кадр/секЦветовое пространство : YUVПодвыборка цветности : 4:2:0Битовая глубина : 8 битТип развёртки : ПрогрессивнаяБит/(Пиксели*Кадры) : 0.150Библиотека кодирования : x264 core 142 r2431 ac76440Настройки программы : cabac=1 / ref=11 / deblock=1:-3:-2 / analyse=0x3:0x133 / me=umh / subme=11 / psy=1 / psy_rd=1.03:0.12 / mixed_ref=1 / me_range=48 / chroma_me=1 / trellis=2 / 8x8dct=1 / cqm=0 / deadzone=21,11 / fast_pskip=0 / chroma_qp_offset=-3 / threads=12 / lookahead_threads=3 / sliced_threads=0 / nr=0 / decimate=0 / interlaced=0 / bluray_compat=0 / constrained_intra=0 / bframes=13 / b_pyramid=2 / b_adapt=2 / b_bias=0 / direct=3 / weightb=1 / open_gop=0 / weightp=2 / keyint=240 / keyint_min=23 / scenecut=40 / intra_refresh=0 / rc_lookahead=80 / rc=2pass / mbtree=0 / bitrate=1645 / ratetol=1.0 / qcomp=0.70 / qpmin=0 / qpmax=69 / qpstep=4 / cplxblur=20.0 / qblur=0.5 / vbv_maxrate=20000 / vbv_bufsize=25000 / nal_hrd=none / filler=0 / ip_ratio=1.20 / pb_ratio=1.10 / aq=2:0.90

Аудио #1Идентификатор : 2Формат : AACФормат/Информация : Advanced Audio CodecПрофиль формата : LCИдентификатор кодека : A_AACПродолжительность : 1 ч. 36 м.Канал(ы) : 6 канала(ов)Расположение каналов : Front: L C R, Side: L R, LFEЧастота : 48,0 КГцМетод сжатия : С потерямиЗадержка видео : 9 мс.Язык : Russian

Аудио #2Идентификатор : 3Формат : AACФормат/Информация : Advanced Audio CodecПрофиль формата : LCИдентификатор кодека : A_AACПродолжительность : 1 ч. 36 м.Канал(ы) : 6 канала(ов)Расположение каналов : Front: L C R, Side: L R, LFEЧастота : 48,0 КГцМетод сжатия : С потерямиЗадержка видео : 9 мс.Язык : English

Текст #1Идентификатор : 4Формат : UTF-8Идентификатор кодека : S_TEXT/UTF8Идентификатор кодека/Информация : UTF-8 Plain TextЗаголовок : RomanianЯзык : Romanian

Текст #2Идентификатор : 5Формат : UTF-8Идентификатор кодека : S_TEXT/UTF8Идентификатор кодека/Информация : UTF-8 Plain TextЯзык : English

Меню00:00:00.000 : :Chapter 100:07:04.591 : :Chapter 200:15:39.230 : :Chapter 300:23:37.166 : :Chapter 400:32:11.429 : :Chapter 500:40:26.424 : :Chapter 600:49:04.525 : :Chapter 700:56:11.368 : :Chapter 801:04:57.268 : :Chapter 901:14:31.926 : :Chapter 1001:23:40.432 : :Chapter 1101:32:41.139 : :Chapter 12

piratbit.ru

Скачать фильм Побеждая время через торрент в хорошем качестве бесплатно BDRip-AVC

ОбщееУникальный идентификатор : 181007081816686025588833601279618304677 (0x882CB2269CFA5813B5E94A86E145CAA5)Полное имя : G:\Hours\Pobezhdaja.vremja.2013.BDRip-AVC.Dub.2.18Gb...stalkerok.new-team.mkvФормат : MatroskaРазмер файла : 2,13 ГбайтПродолжительность : 1 ч. 36 м.Общий поток : 3147 Кбит/секНазвание фильма : Hours 2013 (New-Team) (Rip by Stalker oK)Дата кодирования : UTC 2014-08-20 20:27:35Программа кодирования : mkvmerge v6.1.0 ('Old Devil') built on Mar 4 2013 09:10:42Библиотека кодирования : libebml v1.3.0 + libmatroska v1.4.0

ВидеоИдентификатор : 1Формат : AVCФормат/Информация : Advanced Video CodecПрофиль формата : [email protected]Параметр CABAC формата : ДаПараметр ReFrames формата : 11 кадрыПараметры GOP формата : M=13, N=27Идентификатор кодека : V_MPEG4/ISO/AVCПродолжительность : 1 ч. 36 м.Битрейт : 2323 Кбит/секШирина : 1132 пикс.Высота : 474 пикс.Соотношение сторон : 2,35:1Частота кадров : 23,976 кадр/секЦветовое пространство : YUVПодвыборка цветности : 4:2:0Битовая глубина : 8 битТип развёртки : ПрогрессивнаяБит/(Пиксели*Кадры) : 0.181Размер потока : 1,53 Гбайт (72%)Библиотека кодирования : x264 core 142 r2431 ac76440Настройки программы : cabac=1 / ref=11 / deblock=1:-3:-2 / analyse=0x3:0x133 / me=umh / subme=11 / psy=1 / psy_rd=1.05:0.18 / mixed_ref=1 / me_range=48 / chroma_me=1 / trellis=2 / 8x8dct=1 / cqm=0 / deadzone=21,11 / fast_pskip=0 / chroma_qp_offset=-3 / threads=12 / lookahead_threads=3 / sliced_threads=0 / nr=0 / decimate=0 / interlaced=0 / bluray_compat=0 / constrained_intra=0 / bframes=12 / b_pyramid=2 / b_adapt=2 / b_bias=0 / direct=3 / weightb=1 / open_gop=0 / weightp=2 / keyint=240 / keyint_min=23 / scenecut=40 / intra_refresh=0 / rc_lookahead=80 / rc=2pass / mbtree=0 / bitrate=2323 / ratetol=1.0 / qcomp=0.70 / qpmin=0 / qpmax=69 / qpstep=4 / cplxblur=20.0 / qblur=0.5 / vbv_maxrate=25000 / vbv_bufsize=30000 / nal_hrd=none / filler=0 / ip_ratio=1.20 / pb_ratio=1.10 / aq=2:0.80

Аудио #1Идентификатор : 2Формат : AC-3Формат/Информация : Audio Coding 3Расширение режима : CM (complete main)Идентификатор кодека : A_AC3Продолжительность : 1 ч. 36 м.Вид битрейта : ПостоянныйБитрейт : 384 Кбит/секКанал(ы) : 6 канала(ов)Расположение каналов : Front: L C R, Side: L R, LFEЧастота : 48,0 КГцБитовая глубина : 16 битМетод сжатия : С потерямиРазмер потока : 266 Мбайт (12%)Язык : Russian

Аудио #2Идентификатор : 3Формат : AC-3Формат/Информация : Audio Coding 3Расширение режима : CM (complete main)Идентификатор кодека : A_AC3Продолжительность : 1 ч. 36 м.Вид битрейта : ПостоянныйБитрейт : 448 Кбит/секКанал(ы) : 6 канала(ов)Расположение каналов : Front: L C R, Side: L R, LFEЧастота : 48,0 КГцБитовая глубина : 16 битМетод сжатия : С потерямиРазмер потока : 311 Мбайт (14%)Язык : English

Текст #1Идентификатор : 4Формат : UTF-8Идентификатор кодека : S_TEXT/UTF8Идентификатор кодека/Информация : UTF-8 Plain TextЗаголовок : RomanianЯзык : Romanian

Текст #2Идентификатор : 5Формат : UTF-8Идентификатор кодека : S_TEXT/UTF8Идентификатор кодека/Информация : UTF-8 Plain TextЯзык : English

Меню00:00:00.000 : :Chapter 100:07:04.591 : :Chapter 200:15:39.230 : :Chapter 300:23:37.166 : :Chapter 400:32:11.429 : :Chapter 500:40:26.424 : :Chapter 600:49:04.525 : :Chapter 700:56:11.368 : :Chapter 801:04:57.268 : :Chapter 901:14:31.926 : :Chapter 1001:23:40.432 : :Chapter 1101:32:41.139 : :Chapter 12

piratbit.ru

Скачать фильм Побеждая время через торрент в хорошем качестве бесплатно BDRip-AVC

ОбщееУникальный идентификатор : 222300555866559827754072226071671192009 (0xA73D879BB6638218B8ECC7F013E3B9C9)Полное имя : G:\Hours\Pobezhdaja.vremja.2013.BDRip-AVC.Dub.745Mb...stalkerok.new-team.mkvФормат : MatroskaРазмер файла : 746 МбайтПродолжительность : 1 ч. 36 м.Общий поток : 1075 Кбит/секНазвание фильма : Hours 2013 (New-Team) (Rip by Stalker oK)Дата кодирования : UTC 2014-08-20 19:48:56Программа кодирования : mkvmerge v6.1.0 ('Old Devil') built on Mar 4 2013 09:10:42Библиотека кодирования : libebml v1.3.0 + libmatroska v1.4.0

ВидеоИдентификатор : 1Формат : AVCФормат/Информация : Advanced Video CodecПрофиль формата : [email protected]Параметр CABAC формата : ДаПараметр ReFrames формата : 12 кадрыИдентификатор кодека : V_MPEG4/ISO/AVCПродолжительность : 1 ч. 36 м.Номинальный битрейт : 1007 Кбит/секШирина : 812 пикс.Высота : 340 пикс.Соотношение сторон : 2,35:1Частота кадров : 23,976 кадр/секЦветовое пространство : YUVПодвыборка цветности : 4:2:0Битовая глубина : 8 битТип развёртки : ПрогрессивнаяБит/(Пиксели*Кадры) : 0.152Библиотека кодирования : x264 core 142 r2431 ac76440Настройки программы : cabac=1 / ref=12 / deblock=1:-2:-1 / analyse=0x3:0x133 / me=umh / subme=11 / psy=1 / psy_rd=1.00:0.10 / mixed_ref=1 / me_range=48 / chroma_me=1 / trellis=2 / 8x8dct=1 / cqm=0 / deadzone=21,11 / fast_pskip=0 / chroma_qp_offset=-3 / threads=12 / lookahead_threads=2 / sliced_threads=0 / nr=0 / decimate=0 / interlaced=0 / bluray_compat=0 / constrained_intra=0 / bframes=15 / b_pyramid=2 / b_adapt=2 / b_bias=0 / direct=3 / weightb=1 / open_gop=0 / weightp=2 / keyint=240 / keyint_min=23 / scenecut=40 / intra_refresh=0 / rc_lookahead=80 / rc=2pass / mbtree=0 / bitrate=1007 / ratetol=1.0 / qcomp=0.70 / qpmin=0 / qpmax=69 / qpstep=4 / cplxblur=20.0 / qblur=0.5 / vbv_maxrate=20000 / vbv_bufsize=25000 / nal_hrd=none / filler=0 / ip_ratio=1.20 / pb_ratio=1.10 / aq=2:1.00

АудиоИдентификатор : 2Формат : AACФормат/Информация : Advanced Audio CodecПрофиль формата : HE-AAC / LCИдентификатор кодека : A_AACПродолжительность : 1 ч. 36 м.Канал(ы) : 2 канала(ов)Расположение каналов : Front: L RЧастота : 48,0 КГц / 24,0 КГцМетод сжатия : С потерямиЗадержка видео : 31 мс.Язык : Russian

Текст #1Идентификатор : 3Формат : UTF-8Идентификатор кодека : S_TEXT/UTF8Идентификатор кодека/Информация : UTF-8 Plain TextЗаголовок : RomanianЯзык : Romanian

Текст #2Идентификатор : 4Формат : UTF-8Идентификатор кодека : S_TEXT/UTF8Идентификатор кодека/Информация : UTF-8 Plain TextЯзык : English

Меню00:00:00.000 : :Chapter 100:07:04.591 : :Chapter 200:15:39.230 : :Chapter 300:23:37.166 : :Chapter 400:32:11.429 : :Chapter 500:40:26.424 : :Chapter 600:49:04.525 : :Chapter 700:56:11.368 : :Chapter 801:04:57.268 : :Chapter 901:14:31.926 : :Chapter 1001:23:40.432 : :Chapter 1101:32:41.139 : :Chapter 12

piratbit.ru

Скачать фильм Побеждая время через торрент в хорошем качестве бесплатно 2013

ОбщееУникальный идентификатор                 : 213784767325005654051900414179930993672 (0xA0D572D13104AC30BEA104F2942EF408)Полное имя                               : I:\Hours.2013.1080p.BluRay.Remux.x264.Rus.Eng.Subs-playBD.mkvФормат                                   : MatroskaВерсия формата                           : Version 4 / Version 2Размер файла                             : 15,3 ГбайтПродолжительность                        : 1 ч. 36 м.Режим общего битрейта                    : ПеременныйОбщий поток                              : 22,6 Мбит/секДата кодирования                         : UTC 2014-08-16 19:08:37Программа кодирования                    : mkvmerge v6.9.1 ('Blue Panther') 64bit built on Apr 18 2014 18:23:38Библиотека кодирования                   : libebml v1.3.0 + libmatroska v1.4.1

ВидеоИдентификатор                            : 1Формат                                   : AVCФормат/Информация                        : Advanced Video CodecПрофиль формата                          : [email protected]Параметр CABAC формата                   : ДаПараметр ReFrames формата                : 4 кадраИдентификатор кодека                     : V_MPEG4/ISO/AVCПродолжительность                        : 1 ч. 36 м.Вид битрейта                             : ПеременныйМаксимальный битрейт                     : 35,0 Мбит/секШирина                                   : 1920 пикселейВысота                                   : 1080 пикселейСоотношение сторон                       : 16:9Режим частоты кадров                     : ПостоянныйЧастота кадров                           : 23,976 кадра/секЦветовое пространство                    : YUVСубдискретизация насыщенности            : 4:2:0Битовая глубина                          : 8 битТип развёртки                            : ПрогрессивнаяЯзык                                     : EnglishDefault                                  : ДаForced                                   : Нет

Аудио #1Идентификатор                            : 2Формат                                   : AC-3Формат/Информация                        : Audio Coding 3Расширение режима                        : CM (complete main)Параметр Endianness формата              : BigИдентификатор кодека                     : A_AC3Продолжительность                        : 1 ч. 36 м.Вид битрейта                             : ПостоянныйБитрейт                                  : 384 Кбит/секКаналы                                   : 6 каналовРасположение каналов                     : Front: L C R, Side: L R, LFEЧастота                                  : 48,0 КГцБитовая глубина                          : 16 битМетод сжатия                             : С потерямиРазмер потока                            : 266 Мбайт (2%)Заголовок                                : DVD R5Язык                                     : RussianDefault                                  : ДаForced                                   : Нет

Аудио #2Идентификатор                            : 3Формат                                   : DTSФормат/Информация                        : Digital Theater SystemsПрофиль формата                          : MA / CoreРежим                                    : 16Параметр Endianness формата              : BigИдентификатор кодека                     : A_DTSПродолжительность                        : 1 ч. 36 м.Вид битрейта                             : ПеременныйБитрейт                                  : Неизвестно / 1509 Кбит/секКаналы                                   : 6 каналовРасположение каналов                     : Front: L C R, Side: L R, LFEЧастота                                  : 48,0 КГцБитовая глубина                          : 16 битМетод сжатия                             : Без потерь / LossyЯзык                                     : EnglishDefault                                  : НетForced                                   : Нет

Текст #1Идентификатор                            : 4Формат                                   : UTF-8Идентификатор кодека                     : S_TEXT/UTF8Идентификатор кодека/Информация          : UTF-8 Plain TextЗаголовок                                : RomanianЯзык                                     : RomanianDefault                                  : НетForced                                   : Нет

Текст #2Идентификатор                            : 5Формат                                   : UTF-8Идентификатор кодека                     : S_TEXT/UTF8Идентификатор кодека/Информация          : UTF-8 Plain TextЯзык                                     : EnglishDefault                                  : НетForced                                   : Нет

Меню00:00:00.000                             : :Chapter 100:07:04.591                             : :Chapter 200:15:39.230                             : :Chapter 300:23:37.166                             : :Chapter 400:32:11.429                             : :Chapter 500:40:26.424                             : :Chapter 600:49:04.525                             : :Chapter 700:56:11.368                             : :Chapter 801:04:57.268                             : :Chapter 901:14:31.926                             : :Chapter 1001:23:40.432                             : :Chapter 1101:32:41.139                             : :Chapter 12

piratbit.ru


Смотрите также