По следу скачать торрент в хорошем качестве hd 1080


Фильм По следу (2016) скачать торрент в хорошем качестве hd

Название: По следу 

Оригинальное название: Skiptrace 

Год выхода: 2016 

Жанр: боевик, комедия 

Режиссер: Ренни Харлин 

В ролях: Джеки Чан, Джонни Ноксвил, Бинбин Фань, Эрик Цан, Ив Торрес, Уинстон Чао, Ланьсинь Чжан, Майкл Вон, Джоэль Адриан, Пьер Бурдо 

Раскрывать преступления и сражаться за ту самую правду, которая позволит обсуждать преступность, так можно создать собственную система ценностей. Но все рушится если в руках злодеев оказывается родной человек. Тогда приходится идти против правил, ради жизни и личного интереса любимого человека. Так и в данной истории, где главному герою придётся спасать свою племянницу. И тут не так все просто, ведь племянница честного полицейского попадает в плен и оказывается в руках бандитов. За помощью при этом придется обратиться к своей решительности и взять с собой болтливого американского игрока.

Сюжетом станет невероятное путешествие, которое проведет главных героев через ряд испытаний, позволив отыскать собственные цели и желания. Одним из которых будет спасти родного для сердца человека. Так как племянница честного полицейского попадает в плен и теперь она может рассчитывать только на единственного человека и его решительность. Нарушать созданные правила, не просто, но он будет готов. И теперь начнется неординарное соревнование смелости и реального сражения с силами, превосходящими по количеству людей. Также главному герою придётся в свои ряды взять очень болтливого американского игрока, но только он знает, где можно отыскать банду преступников, которые скрываются так успешно от полиции и властей уже на протяжении многих лет.

Яркие и сногсшибательные сцены с участием самого Джеки Чана позволят увидеть не только трюки, но и смешные жизненные обстоятельства, которые заставят восхищается владением кунг-фу и. новое представление о комедии и ярком образе привычного полицейского, пронесут зрителей по разным уголкам мира и планеты. Заставят побывать не только привычном мегаполисе, но и оказаться посреди степей и пустыней.

Дать повод себе увидеть новые грани и события, которые затрагивают собственную целостность мыслей и идей, побывать в каждом из предложенных уголков мира. За это кинолента и получает столь высокие 10 из 10. Обворожив каждого зрителя и показав, насколько отличается история Востока и Запада.

Выпущено: Гонконг, США, Китай 

Продолжительность: 01:47:54 

Озвучивание: Любительское (многоголосое) [Parovoz Production] 

ПРИМЕЧАНИЕ: Релиз без рекламы!

Качество: WEB-DL (1080p) 

Видео: MPEG-4 AVC, 4530 Кбит/с, 1912x792 

Аудио: Русский (AC3, 2 ch, 384 Кбит/с), английский (AC3, 6 ch, 384 Кбит/с) 

Субтитры: Английские

Поиск торрент раздач, пожалуйста подождите!

Информация о торрент файле

Скачать торрент Торрент: Зарегистрирован Статус: v Проверено Просмотров: 869 Категория: боевики Общий размер: 3.99 GB

Поделитесь ссылкой на наш сайт с друзьями в соц.сетях ↓

mega-torrent.co

Скачать торрент Отпетые напарники / По следу / Skiptrace (2016) BDRip 1080р от ExKinoRay

Информация о фильмеНазвание: Отпетые напарники / По следуОригинальное название: SkiptraceГод выхода: 2016Жанр: Боевик, комедияРежиссер: Ренни ХарлинВ ролях: Джеки Чан, Джонни Ноксвилл, Бинбин Фань, Эрик Цан, Ив Торрес, Уинстон Чао, Ланьсинь Чжан, Майкл Вонг, Джоэль Адриан, Пьер Бурдо

О фильме:Племянница честного полицейского попадает в неприятности и оказывается в руках у преступного синдиката. Во главе преступной группировки стоит человек, за которым протагонист следил около десяти лет. Чтобы спасти родственницу, копу приходится поймать болтливого американского игрока, с чьей помощью он может выручить девушку.

Страна: США, Китай, ГонконгСтудия: Cider Mill Pictures, Dasym EnetertainmentПродолжительность: 01:47:51Перевод: Дублированный | iTunes

ФайлКачество: BDRip 1080pВидео: MPEG-4 AVC, 1920x800, 13.1 Кbit/s, 23.976 fpsЗвук: Аудио #01: 48 kHz, AC3, 5.1, 384 Kbps | Дублированный |Аудио #02: 48 kHz, DTS, 5.1, 1510 kbps | Оригинал |Субтитры: Английские

MI

General Unique ID : 185854316465018321092037146069006433833 (0x8BD23D4536961CA78C6D303D307E3E29) Complete name : G:VideoSkiptrace.2016.D.BDRip.1080p.ExKinoRay.mkv Format : Matroska Format version : Version 4 / Version 2 File size : 11.3 GiB Duration : 1 h 47 min Overall bit rate : 15.0 Mb/s Encoded date : UTC 2017-03-02 20:32:01 Writing application : mkvmerge v8.3.0 ('Over the Horizon') 64bit Writing library : libebml v1.3.1 + libmatroska v1.4.2

Video ID : 1 Format : AVC Format/Info : Advanced Video Codec Format profile : [email protected] Format settings, CABAC : Yes Format settings, ReFrames : 5 frames Codec ID : V_MPEG4/ISO/AVC Duration : 1 h 47 min Bit rate : 13.1 Mb/s Width : 1 920 pixels Height : 800 pixels Display aspect ratio : 2.40:1 Frame rate mode : Constant Frame rate : 23.976 (24000/1001) FPS Color space : YUV Chroma subsampling : 4:2:0 Bit depth : 8 bits Scan type : Progressive Bits/(Pixel*Frame) : 0.356 Stream size : 9.85 GiB (87%) Writing library : x264 core 129 r2245 bc13772 Encoding settings : cabac=1 / ref=5 / deblock=1:-3:-3 / analyse=0x3:0x133 / me=umh / subme=11 / psy=1 / psy_rd=1.05:0.10 / mixed_ref=1 / me_range=64 / chroma_me=1 / trellis=2 / 8x8dct=1 / cqm=0 / deadzone=21,11 / fast_pskip=0 / chroma_qp_offset=-3 / threads=6 / lookahead_threads=1 / sliced_threads=0 / nr=0 / decimate=1 / interlaced=0 / bluray_compat=0 / constrained_intra=0 / bframes=8 / b_pyramid=2 / b_adapt=2 / b_bias=0 / direct=3 / weightb=1 / open_gop=0 / weightp=2 / keyint=250 / keyint_min=23 / scenecut=40 / intra_refresh=0 / rc_lookahead=60 / rc=2pass / mbtree=1 / bitrate=13103 / ratetol=1.0 / qcomp=0.60 / qpmin=0 / qpmax=69 / qpstep=4 / cplxblur=20.0 / qblur=0.5 / vbv_maxrate=40000 / vbv_bufsize=30000 / nal_hrd=none / ip_ratio=1.40 / aq=1:0.80 Language : English Default : Yes Forced : No

Audio #1 ID : 2 Format : AC-3 Format/Info : Audio Coding 3 Mode extension : CM (complete main) Format settings, Endianness : Big Codec ID : A_AC3 Duration : 1 h 47 min Bit rate mode : Constant Bit rate : 384 kb/s Channel(s) : 6 channels Channel positions : Front: L C R, Side: L R, LFE Sampling rate : 48.0 kHz Frame rate : 31.250 FPS (1536 spf) Bit depth : 16 bits Compression mode : Lossy Stream size : 296 MiB (3%) Title : iTunes Language : Russian Default : Yes Forced : No

Audio #2 ID : 3 Format : DTS Format/Info : Digital Theater Systems Mode : 16 Format settings, Endianness : Big Codec ID : A_DTS Duration : 1 h 47 min Bit rate mode : Constant Bit rate : 1 509 kb/s Channel(s) : 6 channels Channel positions : Front: L C R, Side: L R, LFE Sampling rate : 48.0 kHz Frame rate : 93.750 FPS (512 spf) Bit depth : 24 bits Compression mode : Lossy Stream size : 1.14 GiB (10%) Title : Original Language : English Default : No Forced : No

Text #1 ID : 4 Format : UTF-8 Codec ID : S_TEXT/UTF8 Codec ID/Info : UTF-8 Plain Text Duration : 1 h 42 min Bit rate : 40 b/s Count of elements : 1140 Stream size : 30.7 KiB (0%) Title : Full Language : English Default : No Forced : No

Text #2 ID : 5 Format : UTF-8 Codec ID : S_TEXT/UTF8 Codec ID/Info : UTF-8 Plain Text Duration : 1 h 46 min Bit rate : 46 b/s Count of elements : 1437 Stream size : 36.4 KiB (0%) Title : SDH Language : English Default : No Forced : No

Text #3 ID : 6 Format : UTF-8 Codec ID : S_TEXT/UTF8 Codec ID/Info : UTF-8 Plain Text Duration : 1 h 47 min Bit rate : 67 b/s Count of elements : 1437 Stream size : 53.3 KiB (0%) Title : SDH [Colored] Language : English Default : No Forced : No

Релиз от: Автор релиза:

krutor.org

Фильм По следу (2016) скачать торрент в хорошем качестве hd

Название: По следуОригинальное название: SkiptraceГод выхода: 2016 Жанр: Боевик, комедия Режиссер: Ренни Харлин В ролях: Джеки Чан, Джонни Ноксвилл, Бинбин Фань, Эрик Цан, Ив Торрес, Уинстон Чао, Ланьсинь Чжан, Майкл Вонг, Джоэль Адриан, Пьер Бурдо

Раскрывать преступления и сражаться за ту самую правду, которая позволит обсуждать преступность, так можно создать собственную система ценностей. Но все рушится если в руках злодеев оказывается родной человек. Тогда приходится идти против правил, ради жизни и личного интереса любимого человека. Так и в данной истории, где главному герою придётся спасать свою племянницу. И тут не так все просто, ведь племянница честного полицейского попадает в плен и оказывается в руках бандитов. За помощью при этом придется обратиться к своей решительности и взять с собой болтливого американского игрока.Сюжетом станет невероятное путешествие, которое проведет главных героев через ряд испытаний, позволив отыскать собственные цели и желания. Одним из которых будет спасти родного для сердца человека. Так как племянница честного полицейского попадает в плен и теперь она может рассчитывать только на единственного человека и его решительность. Нарушать созданные правила, не просто, но он будет готов. И теперь начнется неординарное соревнование смелости и реального сражения с силами, превосходящими по количеству людей. Также главному герою придётся в свои ряды взять очень болтливого американского игрока, но только он знает, где можно отыскать банду преступников, которые скрываются так успешно от полиции и властей уже на протяжении многих лет.Яркие и сногсшибательные сцены с участием самого Джеки Чана позволят увидеть не только трюки, но и смешные жизненные обстоятельства, которые заставят восхищается владением кунг-фу и. новое представление о комедии и ярком образе привычного полицейского, пронесут зрителей по разным уголкам мира и планеты. Заставят побывать не только привычном мегаполисе, но и оказаться посреди степей и пустыней.Дать повод себе увидеть новые грани и события, которые затрагивают собственную целостность мыслей и идей, побывать в каждом из предложенных уголков мира. За это кинолента и получает столь высокие 10 из 10. Обворожив каждого зрителя и показав, насколько отличается история Востока и Запада.

Страна: США, Китай, Гонконг Студия: Cider Mill Pictures, Dasym Enetertainment Продолжительность: 01:47:51 Перевод(ы): #1: Любительский многоголосый (закадровый) | Студия "Paradox" & Omskbird records #2: Любительский многоголосый (закадровый) | СПД

Кодек: MPEG-4 Качество: BDRip 1080p Видео: 1920x800, 14.4 Мbit/s, 23.976 fps Звук: Аудио #01: 48 kHz, DTS, 5.1, 1510 Kbps | Любительский многоголосый (закадровый) |Аудио #02: 48 kHz, AC3, 5.1, 640 Kbps | Любительский многоголосый (закадровый) |Аудио #03: 48 kHz, DTS, 5.1, 1510 kbps | Оригинал |Субтитры: Английские

Поиск торрент раздач, пожалуйста подождите!

Информация о торрент файле

Скачать торрент Торрент: Зарегистрирован Статус: v Проверено Просмотров: 764 Категория: комедии Общий размер: 15.18 GB

Поделитесь ссылкой на наш сайт с друзьями в соц.сетях ↓

mega-torrent.co

Скачать фильм По следу через торрент в хорошем качестве бесплатно 1080p

GeneralUnique ID                                : 246095087182588925176096746559828577635 (0xB9243093ECC0A81FAEF08FC0C4B2CD63)Complete name                            : E:\Skiptrace.2016.1080p.WEB-DL.x264.mkvFormat                                   : MatroskaFormat version                           : Version 4 / Version 2File size                                : 3.99 GiBDuration                                 : 1 h 47 minOverall bit rate                         : 5 297 kb/sEncoded date                             : UTC 2016-09-04 22:27:22Writing application                      : mkvmerge v8.3.0 ('Over the Horizon') 64bitWriting library                          : libebml v1.3.1 + libmatroska v1.4.2

VideoID                                       : 1Format                                   : AVCFormat/Info                              : Advanced Video CodecFormat profile                           : [email protected] settings, CABAC                   : YesFormat settings, ReFrames                : 5 framesCodec ID                                 : V_MPEG4/ISO/AVCDuration                                 : 1 h 47 minBit rate                                 : 4 530 kb/sWidth                                    : 1 912 pixelsHeight                                   : 792 pixelsDisplay aspect ratio                     : 2.40:1Frame rate mode                          : ConstantFrame rate                               : 23.976 (24000/1001) FPSColor space                              : YUVChroma subsampling                       : 4:2:0Bit depth                                : 8 bitsScan type                                : ProgressiveBits/(Pixel*Frame)                       : 0.125Stream size                              : 3.41 GiB (85%)Language                                 : EnglishDefault                                  : YesForced                                   : NoColor range                              : LimitedColor primaries                          : BT.709Transfer characteristics                 : BT.709Matrix coefficients                      : BT.709

Audio #1ID                                       : 2Format                                   : AC-3Format/Info                              : Audio Coding 3Mode extension                           : CM (complete main)Format settings, Endianness              : BigCodec ID                                 : A_AC3Duration                                 : 1 h 47 minBit rate mode                            : ConstantBit rate                                 : 384 kb/sChannel(s)                               : 2 channelsChannel positions                        : Front: L RSampling rate                            : 48.0 kHzFrame rate                               : 31.250 FPS (1536 spf)Compression mode                         : LossyStream size                              : 296 MiB (7%)Language                                 : RussianDefault                                  : YesForced                                   : No

Audio #2ID                                       : 3Format                                   : AC-3Format/Info                              : Audio Coding 3Mode extension                           : CM (complete main)Format settings, Endianness              : BigCodec ID                                 : A_AC3Duration                                 : 1 h 47 minBit rate mode                            : ConstantBit rate                                 : 384 kb/sChannel(s)                               : 6 channelsChannel positions                        : Front: L C R, Side: L R, LFESampling rate                            : 48.0 kHzFrame rate                               : 31.250 FPS (1536 spf)Compression mode                         : LossyStream size                              : 296 MiB (7%)Language                                 : EnglishDefault                                  : NoForced                                   : No

TextID                                       : 4Format                                   : UTF-8Codec ID                                 : S_TEXT/UTF8Codec ID/Info                            : UTF-8 Plain TextDuration                                 : 1 h 42 minBit rate                                 : 40 b/sCount of elements                        : 1140Stream size                              : 30.7 KiB (0%)Language                                 : EnglishDefault                                  : NoForced                                   : No

Menu00:00:00.000                             : en:100:09:34.000                             : en:200:19:19.000                             : en:300:29:56.000                             : en:400:39:14.000                             : en:500:51:10.000                             : en:601:02:45.000                             : en:701:11:41.000                             : en:801:21:24.000                             : en:901:31:29.000                             : en:1001:43:31.000                             : en:11

piratbit.ru

Скачать торрент По следу / Skiptrace (2016) BDRip 1080p от ExKinoRay

Информация о фильмеНазвание: По следуОригинальное название: SkiptraceГод выхода: 2016Жанр: Боевик, комедияРежиссер: Ренни ХарлинВ ролях: Джеки Чан, Джонни Ноксвилл, Бинбин Фань, Эрик Цан, Ив Торрес, Уинстон Чао, Ланьсинь Чжан, Майкл Вонг, Джоэль Адриан, Пьер Бурдо

О фильме:Племянница честного полицейского попадает в неприятности и оказывается в руках у преступного синдиката. Во главе преступной группировки стоит человек, за которым протагонист следил около десяти лет. Чтобы спасти родственницу, копу приходится поймать болтливого американского игрока, с чьей помощью он может выручить девушку.

Страна: США, Китай, ГонконгСтудия: Cider Mill Pictures, Dasym EnetertainmentПродолжительность: 01:47:51Перевод(ы): #1: Любительский многоголосый (закадровый) | Студия "Paradox" & Omskbird records#2: Любительский многоголосый (закадровый) | СПД

ФайлКодек: MPEG-4Качество: BDRip 1080pВидео: 1920x800, 14.4 Мbit/s, 23.976 fpsЗвук: Аудио #01: 48 kHz, DTS, 5.1, 1510 Kbps | Любительский многоголосый (закадровый) |Аудио #02: 48 kHz, AC3, 5.1, 640 Kbps | Любительский многоголосый (закадровый) |Аудио #03: 48 kHz, DTS, 5.1, 1510 kbps | Оригинал |Субтитры: Английские

MI

General Unique ID : 227242539357428541288789982010402163794 (0xAAF55234D5E73D9EA980D2C931984C52) Complete name : H:VideoSkiptrace.2016.MVO.BDRip.1080p.ExKinoRay.mkv Format : Matroska Format version : Version 4 / Version 2 File size : 15.2 GiB Duration : 1 h 47 min Overall bit rate : 20.2 Mb/s Movie name : ***селезень*** Encoded date : UTC 2016-10-13 14:07:52 Writing application : mkvmerge v8.3.0 ('Over the Horizon') 64bit Writing library : libebml v1.3.1 + libmatroska v1.4.2

Video ID : 1 Format : AVC Format/Info : Advanced Video Codec Format profile : [email protected] Format settings, CABAC : Yes Format settings, ReFrames : 5 frames Codec ID : V_MPEG4/ISO/AVC Duration : 1 h 47 min Bit rate : 14.4 Mb/s Width : 1 920 pixels Height : 800 pixels Display aspect ratio : 2.40:1 Frame rate mode : Constant Frame rate : 23.976 (24000/1001) FPS Color space : YUV Chroma subsampling : 4:2:0 Bit depth : 8 bits Scan type : Progressive Bits/(Pixel*Frame) : 0.390 Stream size : 10.8 GiB (71%) Title : ***селезень*** Writing library : x264 core 148 r2597 e86f3a1 Encoding settings : cabac=1 / ref=5 / deblock=1:-3:-3 / analyse=0x3:0x113 / me=umh / subme=10 / psy=1 / psy_rd=1.00:0.05 / mixed_ref=1 / me_range=48 / chroma_me=1 / trellis=2 / 8x8dct=1 / cqm=0 / deadzone=21,11 / fast_pskip=0 / chroma_qp_offset=-2 / threads=12 / lookahead_threads=2 / sliced_threads=0 / nr=0 / decimate=1 / interlaced=0 / bluray_compat=0 / constrained_intra=0 / bframes=8 / b_pyramid=2 / b_adapt=2 / b_bias=0 / direct=3 / weightb=1 / open_gop=0 / weightp=2 / keyint=250 / keyint_min=23 / scenecut=40 / intra_refresh=0 / rc_lookahead=40 / rc=crf / mbtree=0 / crf=17.0 / qcomp=0.60 / qpmin=0 / qpmax=69 / qpstep=4 / vbv_maxrate=50000 / vbv_bufsize=45000 / crf_max=0.0 / nal_hrd=none / filler=0 / ip_ratio=1.40 / pb_ratio=1.30 / aq=3:1.00 Language : English Default : Yes Forced : No Color range : Limited Matrix coefficients : BT.709

Audio #1 ID : 2 Format : DTS Format/Info : Digital Theater Systems Mode : 16 Format settings, Endianness : Big Codec ID : A_DTS Duration : 1 h 47 min Bit rate mode : Constant Bit rate : 1 509 kb/s Channel(s) : 6 channels Channel positions : Front: L C R, Side: L R, LFE Sampling rate : 48.0 kHz Frame rate : 93.750 FPS (512 spf) Bit depth : 24 bits Compression mode : Lossy Stream size : 1.14 GiB (7%) Title : MVO-DTS [PARADOX @ OMSKBIRD] Language : Russian Default : Yes Forced : No

Audio #2 ID : 3 Format : DTS Format/Info : Digital Theater Systems Mode : 16 Format settings, Endianness : Big Codec ID : A_DTS Duration : 1 h 47 min Bit rate mode : Constant Bit rate : 1 509 kb/s Channel(s) : 6 channels Channel positions : Front: L C R, Side: L R, LFE Sampling rate : 48.0 kHz Frame rate : 93.750 FPS (512 spf) Bit depth : 24 bits Compression mode : Lossy Stream size : 1.14 GiB (7%) Title : MVO-DTS [SPD] Language : Russian Default : No Forced : No

Audio #3 ID : 4 Format : AC-3 Format/Info : Audio Coding 3 Mode extension : CM (complete main) Format settings, Endianness : Big Codec ID : A_AC3 Duration : 1 h 47 min Bit rate mode : Constant Bit rate : 640 kb/s Channel(s) : 6 channels Channel positions : Front: L C R, Side: L R, LFE Sampling rate : 48.0 kHz Frame rate : 31.250 FPS (1536 spf) Compression mode : Lossy Stream size : 493 MiB (3%) Title : MVO-AC3 [PARADOX @ OMSKBIRD] Language : Russian Default : No Forced : No

Audio #4 ID : 5 Format : AC-3 Format/Info : Audio Coding 3 Mode extension : CM (complete main) Format settings, Endianness : Big Codec ID : A_AC3 Duration : 1 h 47 min Bit rate mode : Constant Bit rate : 640 kb/s Channel(s) : 6 channels Channel positions : Front: L C R, Side: L R, LFE Sampling rate : 48.0 kHz Frame rate : 31.250 FPS (1536 spf) Compression mode : Lossy Stream size : 493 MiB (3%) Title : MVO-AC3 [SPD] Language : Russian Default : No Forced : No

Audio #5 ID : 6 Format : DTS Format/Info : Digital Theater Systems Mode : 16 Format settings, Endianness : Big Codec ID : A_DTS Duration : 1 h 47 min Bit rate mode : Constant Bit rate : 1 509 kb/s Channel(s) : 6 channels Channel positions : Front: L C R, Side: L R, LFE Sampling rate : 48.0 kHz Frame rate : 93.750 FPS (512 spf) Bit depth : 24 bits Compression mode : Lossy Stream size : 1.14 GiB (7%) Title : Original Language : English Default : No Forced : No

Text #1 ID : 7 Format : UTF-8 Codec ID : S_TEXT/UTF8 Codec ID/Info : UTF-8 Plain Text Duration : 1 h 42 min Bit rate : 39 b/s Count of elements : 1110 Stream size : 29.3 KiB (0%) Title : Full Language : English Default : No Forced : No

Text #2 ID : 8 Format : UTF-8 Codec ID : S_TEXT/UTF8 Codec ID/Info : UTF-8 Plain Text Duration : 1 h 46 min Bit rate : 47 b/s Count of elements : 1436 Stream size : 36.9 KiB (0%) Title : SDH Language : English Default : No Forced : No

Menu 00:00:00.000 : en:00:00:00.000 00:06:04.990 : en:00:06:04.990 00:13:12.959 : en:00:13:12.959 00:20:20.803 : en:00:20:20.803 00:27:23.767 : en:00:27:23.767 00:34:51.506 : en:00:34:51.506 00:43:05.082 : en:00:43:05.082 00:49:09.280 : en:00:49:09.280 00:55:45.509 : en:00:55:45.509 01:04:06.342 : en:01:04:06.342 01:09:07.602 : en:01:09:07.602 01:15:53.632 : en:01:15:53.632 01:23:22.998 : en:01:23:22.998 01:30:19.331 : en:01:30:19.331 01:39:44.145 : en:01:39:44.145 01:43:30.746 : en:01:43:30.746

Релиз от: Автор релиза:

krutor.org

Скачать торрент Отпетые напарники / По следу / Skiptrace (2016) BDRip-AVC от R.G.Resident

Информация о фильмеНазвание: Отпетые напарникиОригинальное название: SkiptraceГод выпуска: 2016Страна: Китай, Гонконг, СШАЖанр: боевик, триллер, комедия, криминал, приключенияПеревод: Дубляж - [iTunes]Субтитры: английские (Full), английские (SDH)Продолжительность: 01:47:41Режиссер: Ренни Харлин В ролях: Джеки Чан (Bennie Chan), Джонни Ноксвил (Connor Watts), Бинбин Фань (Samatha Bai), Эрик Цан (Yung), Ив Торрес (Dasha), Уинстон Чао (Victor Wong), Ён Джон-хун (Willie), Ши Ши (Leslie), Майкл Вон (Tang), Дилан Ко (Esmond), Чжан Ланьсинь (Ting Ting), На Вэй (Officer Wu)Описание: Чтобы обезвредить преступный синдикат и спасти свою племянницу, самый честный коп должен взять в напарники красавчика-афериста. Они полные противоположности, но у них одна опасная миссия. Они в бегах, но им не избежать друг друга.Рейтинг: MPAA: PG-13 - Детям до 13 лет просмотр не желателенКачество: BDRip-AVCФормат: MKVВидео: AVC, 1024x426 (2.40:1), 2978 kbps, 23,976 fps, 0,285 bppАудио №1: русский / AC3 / 5.1 / 48 kHz / 384 kbps / Аудио №2: английский / AC3 / 5.1 / 48 kHz / 448 kbps /Навигация по главам: естьРелиз от:

ОтчетМедиаИнфо

General Unique ID : 176287461499027123802380826591704669895 (0x849FBAE750D789E28EB8427C48BC5EC7) Complete name : D:downloadSkiptrace.2016.BDRip-AVC by schultz R.G.Resident.mkv Format : Matroska Format version : Version 4 / Version 2 File size : 2.87 GiB Duration : 1 h 47 min Overall bit rate : 3 810 kb/s Encoded date : UTC 2017-03-03 09:48:56 Writing application : mkvmerge v8.9.0 ('Father Daughter') 64bit Writing library : libebml v1.3.3 + libmatroska v1.4.4

Video ID : 1 Format : AVC Format/Info : Advanced Video Codec Format profile : [email protected] Format settings, CABAC : Yes Format settings, ReFrames : 12 frames Codec ID : V_MPEG4/ISO/AVC Duration : 1 h 47 min Bit rate : 2 978 kb/s Width : 1 024 pixels Height : 426 pixels Display aspect ratio : 2.40:1 Frame rate mode : Constant Frame rate : 23.976 (23976/1000) FPS Color space : YUV Chroma subsampling : 4:2:0 Bit depth : 8 bits Scan type : Progressive Bits/(Pixel*Frame) : 0.285 Stream size : 2.24 GiB (78%) Writing library : x264 core 146 r2538 121396c Encoding settings : cabac=1 / ref=12 / deblock=1:-3:-3 / analyse=0x3:0x113 / me=umh / subme=11 / psy=1 / psy_rd=1.00:0.00 / mixed_ref=1 / me_range=48 / chroma_me=1 / trellis=2 / 8x8dct=1 / cqm=0 / deadzone=21,11 / fast_pskip=0 / chroma_qp_offset=-2 / threads=12 / lookahead_threads=3 / sliced_threads=0 / nr=0 / decimate=0 / interlaced=0 / bluray_compat=0 / constrained_intra=0 / bframes=11 / b_pyramid=2 / b_adapt=2 / b_bias=0 / direct=3 / weightb=1 / open_gop=0 / weightp=2 / keyint=240 / keyint_min=23 / scenecut=40 / intra_refresh=0 / rc_lookahead=40 / rc=2pass / mbtree=1 / bitrate=2978 / ratetol=1.0 / qcomp=0.60 / qpmin=0 / qpmax=69 / qpstep=4 / cplxblur=20.0 / qblur=0.5 / vbv_maxrate=50000 / vbv_bufsize=62500 / nal_hrd=none / filler=0 / ip_ratio=1.40 / aq=1:1.00 Language : English Default : Yes Forced : No

Audio #1 ID : 2 Format : AC-3 Format/Info : Audio Coding 3 Mode extension : CM (complete main) Format settings, Endianness : Big Codec ID : A_AC3 Duration : 1 h 47 min Bit rate mode : Constant Bit rate : 384 kb/s Channel(s) : 6 channels Channel positions : Front: L C R, Side: L R, LFE Sampling rate : 48.0 kHz Frame rate : 31.250 FPS (1536 spf) Compression mode : Lossy Stream size : 296 MiB (10%) Language : Russian Default : Yes Forced : No

Audio #2 ID : 3 Format : AC-3 Format/Info : Audio Coding 3 Mode extension : CM (complete main) Format settings, Endianness : Big Codec ID : A_AC3 Duration : 1 h 47 min Bit rate mode : Constant Bit rate : 448 kb/s Channel(s) : 6 channels Channel positions : Front: L C R, Side: L R, LFE Sampling rate : 48.0 kHz Frame rate : 31.250 FPS (1536 spf) Compression mode : Lossy Stream size : 345 MiB (12%) Language : English Default : No Forced : No

Text #1 ID : 4 Format : UTF-8 Codec ID : S_TEXT/UTF8 Codec ID/Info : UTF-8 Plain Text Duration : 1 h 42 min Bit rate : 40 b/s Count of elements : 1140 Stream size : 30.7 KiB (0%) Title : Full Language : English Default : No Forced : No

Text #2 ID : 5 Format : UTF-8 Codec ID : S_TEXT/UTF8 Codec ID/Info : UTF-8 Plain Text Duration : 1 h 46 min Bit rate : 46 b/s Count of elements : 1437 Stream size : 36.4 KiB (0%) Title : SDH Language : English Default : No Forced : No

Menu 00:00:00.000 : en:00:00:00.000 00:09:18.766 : en:00:09:18.766 00:18:41.996 : en:00:18:41.996 00:26:34.510 : en:00:26:34.510 00:33:00.562 : en:00:33:00.562 00:40:04.152 : en:00:40:04.152 00:50:07.212 : en:00:50:07.212 00:57:01.543 : en:00:57:01.543 01:04:21.649 : en:01:04:21.649 01:17:50.207 : en:01:17:50.207 01:23:58.700 : en:01:23:58.700 01:31:21.726 : en:01:31:21.726 01:39:02.812 : en:01:39:02.812 01:46:07.569 : en:01:46:07.569 01:59:48.306 : en:01:59:48.306 02:07:13.292 : en:02:07:13.292

krutor.org


Смотрите также