Плохой санта скачать торрент в хорошем качестве


Скачать фильм Плохой Санта через торрент в хорошем качестве бесплатно BDRip-AVC

piratbit.ru

Размер: 1.12 GB | Добавлен: 4 года 9 мес. назад | Торрент скачан:173 раза
Реклама Дарим 3000 рублей за регистрацию, не упусти свой шанс получить шикарный бонус!!!

31-12-2012 13:57 Плохой Санта Скачать торрент  

Плохой Санта / Bad Santa Год выпуска: 2003Страна: СШАЖанр: драма, комедия, криминалПродолжительность: 01:39:16
    Перевод:
  • Дубляж + Одноголосый закадровый (Карповский)
  • Одноголосый закадровый (Д. Пучков) [Гоблин]
Режиссер: Терри ЦвигоффПродюссер: Сара Обри, Джон Камерон, Боб ВайнштейнСценарий: Гленн Фикарра, Джон Рекуа

Мировой рейтинг IMDB 7.20 (70 233)

В ролях: Билли Боб Торнтон, Тони Кокс, Бретт Келли, Лорен Грэм, Лорен Том, Берни Мак, Джон Риттер, Аджай Найду, Лорна Скотт, Харрисон Бикер, Алексей Колган, Андрей Бархударов, Иван Витер, Мария Овчинникова, Александр Груздев

Описание: Вилли — необычный Санта-Клаус. Раз в год на Рождество он вместе со своим напарником грабит очередной универмаг. К тому же в прошлом он отсидел в тюрьме, был не единожды женат, а ныне Вилли — злостный бабник и пропойца. Он по-настоящему плохой, невыносимый Санта! Но нашелся мальчуган, который все-таки в него поверил. И Вилли придется творить настоящие чудеса, чтоб на сей раз довести задуманное до конца!

Качество: BDRip-AVCФормат: MKVВидео кодек: H.264Аудио кодек: AC3Видео: H.264, 720x390 pix., 845 Kbps, 23.976 fps, High [email protected]Аудио#1: AC3, 48.0 KHz, 384 Kbps, 6 channels, 16 bits |Дубляж + Одноголосый закадровый (Карповский)|Аудио#2: AC3, 48.0 KHz, 384 Kbps, 6 channels, 16 bits |Одноголосый закадровый (Д. Пучков) [Гоблин]|

GeneralUnique ID : 240626122501806382102233195788088638225 (0xB506E7CD10C8144C9149DD9DC2BBFB11)Complete name : D:BDRip-AVCBad Santa (2003).mkvFormat : MatroskaFormat version : Version 2File size : 1.12 GiBDuration : 1h 39mnOverall bit rate : 1 614 KbpsEncoded date : UTC 2012-12-31 13:44:21Writing application : mkvmerge v5.8.0 ('No Sleep / Pillow') built on Sep 2 2012 15:37:04Writing library : libebml v1.2.3 + libmatroska v1.3.0

VideoID : 1Format : AVCFormat/Info : Advanced Video CodecFormat profile : High [email protected] settings, CABAC : YesFormat settings, ReFrames : 15 framesCodec ID : V_MPEG4/ISO/AVCDuration : 1h 39mnBit rate : 845 KbpsWidth : 720 pixelsHeight : 390 pixelsDisplay aspect ratio : 1.85:1Frame rate mode : ConstantFrame rate : 23.976 fpsColor space : YUVChroma subsampling : 4:2:0Bit depth : 10 bitsScan type : ProgressiveBits/(Pixel*Frame) : 0.126Stream size : 578 MiB (50%)Writing library : x264 core 129 r2230+696+35 805d074 tMod [[email protected] X86_64]Encoding settings : cabac=1 / ref=15 / deblock=1:-3:-3 / analyse=0x3:0x133 / me=tesa / subme=11 / psy=1 / fade_compensate=0.00 / psy_rd=1.00:0.15 / mixed_ref=1 / me_range=32 / chroma_me=1 / trellis=2 / 8x8dct=1 / cqm=0 / deadzone=21,11 / fast_pskip=1 / chroma_qp_offset=-3 / threads=6 / lookahead_threads=1 / sliced_threads=0 / nr=0 / decimate=1 / interlaced=0 / bluray_compat=0 / constrained_intra=0 / fgo=0 / bframes=10 / b_pyramid=2 / b_adapt=2 / b_bias=0 / direct=2 / weightb=1 / open_gop=0 / weightp=1 / keyint=240 / keyint_min=25 / scenecut=40 / intra_refresh=0 / rc_lookahead=60 / rc=2pass / mbtree=1 / bitrate=845 / ratetol=1.0 / qcomp=0.60 / qpmin=0 / qpmax=81 / qpstep=4 / cplxblur=20.0 / qblur=0.5 / ip_ratio=1.40 / aq=1:1.00Language : EnglishDefault : YesForced : NoColor primaries : BT.709Transfer characteristics : BT.709Matrix coefficients : BT.709

Audio #1ID : 2Format : AC-3Format/Info : Audio Coding 3Mode extension : CM (complete main)Format settings, Endianness : BigCodec ID : A_AC3Duration : 1h 39mnBit rate mode : ConstantBit rate : 384 KbpsChannel(s) : 6 channelsChannel positions : Front: L C R, Side: L R, LFESampling rate : 48.0 KHzBit depth : 16 bitsCompression mode : LossyStream size : 273 MiB (24%)Title : Дубляж + Одноголосый закадровый (Карповский)Language : RussianDefault : YesForced : No

Audio #2ID : 3Format : AC-3Format/Info : Audio Coding 3Mode extension : CM (complete main)Format settings, Endianness : BigCodec ID : A_AC3Duration : 1h 39mnBit rate mode : ConstantBit rate : 384 KbpsChannel(s) : 6 channelsChannel positions : Front: L C R, Side: L R, LFESampling rate : 48.0 KHzBit depth : 16 bitsCompression mode : LossyStream size : 273 MiB (24%)Title : Одноголосый закадровый (Д. Пучков) [Гоблин]Language : RussianDefault : NoForced : No

Скачать Плохой Санта через торрент http://s41.radikal.ru/i093/1212/13/99b1d672ab86.png Скачать фильм Плохой Санта через торрент бесплантно в хорошем качестве Описание: Вилли — необычный Санта-Клаус. Раз в год на Рождество он вместе со своим напарником грабит очередной универмаг. К тому же в ... 2012-12-31 13:57 10 10 3

Loading...

Loading...

% Раздел Тема Автор DL S | L
Ultra HD (UHD: 2K, 4K, 8K) — видео сверхвысокой чёткости [ 27.75 GB ] Плохой Санта 2 / Bad Santa 2 [2016 UHD WEBRip 2160p] [UNRATED] DUB+AVO bober100 Скачать
Фильмы без перевода [ 26.53 GB ] Плохой Санта 2 / Bad Santa 2 [2016 BD Remux] [Оригинал-ENG Spanish] smaster Скачать
Фильмы 2016 [DVDrip, WEB-DLRip, HDrip] (DUB, MVO) [ 1.42 GB ] Плохой Санта 2 / Bad Santa 2 [2016 BDRip] - Twi7ter Скачать
Фильмы 2016 [DVDrip, WEB-DLRip, HDrip] (DUB, MVO) [ 1.42 GB ] Плохой Санта 2 / Bad Santa 2 [2016 BDRip] - Twi7ter Скачать
R.G.Resident - Фильмы, Видео [ 2.37 GB ] Плохой Санта 2 / Bad Santa 2 [2016 BDRip-AVC ] - + AVO [Дмитрий «Гоблин» Пучков] schultz Скачать
Фильмы 2016 [DVDrip, WEB-DLRip, HDrip] (DUB, MVO) [ 1.37 GB ] Плохой Санта 2 / Bad Santa 2 [2016 WEB-DLRip ] Ворон Скачать
Фильмы (WEB-DL 720p, 1080p) [ 3.8 GB ] Плохой Санта 2 / Bad Santa 2 [2016 WEB-DL 1080p] + [AVO] Пучков + [Ukr DUB] killermax2013 Скачать

Рекламный пират

31-12-2012 14:52 Плохой Санта Скачать торрент  

каждый год по традиции перед нг смотрю его))

31-12-2012 15:16 Плохой Санта Скачать торрент  

Четкий фильм, особенно в этом переводе)) Спасибо за раздачу! Скорости бы...

31-12-2012 15:31 Плохой Санта Скачать торрент  

классика жанра!!!

Дорогой пользователь! Огромная просьба, поблагодарите релизера, оцените раздачу и оставьте свои комментарий, если Вы скачали Плохой Санта через торрент бесплатно! Внесите свою лепту в развитие PiratBit!

Комментировать посты могут только пользователи прошедшие не сложную регистрацию

Плохой Санта через торрент Скачать бесплатно Плохой Санта Плохой Санта скачать торрент Плохой Санта смотреть онлайн Cкачать фильм Плохой Санта бесплатно Плохой Санта скачать торрент в хорошем качестве Плохой Санта смотреть онлайн бесплатно в хорошем качестве

Вы не можете начинать темыВы не можете отвечать на сообщенияВы не можете редактировать свои сообщенияВы не можете удалять свои сообщенияВы не можете голосовать в опросахВы не можете прикреплять файлы к сообщениямВы можете скачивать файлы

Скачать фильм Плохой Санта через торрент в хорошем качестве бесплатно DVDRip

piratbit.ru

Размер: 1.55 GB | Добавлен: 5 лет 11 мес. назад | Торрент скачан:445 раз
Реклама Дарим 3000 рублей за регистрацию, не упусти свой шанс получить шикарный бонус!!!

10-11-2011 17:43 Плохой Санта Скачать торрент  

Плохой Санта (Режиссерская Расширенная Версия) / Bad Santa (Extended Unrated Cut)ஜ═════════════════════════════ஜ۩۞۩ஜ══════════════════════════════ஜ Год выпуска: 2003Страна: Германия,СШАЖанр: Комедия, Драма, КриминалПродолжительность: 01:42:34Перевод: Любительский (Гоблинa)Режиссер: Терри ЦвигоффПродюссер: Сара Обри, Джон Камерон, Боб ВайнштейнСценарий: Гленн Фикарра, Джон РекуаБюджет: $23 000 000Премьера в мире: 26 ноября 2003В ролях: Билли Боб Торнтон, Тони Кокс, Бретт Келли, Лорен Грэм, Лоурен Том, Берни Мак, Джон Риттер, Аджай Найду, Лорна Скотт, Харрисон Бикер

Описание: Вилли - необычный Санта-Клаус. Раз в год на Рождество он вместе со своим напарником грабит очередной универмаг. К тому же в прошлом он отсидел в тюрьме, был не единожды женат, а ныне Вилли - злостный бабник и пропойца. Он по-настоящему плохой, невыносимый Санта! Но нашелся мальчуган, который все-таки в него поверил. И Вилли придется творить настоящие чудеса, чтоб на сей раз довести задуманное до конца!

Качество: DVDRipФормат: AVIВидео кодек: XviDАудио кодек: AC3Видео: 720x384 (1.875:1), 29.970 fps, XviD build 43 ~1894 kbps avg, 0.18 bit/pixelАудио: 44.100 kHz, Dolby AC3, 2 ch, ~255.00 kbps avgРелиз от: Trustஜ═════════════════════════════ஜ۩۞۩ஜ══════════════════════════════ஜ

Расширенная версия была получена путем врезания удаленных и расширенных сцен на свои места. К счастью, данные эпизоды были озвучены двухголосым (мужским и женским голосами) переводом.Было вставлено 2 удаленные сцены (общей продолжительностью ~3-4 минуты):1) Уроки-обучение для Санта Клаусов.2) Пьяный Санта и ребенок.

Бонус: вместо титров идут смешные дубли. Все остальные сцены взяты из раскупоренной версии."

Скачать Плохой Санта через торрент http://s11.radikal.ru/i183/1008/c2/a70004b7fa22.jpg Скачать фильм Плохой Санта через торрент бесплантно в хорошем качестве Описание: Вилли - необычный Санта-Клаус. Раз в год на Рождество он вместе со своим напарником грабит очередной универмаг. К тому же в ... 2011-11-10 17:43 10 10 5

Loading...

Loading...

% Раздел Тема Автор DL S | L
Ultra HD (UHD: 2K, 4K, 8K) — видео сверхвысокой чёткости [ 27.75 GB ] Плохой Санта 2 / Bad Santa 2 [2016 UHD WEBRip 2160p] [UNRATED] DUB+AVO bober100 Скачать
Фильмы без перевода [ 26.53 GB ] Плохой Санта 2 / Bad Santa 2 [2016 BD Remux] [Оригинал-ENG Spanish] smaster Скачать
Фильмы 2016 [DVDrip, WEB-DLRip, HDrip] (DUB, MVO) [ 1.42 GB ] Плохой Санта 2 / Bad Santa 2 [2016 BDRip] - Twi7ter Скачать
Фильмы 2016 [DVDrip, WEB-DLRip, HDrip] (DUB, MVO) [ 1.42 GB ] Плохой Санта 2 / Bad Santa 2 [2016 BDRip] - Twi7ter Скачать
R.G.Resident - Фильмы, Видео [ 2.37 GB ] Плохой Санта 2 / Bad Santa 2 [2016 BDRip-AVC ] - + AVO [Дмитрий «Гоблин» Пучков] schultz Скачать
Фильмы 2016 [DVDrip, WEB-DLRip, HDrip] (DUB, MVO) [ 1.37 GB ] Плохой Санта 2 / Bad Santa 2 [2016 WEB-DLRip ] Ворон Скачать
Фильмы (WEB-DL 720p, 1080p) [ 3.8 GB ] Плохой Санта 2 / Bad Santa 2 [2016 WEB-DL 1080p] + [AVO] Пучков + [Ukr DUB] killermax2013 Скачать

Рекламный пират

10-11-2011 18:25 Плохой Санта Скачать торрент  

Беременным лучше не смотреть.

10-11-2011 19:11 Плохой Санта Скачать торрент  

Фильм просто УГАР!!!))) Ржал до слез, круть!!!

27-02-2012 05:56 Плохой Санта Скачать торрент  

дайте скорости

Дорогой пользователь! Огромная просьба, поблагодарите релизера, оцените раздачу и оставьте свои комментарий, если Вы скачали Плохой Санта через торрент бесплатно! Внесите свою лепту в развитие PiratBit!

Комментировать посты могут только пользователи прошедшие не сложную регистрацию

Плохой Санта через торрент Скачать бесплатно Плохой Санта Плохой Санта скачать торрент Плохой Санта смотреть онлайн Cкачать фильм Плохой Санта бесплатно Плохой Санта скачать торрент в хорошем качестве Плохой Санта смотреть онлайн бесплатно в хорошем качестве

Вы не можете начинать темыВы не можете отвечать на сообщенияВы не можете редактировать свои сообщенияВы не можете удалять свои сообщенияВы не можете голосовать в опросахВы не можете прикреплять файлы к сообщениямВы можете скачивать файлы

Скачать фильм Плохой Санта через торрент в хорошем качестве бесплатно 720p

ОбщееУникальный идентификатор : 221719521309150158991962222627137124148 (0xA6CDA0648FCAE6ABBDDD12589E35F734)Полное имя : D:RipПлохой СантаBad_Santa.mkvФормат : MatroskaРазмер файла : 4,44 ГбайтПродолжительность : 1 ч. 39 м.Общий поток : 6396 Кбит/секНазвание фильма : ДрюДата кодирования : UTC 2013-06-20 14:30:01Программа кодирования : mkvmerge v4.6.0 ('Still Crazy After All These Years') сборка от Mar 10 2011 02:50:32Библиотека кодирования : libebml v1.2.0 + libmatroska v1.1.0

ВидеоИдентификатор : 1Формат : AVCФормат/Информация : Advanced Video CodecПрофиль формата : [email protected]Параметр CABAC формата : ДаПараметр ReFrames формата : 2 кадраИдентификатор кодека : V_MPEG4/ISO/AVCПродолжительность : 1 ч. 39 м.Битрейт : 5500 Кбит/секШирина : 1280 пикс.Высота : 720 пикс.Соотношение сторон : 16:9Соотношение сторон в оригинале : 16:9Режим частоты кадров : ПеременныйЧастота кадров : 23,976 кадр/секЦветовое пространство : YUVПодвыборка цветности : 4:2:0Битовая глубина : 8 битТип развёртки : ПрогрессивнаяБит/(Пиксели*Кадры) : 0.249Размер потока : 3,73 Гбайт (84%)Библиотека кодирования : x264 core 130 r2273Настройки программы : cabac=1 / ref=2 / deblock=1:-1:-1 / analyse=0x3:0x133 / me=hex / subme=7 / psy=1 / psy_rd=1.00:0.10 / mixed_ref=0 / me_range=16 / chroma_me=1 / trellis=1 / 8x8dct=1 / cqm=0 / deadzone=21,11 / fast_pskip=1 / chroma_qp_offset=-3 / threads=6 / lookahead_threads=1 / sliced_threads=0 / nr=0 / decimate=1 / interlaced=0 / bluray_compat=0 / constrained_intra=0 / bframes=3 / b_pyramid=0 / b_adapt=1 / b_bias=0 / direct=3 / weightb=1 / open_gop=0 / weightp=2 / keyint=230 / keyint_min=23 / scenecut=40 / intra_refresh=0 / rc_lookahead=40 / rc=2pass / mbtree=1 / bitrate=5500 / ratetol=1.0 / qcomp=0.60 / qpmin=10 / qpmax=69 / qpstep=4 / cplxblur=20.0 / qblur=0.5 / vbv_maxrate=24000 / vbv_bufsize=24000 / nal_hrd=none / ip_ratio=1.40 / aq=1:1.00Язык : Russian

Аудио #1Идентификатор : 2Формат : AC-3Формат/Информация : Audio Coding 3Расширение режима : CM (complete main)Идентификатор кодека : A_AC3Продолжительность : 1 ч. 39 м.Вид битрейта : ПостоянныйБитрейт : 448 Кбит/секКаналы : 6 каналовРасположение каналов : Front: L C R, Side: L R, LFEЧастота : 48,0 КГцБитовая глубина : 16 битМетод сжатия : С потерямиРазмер потока : 318 Мбайт (7%)Заголовок : DUBЯзык : Russian

Аудио #2Идентификатор : 3Формат : AC-3Формат/Информация : Audio Coding 3Расширение режима : CM (complete main)Идентификатор кодека : A_AC3Продолжительность : 1 ч. 39 м.Вид битрейта : ПостоянныйБитрейт : 448 Кбит/секКаналы : 6 каналовРасположение каналов : Front: L C R, Side: L R, LFEЧастота : 48,0 КГцБитовая глубина : 16 битМетод сжатия : С потерямиРазмер потока : 318 Мбайт (7%)Заголовок : GoblinЯзык : Russian

Меню00:00:00.000 : en:Christmas in Milwaukee00:07:51.971 : en:Down Time00:10:20.036 : en:"#%&^ Stick?"00:19:56.069 : en:"What D'you Want?"00:24:26.006 : en:"Prove It"00:32:01.711 : en:"Is Granny Spry?"00:40:48.279 : en:Keeping a Low Profile00:46:40.964 : en:Santa's New Hid Out00:52:33.149 : en:Lunch Break01:01:36.776 : en:"Wanna Play Again"01:04:23.568 : en:"That's Gonna Sting a Little"01:11:36.166 : en:"He's Clean"01:16:28.375 : en:Negotiating01:22:19.726 : en:Turning a Corner?01:26:48.828 : en:The Wooden Pickle01:32:42.390 : en:Last-Minute Adjustments

piratbit.ru

Скачать фильм Плохой Санта через торрент в хорошем качестве бесплатно BDRip-AVC

GeneralUnique ID : 217603803310034114565757595766228688338 (0xA3B4F7D4239691EC828A2E28865A9DD2)Complete name : D:\Плохой Санта BDRip-AVC 60fps R.G. HD-Films.mkvFormat : MatroskaFormat version : Version 4 / Version 2File size : 3.64 GiBDuration : 1h 39mnOverall bit rate : 5 248 KbpsMovie name : Tiberiumsun69Encoded date : UTC 2015-12-31 07:04:38Writing application : mkvmerge v8.3.0 ('Over the Horizon') 64bitWriting library : libebml v1.3.1 + libmatroska v1.4.2Attachment : Yes

VideoID : 1Format : AVCFormat/Info : Advanced Video CodecFormat profile : [email protected] settings, CABAC : YesFormat settings, ReFrames : 4 framesCodec ID : V_MPEG4/ISO/AVCDuration : 1h 39mnBit rate : 4 600 KbpsWidth : 1 024 pixelsHeight : 552 pixelsDisplay aspect ratio : 1.855Frame rate : 59.940 fpsColor space : YUVChroma subsampling : 4:2:0Bit depth : 8 bitsScan type : ProgressiveBits/(Pixel*Frame) : 0.136Stream size : 3.12 GiB (86%)Title : Tiberiumsun69Writing library : x264 core 146 r2538 121396cEncoding settings : cabac=1 / ref=3 / deblock=1:0:0 / analyse=0x3:0x113 / me=umh / subme=9 / psy=1 / psy_rd=1.00:0.10 / mixed_ref=1 / me_range=32 / chroma_me=1 / trellis=2 / 8x8dct=1 / cqm=0 / deadzone=21,11 / fast_pskip=0 / chroma_qp_offset=-3 / threads=12 / lookahead_threads=3 / sliced_threads=0 / nr=0 / decimate=1 / interlaced=0 / bluray_compat=0 / constrained_intra=0 / bframes=16 / b_pyramid=2 / b_adapt=2 / b_bias=0 / direct=3 / weightb=1 / open_gop=0 / weightp=2 / keyint=250 / keyint_min=25 / scenecut=40 / intra_refresh=0 / rc_lookahead=40 / rc=2pass / mbtree=0 / bitrate=4600 / ratetol=1.0 / qcomp=0.60 / qpmin=0 / qpmax=69 / qpstep=4 / cplxblur=20.0 / qblur=0.5 / vbv_maxrate=14000 / vbv_bufsize=14000 / nal_hrd=none / filler=0 / ip_ratio=1.40 / pb_ratio=1.30 / aq=1:1.00Language : EnglishDefault : YesForced : No

AudioID : 2Format : AC-3Format/Info : Audio Coding 3Mode extension : CM (complete main)Codec ID : A_AC3Duration : 1h 39mnBit rate mode : ConstantBit rate : 640 KbpsChannel(s) : 6 channelsChannel positions : Front: L C R, Side: L R, LFESampling rate : 48.0 KHzBit depth : 16 bitsCompression mode : LossyStream size : 454 MiB (12%)Title : ДубляжLanguage : RussianDefault : YesForced : No

Text #1ID : 3Format : UTF-8Codec ID : S_TEXT/UTF8Codec ID/Info : UTF-8 Plain TextTitle : ФорсированныеLanguage : RussianDefault : YesForced : No

Text #2ID : 4Format : UTF-8Codec ID : S_TEXT/UTF8Codec ID/Info : UTF-8 Plain TextTitle : ПолныеLanguage : RussianDefault : NoForced : No

Text #3ID : 5Format : UTF-8Codec ID : S_TEXT/UTF8Codec ID/Info : UTF-8 Plain TextTitle : ПолныеLanguage : EnglishDefault : NoForced : No

Menu00:00:00.000 : en:Christmas in Milwaukee00:07:51.971 : en:Down Time00:10:20.036 : en:"#%&^ Stick?"00:19:56.069 : en:"What D'you Want?"00:24:26.006 : en:"Prove It"00:32:01.711 : en:"Is Granny Spry?"00:40:48.279 : en:Keeping a Low Profile00:46:40.964 : en:Santa's New Hid Out00:52:33.149 : en:Lunch Break01:01:36.776 : en:"Wanna Play Again"01:04:23.568 : en:"That's Gonna Sting a Little"01:11:36.166 : en:"He's Clean"01:16:28.375 : en:Negotiating01:22:19.726 : en:Turning a Corner?01:26:48.828 : en:The Wooden Pickle01:32:42.390 : en:Last-Minute Adjustments

piratbit.ru

Скачать фильм Плохой Санта 2 через торрент в хорошем качестве бесплатно 1080p

piratbit.ru

Раздают: 14 [ 0 KB/s ]
Размер: 3.8 GB | Добавлен: 9 мес. назад | Торрент скачан:1032 раза
Реклама Дарим 3000 рублей за регистрацию, не упусти свой шанс получить шикарный бонус!!!

22-01-2017 07:40 Плохой Санта 2 Скачать торрент  

Плохой Санта 2 / Bad Santa 2 Год выпуска: 2016Страна: СШАЖанр: комедияПродолжительность: 01:28:28Перевод 1: Профессиональный (дублированный) [Лицензия iTunes] Перевод 2: Одноголосый (авторский) [Д.Пучков aka Гоблин] [Без Цензуры!!!] Перевод 3: Профессиональный (дублированный) [MEGOGO] - украинскийCубтитры: нет

Режиссер: Марк Уотерс

В ролях: Билли Боб Торнтон, Кэти Бэйтс, Тони Кокс, Кристина Хендрикс, Бретт Келли, Райан Хансен, Дженни Зигрино, Джефф Скоурон, Кристина Розато, Майк Старр

Описание: Продолжение новогодних приключений проходимца Вилли, который в канун Рождества, как всегда, переодевается в Санта-Клауса. Ограбить очередной супермаркет в этом наряде не представляет никаких проблем. Но в Рождество случаются всякие чудеса. Каким оно будет для Вилли на этот раз?

Качество видео: WEB-DL [1080p]Формат видео: MKVВидео: MPEG-4 AVC Video ~5.1 Mbps 1920x1038 / 25 fps / 1.85:1 / High Profile 4.1Аудио 1: Русский: 48 kHz, AC3 Dolby Digital, 3/2 (L,C,R,l,r) + LFE ch, ~384 kbps | Thx HDClubАудио 2: Русский: 48 kHz, AC3 Dolby Digital, 3/2 (L,C,R,l,r) + LFE ch, ~384 kbpsАудио 3: Украинский: 48 kHz, AC3 Dolby Digital, 2.0 (L,R), ~ 192 Кбит/с | Thx Hurtom

Релиз-- &

Unique ID : 197102117565159509698636954463420319893 (0x94487CAE228784D697D04A56040C8895)Complete name : E:\sources\Bad.Santa.2.2016.1080p.WEB-DL.DD5.1.x264 -TNClub.mkvFormat : MatroskaFormat version : Version 4 / Version 2File size : 3.80 GiBDuration : 1 h 28 minOverall bit rate : 6 145 kb/sMovie name : Bad.Santa.2.2016.1080p.WEB-DL.DD5.1.x264 -TNClubEncoded date : UTC 2017-01-22 05:43:27Writing application : mkvmerge v8.2.0 ('World of Adventure') 64bitWriting library : libebml v1.3.1 + libmatroska v1.4.2Cover : YesAttachments : cover.png

VideoID : 1Format : AVCFormat/Info : Advanced Video CodecFormat profile : [email protected] settings, CABAC : YesFormat settings, ReFrames : 4 framesCodec ID : V_MPEG4/ISO/AVCDuration : 1 h 28 minBit rate : 5 182 kb/sWidth : 1 920 pixelsHeight : 1 038 pixelsDisplay aspect ratio : 1.85:1Frame rate mode : ConstantFrame rate : 25.000 FPSColor space : YUVChroma subsampling : 4:2:0Bit depth : 8 bitsScan type : ProgressiveBits/(Pixel*Frame) : 0.104Stream size : 3.20 GiB (84%)Title : Bad.Santa.2.2016.1080p.WEB-DL.DD5.1.x264 -TNClubLanguage : EnglishDefault : YesForced : NoColor range : LimitedColor primaries : BT.709Transfer characteristics : BT.709Matrix coefficients : BT.709

Audio #1ID : 2Format : AC-3Format/Info : Audio Coding 3Mode extension : CM (complete main)Format settings, Endianness : BigCodec ID : A_AC3Duration : 1 h 28 minBit rate mode : ConstantBit rate : 384 kb/sChannel(s) : 6 channelsChannel positions : Front: L C R, Side: L R, LFESampling rate : 48.0 kHzFrame rate : 31.250 FPS (1536 spf)Bit depth : 16 bitsCompression mode : LossyStream size : 243 MiB (6%)Title : [email protected] kbps - DUB iTunesLanguage : RussianDefault : YesForced : No

Audio #2ID : 3Format : AC-3Format/Info : Audio Coding 3Mode extension : CM (complete main)Format settings, Endianness : BigCodec ID : A_AC3Duration : 1 h 28 minBit rate mode : ConstantBit rate : 384 kb/sChannel(s) : 6 channelsChannel positions : Front: L C R, Side: L R, LFESampling rate : 48.0 kHzFrame rate : 31.250 FPS (1536 spf)Bit depth : 16 bitsCompression mode : LossyStream size : 243 MiB (6%)Title : [email protected] kbps - ГоблинLanguage : RussianDefault : NoForced : No

Audio #3ID : 4Format : AC-3Format/Info : Audio Coding 3Mode extension : CM (complete main)Format settings, Endianness : BigCodec ID : A_AC3Duration : 1 h 28 minBit rate mode : ConstantBit rate : 192 kb/sChannel(s) : 2 channelsChannel positions : Front: L RSampling rate : 48.0 kHzFrame rate : 31.250 FPS (1536 spf)Bit depth : 16 bitsCompression mode : LossyStream size : 122 MiB (3%)Title : [email protected] : UkrainianDefault : NoForced : No

Menu00:00:00.000 : en:100:07:29.200 : en:200:14:11.040 : en:300:21:25.560 : en:400:27:56.360 : en:500:35:03.440 : en:600:41:13.440 : en:700:47:36.440 : en:800:53:49.560 : en:901:00:49.920 : en:1001:07:50.200 : en:1101:14:27.920 : en:12

Скачать Плохой Санта 2 через торрент http://i91.fastpic.ru/big/2017/0122/af/c6146e56576c3b1d0126e1222cc481af.png Скачать фильм Плохой Санта 2 через торрент бесплантно в хорошем качестве Описание: Продолжение новогодних приключений проходимца Вилли, который в канун Рождества, как всегда, переодевается в Санта-Клауса. ... 2017-01-22 07:40 9.4 10 23

Loading...

Loading...

% Раздел Тема Автор DL S | L
Ultra HD (UHD: 2K, 4K, 8K) — видео сверхвысокой чёткости [ 27.75 GB ] Плохой Санта 2 / Bad Santa 2 [2016 UHD WEBRip 2160p] [UNRATED] DUB+AVO bober100 Скачать
Фильмы без перевода [ 26.53 GB ] Плохой Санта 2 / Bad Santa 2 [2016 BD Remux] [Оригинал-ENG Spanish] smaster Скачать
Фильмы 2016 [DVDrip, WEB-DLRip, HDrip] (DUB, MVO) [ 1.42 GB ] Плохой Санта 2 / Bad Santa 2 [2016 BDRip] - Twi7ter Скачать
Фильмы 2016 [DVDrip, WEB-DLRip, HDrip] (DUB, MVO) [ 1.42 GB ] Плохой Санта 2 / Bad Santa 2 [2016 BDRip] - Twi7ter Скачать
R.G.Resident - Фильмы, Видео [ 2.37 GB ] Плохой Санта 2 / Bad Santa 2 [2016 BDRip-AVC ] - + AVO [Дмитрий «Гоблин» Пучков] schultz Скачать
Фильмы 2016 [DVDrip, WEB-DLRip, HDrip] (DUB, MVO) [ 1.37 GB ] Плохой Санта 2 / Bad Santa 2 [2016 WEB-DLRip ] Ворон Скачать
T Фильмы 2016 [DVDrip, WEB-DLRip, HDrip] (DUB, MVO) [ 740 MB ] Плохой Санта 2 Гоблин / Bad Santa 2 [2016 Гоблин WEB-DLRip] [AVO] sheker187 Скачать

Последний раз редактировалось: killermax2013 (2017-01-22 10:46), всего редактировалось 1 раз

Рекламный пират

22-01-2017 08:35 Плохой Санта 2 Скачать торрент  

забираем в коллекцию-спасибо

22-01-2017 09:56 Плохой Санта 2 Скачать торрент  

А с гоблином то стоит пересматривать ? а то он уже лет 10 ничего смешного не выдавал

22-01-2017 10:44 Плохой Санта 2 Скачать торрент  

Цитата:

в переводе Пучкова мат без цензуры

22-01-2017 11:03 Плохой Санта 2 Скачать торрент  

GuruBrain писал(а):

А с гоблином то стоит пересматривать ? а то он уже лет 10 ничего смешного не выдавал

Без Гоблина вообще этот фильм смотреть не имеет смысла

22-01-2017 11:20 Плохой Санта 2 Скачать торрент  

puer писал(а):

GuruBrain писал(а):

А с гоблином то стоит пересматривать ? а то он уже лет 10 ничего смешного не выдавал

Без Гоблина вообще этот фильм смотреть не имеет смысла+1

22-01-2017 17:07 Плохой Санта 2 Скачать торрент  

подскажите, перевод гоблина из кинотеатра запись? или нормальный

22-01-2017 17:20 Плохой Санта 2 Скачать торрент  

Rashby писал(а):

подскажите, перевод гоблина из кинотеатра запись? или нормальный

нормальный

22-01-2017 23:05 Плохой Санта 2 Скачать торрент  

Перевод гоблина шикарен. Спасибо

Pекламный агент PB

25-01-2017 17:27 Плохой Санта 2 Скачать торрент  

Ну вот, совсем другое дело. Спасибо дорогой!

26-01-2017 09:15 Плохой Санта 2 Скачать торрент  

puer писал(а):

GuruBrain писал(а):

А с гоблином то стоит пересматривать ? а то он уже лет 10 ничего смешного не выдавал

Без Гоблина вообще этот фильм смотреть не имеет смыслаДа и с ним тоже

31-01-2017 15:20 Плохой Санта 2 Скачать торрент  

а стоит ли в дубляже смотреть фильмы , где мошонку суют в рот (и весь фильм из этого состоит) так что тут весь смысл не ходить с детьми в кинотеатр , а лопать пиво и угорать .

Дорогой пользователь! Огромная просьба, поблагодарите релизера, оцените раздачу и оставьте свои комментарий, если Вы скачали Плохой Санта 2 через торрент бесплатно! Внесите свою лепту в развитие PiratBit!

Комментировать посты могут только пользователи прошедшие не сложную регистрацию

Плохой Санта 2 через торрент Скачать бесплатно Плохой Санта 2 Плохой Санта 2 скачать торрент Плохой Санта 2 смотреть онлайн Cкачать фильм Плохой Санта 2 бесплатно Плохой Санта 2 скачать торрент в хорошем качестве Плохой Санта 2 смотреть онлайн бесплатно в хорошем качестве

Вы не можете начинать темыВы не можете отвечать на сообщенияВы не можете редактировать свои сообщенияВы не можете удалять свои сообщенияВы не можете голосовать в опросахВы не можете прикреплять файлы к сообщениямВы можете скачивать файлы

Плохой Санта 2003 - скачать бесплатно через торрент в хорошем качестве. Без регистрации

www.kinovit.net

Название: Плохой Санта / Bad Santa (2006) HDRip от Scarabey | D
Качество видео: HDRip
Перевод: Профессиональный (полное дублирование) [Лицензия]
Видео: 704x384 (1.83:1), 23.976 fps, XviD build 73 ~1628 kbps avg, 0.25 bit/pixel
Аудио: 48 kHz, AC3 Dolby Digital, 3/2 (L,C,R,l,r) + LFE ch, ~448 kbps
Скачать

Загрузка начнется в течение 5 сек.

1.45 GB

Название: Плохой Санта / Bad Santa (2003) BDRip-AVC | D | Расширенная версия
Качество видео: BDRip-AVC (Исх: BDRemux 1080p)
Перевод: Дублированный
Видео: x264 744x402 (1,85:1), 23,976 fps, x264 ~1016 kbps avg, 0.142 bit/pixel
Аудио: 48 kHz, AAC-HE, 2 ch, Front: L R ~72 kbps avg
Скачать

Загрузка начнется в течение 5 сек.

745.06 MB

Название: Плохой Санта / Bad Santa (2003) BDRip-AVC от MediaClub | D, A | Расширенная версия
Качество видео: BDRip-AVC
Перевод: Дублированный, авторский одноголосый, украинский
Видео: MPEG-4 AVC 2110 Кбит/с, 1024х556, 23.976 кадр/с
Аудио: Русский (AC3, 6 ch, 448 Кбит/с) / Авторский одноголосый (Д. Пучков)Русский (AC3, 6 ch, 384 Кбит/с) / Авторский одноголосый (Я. Бельман)Русский (AC3, 6 ch, 448 Кбит/с) / Авторский одноголосый (А. Карповский)Украинский (AC3, 6 ch, 448 Кбит/с) / Профессиональный двухголосый (1+1)Английский (AC3, 6 ch, 448 Кбит/с)
Скачать

Загрузка начнется в течение 5 сек.

3.28 GB

Название: Плохой Санта / Bad Santa (2003) BDRip 720p от MediaClub | D, A | Расширенная версия
Качество видео: BDRip 720p
Перевод: Дублированный, авторский одноголосый, украинский
Видео: MPEG-4 AVC 4345 Кбит/с, 1280х694, 23.976 кадр/с
Аудио: Русский (AC3, 6 ch, 448 Кбит/с) / Авторский одноголосый (Д. Пучков)Русский (AC3, 6 ch, 384 Кбит/с) / Авторский одноголосый (Я. Бельман)Русский (AC3, 6 ch, 448 Кбит/с) / Авторский одноголосый (А. Карповский)Украинский (AC3, 6 ch, 448 Кбит/с) / Профессиональный двухголосый (1+1)Английский (AC3, 6 ch, 448 Кбит/с)
Скачать

Загрузка начнется в течение 5 сек.

4.83 GB

Название: Плохой Санта / Bad Santa (2003) BDRip 1080p от MediaClub | D, A | Расширенная версия
Качество видео: BDRip 1080p
Перевод: Дублированный, авторский одноголосый, украинский
Видео: MPEG-4 AVC 9390 Кбит/с, 1920х1042, 23.976 кадр/с
Аудио: Русский (DTS, 6 ch, 1510 Кбит/с) / Авторский одноголосый (Д. Пучков)Русский (AC3, 6 ch, 384 Кбит/с) / Авторский одноголосый (Я. Бельман)Русский (AC3, 6 ch, 448 Кбит/с) / Авторский одноголосый (А. Карповский)Украинский (AC3, 6 ch, 448 Кбит/с) / Профессиональный двухголосый (1+1)Английский (DTS, 6 ch, 1510 Кбит/с)
Скачать

Загрузка начнется в течение 5 сек.

10.02 GB

Название: Плохой Санта / Bad Santa (2003) BDRip от New-Team | Гоблин
Качество видео: BDRip - Исходник BDRemux 1080p
Перевод: Авторский (одноголосый закадровый) Гоблин
Видео: XviD 656x352 (1.86:1), 23.976 fps, XviD build 73 ~910 kbps avg, 0.16 bit/pixel
Аудио: MP3 48 kHz, MPEG Layer 3, 2 ch, ~128.00 kbps avg
Скачать

Загрузка начнется в течение 5 сек.

744.13 MB

Название: Плохой Санта / Bad Santa (2003) BDRip от New-Team | Гоблин
Качество видео: BDRip - Исходник BDRemux 1080p
Перевод: Авторский (одноголосый закадровый) Гоблин
Видео: XviD 704x384 (1.83:1), 23.976 fps, XviD build 73 ~1710 kbps avg, 0.26 bit/pixel
Аудио: AC3 48 kHz, AC3 Dolby Digital, 3/2 (L,C,R,l,r) + LFE ch, ~384 kbps
Скачать

Загрузка начнется в течение 5 сек.

1.46 GB

Название: Плохой Санта / Bad Santa (2003) BDRip-AVC [Hi10P] от FREEISLAND
Качество видео: BDRip-AVC
Формат видео: MKV
Видео: H.264 H.264, 720x390 pix., 845 Kbps, 23.976 fps, High [email protected]
Аудио: AC3 AC3AC3, 48.0 KHz, 384 Kbps, 6 channels, 16 bits |Дубляж + Одноголосый закадровый (Карповский)|AC3, 48.0 KHz, 384 Kbps, 6 channels, 16 bits |Одноголосый закадровый (Д. Пучков) [Гоблин]|
Скачать

Загрузка начнется в течение 5 сек.

1.12 GB

Название: Плохой Санта / Bad Santa (2003) BDRip 1080p - Generalfilm | Расширенная версия
Качество видео: BDRip 1080р (рип с Blu-Ray (1080p)
Перевод: Дублированный, авторский одноголосый (Гоблин Дмитрий Пучков (ненормативная лексика)
Видео: x264 1920х1080 5402 кб/с
Аудио: AC3,6 ch, 448 кб/с
Скачать

Загрузка начнется в течение 5 сек.

4.37 GB

Название: Плохой Санта / Bad Santa (2003) BDRip 1080p | Гоблин | Режиссерская версия
Качество видео: BDRip 1080p1080
Перевод: Авторский одноголосый |Гоблин|
Видео: h364 1920x1080, 23.976 fps, 5496kbpps
Аудио: AC3, 5.1, 640kbps
Скачать

Загрузка начнется в течение 5 сек.

4.25 GB

Название: Плохой Санта / Bad Santa (2003) WEB-DLRip от HELLYWOOD | Театральная версия / Theatrical Cut
Качество видео: WEB-DLRip (источник: HDClub /WEB-DL/ 720p)
Перевод: Дубляж + Одноголосый закадровый |Дмитрий Пучков aka Гоблин| (отдельно на narod.ru) + Одноголосый закадровый |Юрий Немахов| (отдельно на narod.ru) + Оригинал (отдельно на narod.ru)
Формат видео: AVI
Видео: 720x400 (1.80:1), 23.976 fps, XviD build 65 ~1807 kbps avg, 0.26 bit/pixel
Аудио: 48 kHz, AC3 Dolby Digital, 3/2 (L,C,R,l,r) + LFE ch, ~448 kbps |Дубляж|48 kHz, AC3 Dolby Digital, 3/2 (L,C,R,l,r) + LFE ch, ~448 kbps |AVO, Дмитрий Пучков aka Гоблин|48 kHz, AC3 Dolby Digital, 3/2 (L,C,R,l,r) + LFE ch, ~448 kbps |AVO, Юрий Немахов|48 kHz, AC3 Dolby Digital, 3/2 (L,C,R,l,r) + LFE ch, ~448 kbps |Оригинал|
Скачать

Загрузка начнется в течение 5 сек.

1.45 GB


Смотрите также